#TITLE:KITCHEN WITHOUT GUN REMIX;
#SUBTITLE:;
#ARTIST:YOUSEEKENNY;
#TITLETRANSLIT:;
#SUBTITLETRANSLIT:;
#ARTISTTRANSLIT:;
#GENRE:;
#CREDIT:;
#MUSIC:Kitchen Without Gun Remix.ogg;
#BANNER:KITCHEN WITHOUT GUN REMIX.png;
#BACKGROUND:KITCHEN WITHOUT GUN REMIX-bg.png;
#CDTITLE:;
#SAMPLESTART:27.1;
#SAMPLELENGTH:12;
#SELECTABLE:YES;
#OFFSET:-0.105;
#BPMS:0.000=160.000
,146.500=80.000
,158.500=160.000
;
#STOPS:32.000=0.750
,34.000=0.750
,36.000=0.750
,37.500=0.188
,38.000=0.189
,38.500=0.188
,39.000=0.189
,40.000=0.750
,41.500=0.375
,42.000=0.375
,43.500=0.375
,44.000=0.375
,50.000=1.125
,83.000=1.125
,112.000=0.188
,112.500=0.189
,113.000=0.188
,162.500=0.564
,225.000=0.188
,225.500=0.189
,226.000=0.188
,226.500=0.189
,259.000=1.125
;
#DISPLAYBPM:160.000;
#BGCHANGES:;
#FGCHANGES:;

//--------------- dance-single - ----------------
#NOTES:
     dance-single:
     :
     Beginner:
     3:
     0,0,0,0,0:
0000
0000
0000
0000
,
0000
0000
0000
0000
,
0000
0000
0000
0000
,
0000
0000
0000
0000
,
0001
0000
0001
0000
,
0001
0001
0001
0000
,
1000
0000
1000
0000
,
1000
1000
1000
0000
,
1001
0000
0001
0000
,
1000
0000
0000
0000
,
0010
0000
1001
0000
,
1001
0000
0100
0000
,
0100
0000
0110
0110
,
0110
0110
0000
0001
,
0000
1000
0000
0001
,
0000
1001
0000
1000
,
0000
0001
0000
1000
,
0000
1001
0000
0010
,
0010
0010
0000
1000
,
0000
0001
0000
0010
,
0000
0100
0000
1001
,
0000
0010
0010
0000
,
0001
0000
1000
0000
,
0000
0010
0010
0000
,
1000
0000
0001
0000
,
0100
0000
0001
0000
,
1000
0000
0100
0000
,
0110
0000
1001
0000
,
0010
0000
0010
0000
0000
0110
0000
0000
,
0000
0001
0000
0000
0000
1000
0000
0000
,
0000
0001
0000
0000
0000
1000
0000
0000
,
0000
0100
0000
0000
0000
1001
0000
0000
,
0000
0001
0000
0001
0000
0001
0000
0000
,
0000
1000
0000
1000
0000
1000
0000
0000
,
0000
0010
0000
0010
0000
0010
0000
0000
,
0000
1000
0000
0000
0000
0001
0000
0000
,
0000
0010
0000
0000
0000
1001
0000
0001
,
0000
1001
0000
1000
0000
0110
0000
0010
,
0000
0110
0000
0100
0000
0001
0000
0001
,
0000
1000
0000
1000
0000
0100
0000
0100
,
0000
0100
0000
0100
0000
0100
0000
0000
,
0000
1001
0000
0001
,
0000
0010
0000
0001
,
0001
0001
0000
1000
,
0000
0010
0000
1000
,
1000
1000
0000
0100
,
0000
1000
0000
0001
,
0000
0100
0100
0100
,
0000
0001
0000
1001
,
1001
0000
1000
0000
,
0001
0000
0100
0100
,
0100
0000
0010
0010
,
0000
0100
0100
0100
,
0000
0001
0000
1001
,
0000
1000
0000
0100
,
0000
0010
0010
0010
,
0000
1001
1001
1001
,
1001
1001
0000
0001
,
0000
0100
0000
0110
,
0000
0000
0000
1000
,
0000
0100
0000
0110
,
0000
0000
0000
1000
,
1000
1000
0000
0001
,
0001
0001
0000
0010
,
0000
0110
0000
1001
,
1001
0000
0000
0001
,
0001
0000
0001
0000
,
1001
0000
0000
1000
,
1000
0000
1000
0000
,
0010
0000
1000
0000
,
0001
0000
0100
0000
,
0110
0000
1001
1001
,
1001
0000
0000
0000
;

//--------------- dance-single - ----------------
#NOTES:
     dance-single:
     :
     Easy:
     7:
     0,0,0,0,0:
0000
0000
0000
0000
,
0000
0000
0000
0000
,
0000
0000
0000
0000
,
0000
0000
0000
0000
,
0001
0010
0001
0000
0010
0000
0001
0000
,
1000
0010
1000
0000
0010
0000
1000
0000
,
0001
0100
1000
0100
,
0011
1010
0101
1100
,
0001
0010
0000
0100
0000
1000
0000
0001
,
0000
1000
0000
0010
0010
0010
0010
0000
,
0110
0001
0000
0010
0001
1000
0000
0010
,
1000
0100
0000
1000
0000
0001
0000
0100
,
0000
0010
0000
0001
1000
0110
0000
0101
,
0000
1100
0000
1001
0000
0000
1000
0000
,
0010
1000
0000
0001
0000
0100
0000
0000
,
0001
1001
1000
0001
,
0010
0001
0000
1000
0000
0100
0000
0000
,
1000
0010
1000
0000
0001
0100
0001
0000
,
1000
0100
0000
1000
0000
0001
0000
0010
,
0100
0000
0000
0000
0001
0010
0000
1000
,
0000
0010
0000
0001
0000
0110
0000
0000
,
1001
0000
1000
0100
0000
0001
0000
0100
,
0000
0001
1000
0001
,
0110
0000
1000
0100
0000
0001
0000
0010
,
0000
0101
1100
0000
,
0010
0000
1000
0001
0000
0010
0000
0100
,
0000
0000
1000
0100
0001
0000
0000
0010
,
0000
0001
0000
0010
0000
1000
0000
0001
,
1000
0001
1000
0001
0000
0101
0000
0001
,
0000
0001
0000
1000
0000
1100
0000
1000
,
0000
0010
0000
1000
0000
0001
0000
1000
,
0000
0000
0000
0000
0010
0000
0000
0000
0000
0010
0000
0000
0000
0000
0010
0000
,
0000
0000
0000
1001
0000
0001
0010
0001
,
0000
1000
0100
1000
0000
0000
0000
0100
,
0000
1000
0000
0001
0000
0100
0000
0010
,
0000
0000
0010
0000
0000
0000
0000
0000
0100
0000
0000
0000
0000
0100
0000
0000
,
0000
0100
0000
0000
0000
1001
0000
0001
,
0000
0000
1000
0000
0000
0000
0100
0000
0010
0000
0000
0010
0000
0000
0010
0000
,
0000
0001
1000
0001
0000
1000
0000
0100
,
0000
0010
0000
0001
0000
1000
0000
1000
,
0000
0001
0000
0001
0000
1001
0000
0000
,
0000
0000
0001
0000
0010
0001
1000
0010
,
0000
0010
0000
0000
0100
0000
1001
0000
,
0110
0000
1000
0000
0001
1000
0100
0010
,
0000
0010
0001
0000
1000
0000
1001
0000
,
0000
1000
0100
0010
,
0001
1000
0001
0100
,
0000
0001
0000
0001
0000
1000
0000
1000
,
0000
0110
0000
0000
1000
0000
0001
0100
,
0010
1000
0100
0010
,
0110
0000
0001
0000
1000
0000
0001
1000
,
0001
1000
0010
1000
,
0001
0101
0101
1001
,
0000
0000
0010
0000
1000
0001
0000
0100
,
0000
0001
1000
0000
0100
0000
0100
0000
,
0000
1000
0000
0010
0000
0001
0000
0010
,
0000
0100
0010
0010
0100
0100
0010
0000
,
0100
1001
0000
0001
,
0010
0001
0000
1000
0000
0010
0000
0000
,
1000
0001
0100
0001
,
0000
1000
0100
1000
0000
0001
0100
0000
,
0001
0110
0000
1000
,
0010
1000
0000
0001
0010
0000
0100
0000
,
1000
0000
0001
0000
0100
0010
0000
0100
,
0000
1000
0000
0001
0000
1001
0000
0000
,
0100
1000
0010
0001
,
0001
0010
0001
1000
0100
1000
0010
0000
,
1000
0100
0001
0100
,
0011
1010
1001
0000
,
0001
0000
0010
0001
0000
1000
0010
0000
,
0100
0010
1000
0000
0001
0000
1000
0001
,
0000
0001
0100
1000
0000
0010
0000
1001
;

//--------------- dance-single - ----------------
#NOTES:
     dance-single:
     :
     Medium:
     9:
     0,0,0,0,0:
0000
0000
0000
0000
,
0000
0000
0000
0000
,
0000
0000
0000
0000
,
0000
0000
0000
0000
,
0001
0010
0001
1000
0100
0010
0100
1000
,
0010
1000
0001
0100
0001
1000
0100
0000
,
0010
0100
1000
0001
0010
0001
0010
0001
,
0100
0010
1000
0000
1100
0000
0011
0000
,
0110
0001
0010
0001
0000
1000
0000
0100
,
0000
1000
0001
1000
0010
0100
0001
0000
,
1000
0100
0000
0010
0011
0001
0000
1000
,
1010
0100
0000
0001
1000
0100
1000
0000
,
0001
0010
0001
1000
0100
1010
0000
0011
,
0001
1000
0001
1000
0000
0000
0100
0000
,
1010
1000
0000
0001
0001
1000
0000
0100
,
1000
0010
0100
0001
1000
0000
1001
0000
,
1000
0001
0010
0001
0000
0101
0001
0010
,
0001
1000
0100
0010
0100
0000
1100
0000
,
1000
0001
0000
0010
0001
0100
0010
0000
,
0010
1000
0001
0000
1000
1100
0000
0110
,
0000
0011
0000
0110
0000
1001
0000
0000
,
0100
1000
0010
0110
0000
0001
0010
0001
,
1000
0100
0010
0100
1000
0001
0110
0000
,
1000
0010
1000
0001
0000
0010
0001
0101
,
0000
0001
1000
0100
0110
0000
0010
0000
,
0010
0001
0010
0100
0000
1000
0001
1000
,
0010
0000
1100
0000
0101
0000
0001
1000
,
0100
0010
0000
0001
0100
0010
0000
1000
,
0001
0010
1000
0100
0100
0010
0001
0000
,
1000
0000
0001
1000
0100
0010
0100
0000
,
1000
0000
0001
1000
0001
0100
0010
1000
,
0000
0000
0001
0000
1000
0000
0000
0000
0000
0001
0000
0000
0000
0000
1000
0000
,
0000
0000
1001
0000
0000
0001
0000
0000
1000
0000
0100
0000
0010
0000
0100
0000
,
1000
0010
0100
0001
0000
1000
0000
0110
,
0000
0001
1000
0100
0010
0000
0001
1000
,
0000
0000
1000
0000
0000
0000
0000
0000
0001
0000
0000
1000
0000
0000
0001
0000
,
0000
1000
0000
1001
0000
1000
0100
1000
,
0010
1000
0001
0000
0100
0000
0001
0000
1000
0001
0010
0000
0010
0000
0001
0000
,
0001
0000
1000
0000
0100
0000
0100
1000
0010
0000
1010
0000
1000
0000
0001
0000
,
0100
0011
0010
0001
1000
0100
1000
0010
,
1000
0001
0010
0100
0010
0110
0100
1000
,
0001
0100
0110
0000
1000
0100
0010
1000
,
0010
0000
0001
0000
1000
0000
0000
0000
1100
0000
0000
0000
0010
0001
0000
0000
,
0010
0000
0001
1000
0001
0100
0000
0110
,
0000
1000
1010
0000
0110
0000
0101
0000
,
0000
0000
1000
0100
1000
0010
0000
0001
,
0010
0001
0000
1000
0010
0000
0010
0100
,
0001
0101
0000
0001
0000
1100
0000
1000
,
0000
0000
0010
0000
1000
0000
0000
0000
0001
0000
0000
0000
1000
0001
0000
0000
,
0100
0000
1010
0000
1000
0100
1000
0010
,
0000
0000
0100
0000
0001
0000
0000
0000
0001
0000
0010
0000
0001
0010
0000
0000
,
1001
0000
1000
0100
0010
0100
0010
0011
,
0000
0011
0001
0001
1000
1000
0100
0000
,
0000
0000
1000
0010
1000
0001
0000
0100
,
0001
0010
0000
0000
1100
0000
0101
0000
,
0001
1000
0000
0100
1000
0010
0000
0100
,
0001
0000
0000
0000
1000
0000
0100
0000
0001
0000
0010
0000
0001
0000
0000
1000
,
0000
0001
0010
0100
0100
0100
1100
0000
,
0001
0101
0000
0001
1000
0100
0000
0000
,
0010
0001
0010
0001
1000
0100
1000
0010
,
1000
0001
0000
0101
0000
1000
0100
0010
,
0100
0000
1100
0000
0000
0000
0010
0001
,
0000
1000
0010
0100
0000
1010
0000
0100
,
0001
0000
0011
0000
0110
0100
1000
0100
,
0000
0010
0001
0010
0000
1001
0000
0000
,
0100
1000
0100
0010
0000
1100
0000
0010
,
0001
0100
0101
0000
1001
0000
0110
0000
,
1000
0010
0001
0010
0100
0001
1000
0100
,
0000
0010
1001
0000
1001
0000
1001
0000
,
1000
0100
1000
0001
0010
0001
0000
0100
,
0010
0000
0101
0000
1100
0000
1000
0001
,
0000
0010
0000
0000
0001
0000
1000
0000
0000
0010
0000
0000
1000
0000
0110
0000
;

//--------------- dance-single - ----------------
#NOTES:
     dance-single:
     :
     Hard:
     10:
     0,0,0,0,0:
0000
0000
0000
0000
,
0000
0000
0000
0000
,
0000
0000
0000
0000
,
0000
0000
0000
0000
,
1001
0000
0001
0000
1000
0000
0100
1000
0000
0001
0010
0000
0001
0000
1000
0010
,
0000
0000
0100
0001
1000
0000
0001
0010
0000
0000
0001
0000
1000
0000
0010
0000
,
0110
0000
0100
0000
0001
0000
1000
0100
0000
0010
0100
0000
0010
0000
0001
0010
,
0001
0000
1000
0100
1000
0000
0001
0100
0000
0010
0100
0000
0001
0010
0001
1000
,
0100
0101
0001
1001
0000
1000
0010
1001
,
0000
0100
1000
1100
0011
1010
0101
0010
,
0100
0001
0010
0011
1010
0100
0000
0001
,
1100
0000
0010
0000
0000
0000
1010
0000
0000
0000
1000
0001
0010
0000
0001
1000
,
0100
0000
1000
0001
1000
0000
0100
0000
0010
0000
1010
0000
1000
0000
0011
0000
,
0011
0000
1001
0000
1001
0000
1100
0000
0000
0000
1000
0001
1000
0000
0000
0000
,
1010
0000
0100
0001
0100
0000
0001
0000
0010
0000
0001
1000
0100
0000
0010
0000
,
0110
0000
0000
0100
1000
0000
0001
0000
0101
0000
0001
0000
0010
0000
0001
0100
,
0001
0000
1000
0000
0100
1000
0010
0000
1000
0000
1100
0000
0010
0000
0001
1000
,
0001
0000
0100
0000
0110
0000
0010
0000
1000
0000
0000
0000
0100
0000
0000
1000
,
0001
0000
1000
0001
0010
0000
0001
0000
0010
0000
0110
0000
0000
0000
0010
0001
,
0010
0000
0001
0000
1000
0100
1000
0000
1000
0000
1100
0000
1000
0000
0001
0000
,
0100
0101
1000
0100
0010
0110
0000
0000
,
1000
0100
0000
0000
1010
0000
1000
0001
1000
0000
0001
0000
0011
0000
0001
0000
,
0100
0001
1000
1100
0011
0010
0110
0000
,
0001
0010
0000
0000
0001
0000
1000
0100
1000
0000
0001
0000
0100
0000
0010
0000
,
1000
0010
1010
1000
0101
0001
0001
0000
,
1000
0010
0000
0000
1000
0001
1000
0001
0100
0000
0001
0000
0010
0000
0110
0000
,
0000
0000
0010
0001
0010
0000
0001
0000
1000
0100
1000
0000
0010
0000
1010
0000
,
0000
0000
0100
0000
0001
0000
1100
0000
0000
0000
0110
0000
0010
0001
0010
0000
,
0011
0000
1010
0000
0110
0000
0001
1000
0001
1000
0100
0000
1000
0000
0010
0000
,
0110
0100
0101
0001
1001
1000
0010
1000
,
0010
0000
0100
0000
0101
0000
0001
0000
0101
0000
0001
1000
0100
0000
1000
0000
,
0010
0000
0100
0000
1001
0000
0000
0000
0000
1001
0000
0000
0000
0000
1001
0000
,
0000
0000
1000
0100
0000
1000
0010
1000
0001
0000
0100
0000
0001
0000
1001
0000
,
0000
0000
0001
0010
0001
0000
1000
0000
0001
0000
0010
0000
0100
0000
0110
0000
,
0000
0000
0100
1000
0010
0000
1000
0000
0001
0000
0010
0000
0001
0000
0101
0000
,
0000
0000
1100
0000
1000
0000
0000
0000
0110
0000
0000
0000
0000
0110
0000
0000
,
0000
0000
0110
0000
0000
0000
0000
0000
0000
0000
0001
0010
0001
0000
1000
0100
,
0010
0100
1000
0001
0100
0000
0010
1000
0110
0000
0000
0110
0000
0000
0110
0000
,
0100
0001
1000
0001
0010
0001
1000
0100
0010
0000
0100
0010
0001
0000
0001
0010
,
0001
0000
1000
0010
1000
0000
0001
0100
0010
0000
1010
0000
1000
0000
0101
0000
,
0001
0000
0011
0000
1000
0000
1100
0000
0010
0000
0001
0000
1000
0001
1000
0000
,
0100
0010
0100
1000
0001
0000
0010
0000
0011
0000
0001
0000
1000
0000
0100
0000
,
1010
0000
1000
0000
0010
1000
0010
0000
1000
0000
0001
0000
1000
0001
0000
0001
,
0010
0000
0001
0000
1000
0100
0010
0000
0100
0010
0100
0000
0010
0000
0011
0000
,
0001
0000
1001
0000
1000
0000
0000
0010
1000
0000
0010
1000
0001
0000
0100
0000
,
1001
0000
0000
0000
0001
1000
0000
0000
0001
0010
0001
0000
0100
0000
0001
0000
,
0010
0000
0110
0000
0000
0000
0100
1000
0100
0000
0000
0000
1000
0100
1000
0001
,
0100
0000
0101
0000
0000
0001
0100
0000
0010
0000
1100
0000
0000
1000
0100
0000
,
0010
0000
0110
0000
0000
0000
0100
0000
1100
0000
0100
0000
0010
0001
0000
1000
,
0010
0000
0011
0001
1000
1010
0010
0110
,
0000
0000
1000
0100
0010
0000
0100
0010
0001
0000
0100
0000
0001
1000
0000
0100
,
1000
0000
0010
0100
0001
0000
0010
0000
0011
0000
0010
0000
0001
0000
1000
0100
,
1000
0000
0010
0000
0100
0000
0001
0010
0001
0000
1000
0000
1100
0000
0000
0000
,
1010
0000
0000
0000
0100
0001
0000
0000
0001
1000
0001
0010
0001
0000
0010
0000
,
0001
0000
1100
0000
0000
0000
0000
1000
0100
0000
1000
0010
0100
0000
0001
0000
,
0010
0000
0011
0000
0000
0000
0001
1000
0100
0000
1100
0000
0000
0000
1000
0010
,
0100
0000
0001
0000
0011
0000
1100
0000
1010
0000
0101
0000
0001
0010
0001
1000
,
0000
0000
0100
0000
1000
0010
1000
0000
0001
0010
0001
0000
0101
0000
0001
0000
,
1010
0000
1010
0000
0000
0000
1000
0010
1000
0000
0001
0000
0000
0000
0010
0001
,
0100
0000
0001
0000
1000
0000
1100
0000
0110
0000
0000
0000
0010
0001
0000
0000
,
0001
1000
0100
0000
1000
0000
1010
0000
0010
0000
0100
0001
1000
0000
0100
1000
,
0010
0000
1000
0000
0100
0010
0001
0000
0010
0100
0010
0000
0011
0000
0001
0000
,
0101
0000
1000
0000
0100
0000
1100
0000
0000
0000
1000
0010
0000
0000
0010
1000
,
0100
0010
0000
0000
0110
0000
0010
0001
0010
0000
0110
0000
0000
0000
0100
1000
,
0010
0000
0110
0000
0000
0000
0100
0001
1000
0000
0010
0000
1001
0000
0000
0000
,
1000
0100
1000
0000
0010
0000
0100
0010
0001
0000
0011
0000
0001
1000
0001
0000
,
1000
0000
0010
0100
0010
0000
1000
0001
0010
0000
0110
0000
0011
0000
0000
0000
,
1000
0010
0000
0000
0100
0001
1000
0000
0001
0000
0010
0000
0001
0000
1100
0000
,
0000
0000
1000
0010
1000
0000
0001
0010
0001
0000
0010
0001
0100
0000
0010
0000
,
1010
0000
1000
0100
1000
0000
0010
0000
0100
0000
0101
0000
0000
0000
0011
0000
,
0001
0100
0000
0000
0001
1000
0100
0000
1000
0000
1010
0000
0010
0000
0110
0000
,
0000
0101
0001
1001
0000
1100
0110
1001
;

//--------------- dance-single - ----------------
#NOTES:
     dance-single:
     :
     Challenge:
     12:
     0,0,0,0,0:
0000
0000
0000
0000
,
0000
0000
0000
0000
,
0000
0000
0000
0000
,
0000
0000
0000
0000
,
0110
0000
0100
1000
0001
0000
0010
0001
0000
1000
0010
0000
0100
0001
0010
0001
,
0000
1000
0010
0000
0100
0010
1000
0100
0000
0000
1000
0010
0100
0000
0001
0000
,
1001
0000
0010
0100
0010
0000
0100
1000
0000
0100
1000
0010
0100
0000
0001
0010
,
0001
0000
0100
0000
0001
1000
0100
0010
0000
0100
1000
0010
0100
0001
0010
0000
,
1100
1010
0110
0101
0000
0011
0001
1001
,
0000
1100
0110
0101
1001
1010
0110
0101
,
1000
0000
0010
0000
0100
0001
0010
0000
0110
0000
1000
0000
0100
1000
0010
0000
,
0110
0000
0001
0000
1000
0100
0010
0000
0001
0000
1000
0001
0100
0000
0010
0000
,
0100
0000
0001
0010
0001
1000
0100
0010
0100
0000
1100
0000
0110
0000
1100
0000
,
0101
0000
0110
0000
0011
0000
1001
0000
0010
0001
0100
0010
1000
0000
0000
1000
,
0010
0000
0100
0010
1000
0001
0010
0000
0100
0001
1000
0000
0010
0000
0110
0000
,
0100
0001
0010
0000
0001
0000
0001
1000
0100
0010
0100
0000
1100
0000
1000
0010
,
0100
0000
0101
0000
0001
1000
0100
0000
0011
0000
1010
0000
1000
0000
0010
0100
,
0001
0000
1001
0000
1000
0100
0010
0000
0100
1000
0001
0100
0010
0000
0100
0001
,
0010
0000
0011
0000
1000
0000
1010
0000
0010
1000
0001
0000
0100
0000
0100
0001
,
1000
0100
0010
0000
0100
0010
0100
0000
1000
0010
1000
0000
1010
0000
1000
0001
,
0010
0000
0011
0000
0100
0010
0001
1000
0010
0100
0001
0000
1100
0000
0000
0000
,
0010
0100
0001
0000
0011
0000
1010
0000
1000
0010
0100
0000
0100
0000
0001
0000
,
1100
0010
1100
0010
0101
0110
0101
0000
,
0100
0001
0000
0000
1000
0001
0010
0000
0100
0000
0010
0001
0010
0000
0001
0000
,
1000
0000
0010
0100
1000
0100
0010
0000
1000
0000
0010
1000
0001
0010
0001
0100
,
0001
0000
0010
0000
0110
0000
1100
0000
1000
0100
1000
0000
0001
0000
0101
0000
,
0010
0000
1000
0010
0100
0000
0100
0001
1000
0000
0001
0000
0010
0000
0101
0000
,
0010
0000
0100
0001
1000
0000
1100
0000
1000
0000
0010
0100
0001
0010
0100
0000
,
0011
0000
0110
0000
1001
0000
1000
0010
1000
0001
0010
0000
0101
0000
0001
0000
,
1000
0100
1000
0000
1010
0000
1000
0000
0010
0100
0001
0000
0010
0000
0001
1000
,
0100
0000
1000
0001
0100
0010
0100
0000
0001
1000
0100
0000
0010
0000
0011
0000
,
0100
0000
0001
0000
1000
0100
1000
0000
0000
0010
0100
0001
0000
0000
0001
0010
,
0001
0000
1001
0000
1000
0100
1000
0001
0010
0000
0100
0000
0001
1000
0100
0010
,
0100
1000
0001
0000
0100
0000
1010
0000
0000
1000
0001
0000
0010
0001
0100
0000
,
0010
0000
1000
0001
1000
0000
0100
0000
0010
0100
1000
0000
0010
0000
0100
0010
,
1000
0001
0010
0100
0010
0001
1000
0000
1000
0010
0100
0000
0000
0001
1000
0001
,
0000
0000
0100
0001
1000
0000
1100
0000
0000
0000
0010
0001
1000
0001
0100
0010
,
1000
0000
0100
0000
0010
0000
0100
0000
1000
0000
0001
0000
0100
0000
0010
0000
1000
0100
1000
0000
0000
0000
0001
0010
0001
0000
0000
0000
1000
0001
1000
0000
,
0100
0100
1000
0010
0100
0001
0010
0100
0110
0010
0011
0001
1000
0001
0100
0010
,
1000
0010
1010
1000
0100
1000
0001
0010
0100
0010
0001
0010
0001
0010
0100
1000
,
0100
1000
0010
1000
0010
0100
0001
0010
0100
1000
0001
0000
1000
0010
1000
0001
,
0010
0100
0010
0001
1000
0000
0010
0000
0101
0000
0001
1000
0100
0010
0100
0000
,
1100
0000
1010
0000
0100
0000
0001
0010
0100
0000
0010
0000
0001
1000
0010
0000
,
1010
0000
1000
0000
1001
0000
0001
0010
0001
0100
0010
0000
0100
0000
0101
0000
,
0001
0000
1000
0100
0010
0000
0100
0000
1000
0001
0100
0000
0010
1000
0100
0010
,
0001
0100
0010
0000
1000
0000
0010
0000
0101
0000
0001
1000
0100
0000
1100
0000
,
0010
0000
0100
0010
0000
0000
0100
1000
0001
0100
0010
0000
1000
0010
1000
0000
,
0001
0000
1001
0000
1000
0100
1000
0010
0100
0000
0101
0000
0001
0010
0100
0010
,
0100
0000
0110
0000
1000
0000
0010
0000
0101
0000
1000
0000
0001
0010
0001
0000
,
1010
0000
0000
0000
0100
0010
0000
0000
1000
0001
0010
0100
0010
0000
0011
0000
,
0001
0000
1100
0000
0010
0000
1010
0000
0010
0000
0011
0000
1000
0100
1000
0001
,
0010
0000
0110
0000
1100
0000
1000
0001
0010
0000
0110
0000
0001
0000
0101
0000
,
0001
0010
0001
1000
0100
0000
0010
0100
1000
0001
0100
0000
0001
0000
1001
0000
,
1010
0000
0110
0000
0010
1000
0001
0000
0010
0000
0100
0010
0001
0000
0010
0001
,
1000
0010
0100
0000
0000
0010
1000
0000
0001
0010
0001
0000
1010
0000
0001
0000
,
0101
0000
1010
0000
0100
0001
1000
0100
0010
0000
0011
0000
0001
0100
0010
1000
,
0001
0000
1001
0000
1010
0000
0110
0000
0101
0000
0110
0000
1000
0010
0100
0001
,
0000
0000
1001
0000
0001
0010
0001
1000
0100
1000
0010
0100
0001
0000
0101
0000
,
0001
1000
0100
0000
0010
0100
1000
0010
1000
0000
1100
0000
1000
0000
0010
0100
,
0010
0000
1000
0000
0001
1000
0100
0000
0110
0000
1000
0000
0010
1000
0000
0000
,
0001
1000
0001
0000
0100
0000
1010
0000
0100
0000
0001
1000
0100
0000
0010
0000
,
0100
1000
0010
1000
0100
0000
1000
0010
0100
0000
1001
0000
0010
0001
0100
0000
,
0010
0000
1000
0001
1000
0100
0010
0000
1000
0000
1010
0000
0010
1000
0000
0001
,
1000
0000
0001
0010
0100
0000
0010
0001
1000
0000
1100
0000
1000
0010
1000
0001
,
0100
0000
0101
0000
0010
0000
0110
0000
1001
0000
0001
0010
0100
0000
0000
0000
,
1001
0000
1000
0001
0010
0000
0001
0000
0100
0001
1000
0000
0010
0100
0010
0000
,
1000
0000
0100
0010
0100
1000
0001
0100
0010
1000
0001
0100
0010
0100
0001
0000
,
0010
0000
0001
0010
0100
1000
0100
0000
1100
0000
1010
0000
1000
0001
0010
0000
,
0011
0000
0101
0000
0001
1000
0000
0000
1001
0000
0110
0000
1001
0000
0000
0000
,
1000
0010
0000
0000
0001
1000
0100
0000
0010
1000
0100
0010
0001
1000
0010
0000
,
0100
0000
1001
0000
0001
0010
0000
0000
0001
1000
0010
0100
0010
0000
1010
0000
,
1000
0100
0010
0100
0001
0000
0011
0000
0010
0000
0101
0000
1100
0000
1001
0000
;

//--------------- dance-solo - ----------------
#NOTES:
     dance-solo:
     :
     Easy:
     6:
     0,0,0,0,0:
000000
000000
000000
000000
,
000000
000000
000000
000000
,
000000
000000
000000
000000
,
000000
000000
000000
000000
,
000010
010000
000100
000000
,
010000
000010
000100
000000
,
000001
000001
100000
100000
,
001000
000100
000010
010000
,
000001
000000
000001
100000
000000
000000
100000
000001
,
000000
000000
000100
001000
000000
000000
000000
000000
,
010010
000000
000010
100000
001000
000000
010000
000001
,
001000
000001
010000
000010
,
100000
000000
001000
000000
100001
001000
000000
001000
,
000000
000100
000000
000100
000000
000000
000001
000000
,
100000
000001
000000
100000
000000
000001
000000
000000
,
001000
000100
000000
100000
,
000001
100000
000000
000001
000000
100000
000000
000000
,
000010
010000
000000
001000
,
000100
001000
000000
000100
000000
001000
000000
000100
,
000000
000000
000001
000000
100000
000010
000000
010000
,
000000
000010
000000
010000
000000
010010
000000
000000
,
001000
100000
000100
001000
,
000010
010000
000010
000000
,
001000
000001
000100
001000
,
010000
000010
010000
000000
,
001000
000001
000100
000000
,
001000
000000
100000
000000
000100
000000
000000
010000
,
000000
000010
000000
010000
000000
000010
000000
010010
,
000000
000000
000000
000000
000000
000001
000000
000000
,
000000
000001
000000
010000
000000
000001
000000
000000
,
000000
100001
000000
000000
000000
100000
000000
000000
,
000000
100000
000000
000010
000000
100000
000000
000000
,
000000
010010
000000
000000
000000
000100
000000
000000
,
000000
010000
000000
000000
000000
000100
000000
100000
,
000000
001000
000000
000000
000000
000100
000000
000000
,
000000
000010
000000
000000
000000
000100
000000
000001
,
000000
001000
000000
000000
000000
000001
000000
100000
,
000001
100000
000000
000001
100000
000010
000000
010000
,
000000
001000
000100
001000
000100
000001
000000
100000
,
000010
010000
000000
000001
010000
000010
000000
000000
,
000000
100001
000000
000100
000000
010010
000000
000000
,
000000
100000
001000
100000
,
000100
010000
000000
010010
,
010010
000001
001000
000001
,
000100
000010
000000
000100
,
001000
100000
000100
001000
,
000001
000100
001000
001100
,
000000
100000
000000
000001
000000
010000
000000
000010
,
000000
000100
000000
000000
000000
000000
001100
000000
,
001100
001000
100000
000010
,
010000
000100
000100
010010
,
010010
001000
000001
010000
,
000010
100100
000101
100001
,
000000
001000
100000
000001
,
000100
000010
010000
010010
,
000000
000001
000000
100000
000000
000010
000000
010000
,
000000
000000
000000
000000
000010
000000
000010
000000
010000
000000
010000
000000
000010
000000
000000
010000
,
000000
000010
010000
000010
010000
000000
101000
000000
,
100000
001000
000000
100000
000000
000100
000000
000000
,
010000
000010
010000
001001
,
000001
001000
000000
000001
000000
000100
000000
000000
,
000010
010000
000010
000100
,
001000
100000
000010
010000
,
000001
000000
100001
000000
000000
000001
000100
000001
,
000000
100000
000100
100000
000000
001100
000000
000000
,
010100
000000
000100
010000
000000
000010
000000
000100
,
000000
001000
000100
001000
,
000110
000000
000100
000010
000000
010000
000000
000100
,
000000
001000
000001
100000
,
001100
000000
000000
000100
000000
000001
000000
000000
,
001100
000000
000000
000100
000000
100000
000000
000010
,
000000
000100
000010
010000
000000
000100
010000
010010
;
