#TITLE:きらめく涙は星に;
#SUBTITLE:;
#ARTIST:タイナカ サチ;
#TITLETRANSLIT:Kirameku Namida wa Hoshi ni;
#SUBTITLETRANSLIT:;
#ARTISTTRANSLIT:Tainaka Sachi;
#GENRE:Anime;
#CREDIT:8Chasey 2025;
#MUSIC:Kirameku Namida wa Hoshi ni.ogg;
#BANNER:;
#BACKGROUND:Kirameku Namida wa Hoshi ni-bg.png;
#CDTITLE:;
#SAMPLESTART:63.800;
#SAMPLELENGTH:12.000;
#SELECTABLE:YES;
#OFFSET:0.000;
#BPMS:0.000=108.000
,72.000=216.000
,104.000=108.000
,128.000=216.000
,184.000=108.000
,188.000=216.000
,196.000=108.000
;
#STOPS:;
#DISPLAYBPM:108.000:216.000;
#BGCHANGES:2.000=Kirameku Namida wa Hoshi ni.avi=1.000=1=0=0=StretchNoLoop==CrossFade==,
203.750=Kirameku Namida wa Hoshi ni-bg.png=1.000=0=0=0=StretchNoLoop====,
99999.000=-nosongbg-=1.000=0=0=0=StretchNoLoop====
;
#FGCHANGES:;

//--------------- dance-single - 8Chasey ----------------
#NOTES:
     dance-single:
     8Chasey:
     Beginner:
     2:
     0,0,0,0,0:
0000
0000
0000
0000
,
0000
0000
0000
0000
,
0001
0000
0000
0000
,
0001
0000
0000
0000
,
1000
0000
0000
0000
,
1000
0000
0000
0000
,
0001
0000
0000
0000
,
1000
0000
0000
0000
,
0010
0000
0100
0000
,
0110
0000
0000
0000
,
0010
0000
0000
0010
,
0010
0000
0010
0000
,
0100
0000
0000
0100
,
0100
0000
0100
0000
,
0001
0000
0000
0000
,
1000
0000
0000
0000
,
0001
0000
0000
0000
,
1000
0000
0000
0000
,
0001
0000
0000
0000
,
0001
0000
0000
0000
,
1000
0000
0000
0000
,
0001
0000
0000
0000
,
1000
0000
0000
0000
,
1000
0000
0000
0000
,
0001
0000
0000
0000
,
1000
0000
0000
0000
,
0001
0000
0001
0000
,
0001
0000
0001
0000
,
1000
0000
1000
0000
,
1000
0000
1000
0000
,
0001
0000
1000
0000
,
0100
0000
0000
0000
,
0000
0000
0000
0000
,
0000
0000
0000
0000
,
1001
0000
0000
0000
,
0001
0000
0001
0000
,
0001
0000
0000
0000
,
0000
0000
0000
0000
,
0010
0000
0000
0000
,
1000
0000
1000
0000
,
1000
0000
0000
0000
,
0000
0000
0000
0000
,
0100
0000
0000
0000
,
0010
0000
0000
0000
,
0100
0000
0100
0000
,
0100
0000
0000
0000
,
0010
0000
0000
0000
,
0010
0000
0000
0000
,
0000
0000
0000
0000
,
0001
0001
0000
0000
,
0100
0100
0000
0000
,
0010
0010
0000
0000
,
1000
1000
0000
0000
;

//--------------- dance-single - 8Chasey ----------------
#NOTES:
     dance-single:
     8Chasey:
     Easy:
     3:
     0,0,0,0,0:
0000
0000
0000
0000
,
0000
0000
0000
0000
,
0001
0000
1000
0001
,
2000
0000
3000
0000
,
1000
0000
0001
1000
,
0002
0000
0003
0000
,
0100
0000
0010
0000
,
0100
0010
0100
0000
,
0220
0000
0330
0000
,
2002
0000
3003
0000
,
0100
0000
0001
0100
,
0001
0000
0010
0000
,
0001
0000
1000
0100
,
1000
0000
0010
0000
,
0100
0000
0001
0000
,
0010
0010
0010
0000
,
0100
0000
1000
0000
,
0010
0010
0010
0000
,
1000
0000
0100
0000
,
1000
0000
0000
0000
,
0001
0000
0010
0000
,
0001
0000
0000
0000
,
1000
0000
1000
0000
,
0001
0000
0001
0000
,
1000
0000
0010
0000
,
0100
0000
0001
0000
,
2000
3000
2000
3000
,
0002
0003
0002
0003
,
0200
0300
0200
0300
,
0020
0030
0020
0030
,
2000
3000
0002
0003
,
0100
0010
0100
0010
,
0100
0000
0000
0000
,
0000
0000
0000
0000
,
0001
0000
0010
0000
,
0001
1000
0001
0000
,
2000
0000
0000
0000
,
3100
0000
0000
0000
,
1000
0000
0010
0000
,
1000
0001
1000
0000
,
0002
0000
0000
0000
,
0103
0000
0000
0000
,
0010
0000
0100
0000
,
0010
0100
0010
0000
,
1000
0000
0001
0000
,
0100
0000
0010
0000
,
0200
0000
0000
0000
,
0320
0000
0000
0000
,
0000
0000
0000
0000
,
1030
1001
0001
0001
,
0010
0110
0100
0100
,
1000
0001
1000
0001
,
0000
0000
0000
0000
2002
0000
0000
0000
0000
3003
0000
0000
0000
0000
0000
0000
;

//--------------- dance-single - 8Chasey ----------------
#NOTES:
     dance-single:
     8Chasey:
     Medium:
     6:
     0,0,0,0,0:
0000
0000
0000
0000
,
0000
0000
0000
0000
,
0002
0000
0103
0000
0001
0100
0010
0000
,
2000
0000
3100
0100
,
2000
0000
3010
0000
1000
0010
0100
0000
,
0002
0000
0000
0000
0013
0000
0100
0010
,
0100
0000
1000
0000
0100
0000
1000
0001
,
1000
0001
0100
0010
,
0220
0000
0330
0000
1000
0000
0001
1000
,
0002
0000
0200
0303
,
0020
0000
1030
0000
0100
1000
0000
0001
,
0020
0031
0200
0310
,
2000
0000
0010
0000
0001
0001
3001
0000
,
0010
0100
0010
0200
0000
0000
0300
0000
,
1000
0000
0100
1000
0010
0000
0100
0000
,
0001
0000
0100
0001
0010
0000
0100
0000
,
1000
0010
1000
0000
0001
0100
0001
0000
,
1000
0000
0001
0000
0100
0100
0010
0010
,
1000
0100
1000
0000
,
0010
0100
0010
1000
,
0001
0100
0001
0000
,
0100
0010
1000
0100
,
1000
0001
1000
0000
,
0001
0010
0001
0000
,
0100
0001
1000
0100
,
0020
0100
0130
0000
,
0220
0330
2002
3003
,
2020
3030
0022
0033
,
2200
3300
0202
0303
,
0100
0010
0100
0010
0200
0000
0310
0000
,
2000
0000
3100
0000
1000
0001
1000
0000
,
0002
0000
0013
0000
0001
1000
0001
0000
,
2002
0000
0000
0000
,
3003
0000
0000
0000
,
0001
0010
0001
0000
,
0100
0100
0010
0010
,
1000
0001
1000
0001
,
0100
0000
0010
0000
,
1000
0010
1000
0000
,
0010
0010
0100
0100
,
0001
0010
0001
0000
,
1000
0100
1000
0000
,
0001
0010
1000
0000
,
0001
0100
1000
0000
,
0002
0000
2003
0000
,
3100
0000
0010
0100
,
0220
0330
1001
0110
,
1000
0000
0000
0001
0000
0000
1000
0000
,
0000
0001
0000
0000
1000
0000
0001
0000
,
1001
0000
0000
0000
1000
0000
0000
0010
0000
1000
0000
0000
0100
0000
0000
0000
,
0010
0000
0000
0000
0001
0000
0000
0010
0000
0001
0000
0000
0100
0000
0100
0000
,
0010
0000
1000
0000
0010
0000
0000
0100
0000
0001
0000
0000
0100
0000
0000
0000
,
0010
0000
0000
0000
0100
0000
0000
0000
0000
0220
0000
0000
0000
0000
0330
0000
;

//--------------- dance-single - 8Chasey ----------------
#NOTES:
     dance-single:
     8Chasey:
     Hard:
     8:
     0,0,0,0,0:
0000
0000
0000
0000
,
0000
0000
0000
0000
,
1001
0000
0000
1000
0001
0000
0000
0000
0010
0000
0001
0000
0100
0000
0010
0000
,
2000
0000
0000
0000
0000
0000
0000
0000
3000
0000
0000
0000
0100
1000
0100
0000
,
1000
0000
0000
0001
1000
0000
0000
0000
0010
0000
1000
0000
0100
0000
0010
0000
,
0002
0000
0000
0000
0000
0000
0000
0000
0003
0000
0000
0000
0100
0001
0100
0000
,
0010
0000
0000
0100
0010
0000
0000
0000
1000
0000
0100
0000
1000
0000
0001
0000
,
0100
0000
0000
0000
0010
0000
0100
0000
0110
0000
0000
0010
0000
0000
0010
0000
,
2000
0000
0000
0000
3100
0010
0000
0000
0002
0000
0000
0000
0013
0000
0010
0000
,
0001
0010
1000
0010
0100
1000
0001
0000
,
1001
0000
1000
0010
1000
0001
0100
0100
,
0020
0000
1000
0000
0230
0001
0301
0000
,
0011
0000
0000
0001
0000
0000
0001
0000
0000
0000
0100
0000
0001
0000
0000
0000
,
1000
0010
0100
0002
0000
1000
1003
0000
,
0100
0000
1000
0000
0010
1000
0000
0010
0000
0000
1000
0000
0001
0000
0000
0000
,
0100
0000
0001
0000
0010
0001
0000
0010
0000
0000
0001
0000
1000
0000
0100
0000
,
0100
0000
0010
0000
0001
1000
0000
0001
0000
0000
1000
0000
0100
0000
0000
0000
,
0010
0000
0001
0000
1000
0000
0000
0001
1000
0001
1000
0000
0010
0000
0010
0000
,
0100
0000
0001
0000
0010
0001
0000
0001
,
1000
0000
0100
0000
1000
0100
0010
0000
,
0100
0000
1000
0001
0000
0001
0000
0020
,
0100
0000
0001
0000
0130
1000
0100
0000
,
1000
0000
0001
0000
0100
0010
0000
0010
,
1000
0100
1000
0000
0001
0010
0001
0000
,
0101
1010
1100
0011
,
0020
0100
0130
1000
,
0002
0000
0103
0001
0200
0000
0310
0000
,
2000
0000
3010
1000
0020
0000
0130
0000
,
0001
0000
0010
0000
0001
0000
0100
0000
0010
0000
0000
1000
0100
0000
1000
0001
,
1000
0000
0000
1010
0000
0000
0001
0000
0101
0000
0000
0000
0100
0000
0010
0000
,
2000
0000
0000
0000
3100
0000
1000
0000
0020
0000
0000
0000
0130
0000
0000
0100
,
0001
0000
0010
0000
0010
0000
0000
0001
1000
0000
0100
0000
1000
0001
1000
0001
,
2000
0000
0000
0000
,
3000
0000
0000
0000
0001
1000
0001
1000
,
0001
0100
0110
0010
,
2000
3020
0230
0302
,
1003
0000
0010
1000
0100
0000
0010
0001
,
0100
0000
0001
0000
1000
0100
1000
0100
,
0010
0001
1001
1000
,
0020
0230
0302
2003
,
3100
0000
1000
0010
0100
0000
0001
0010
,
0100
0000
1100
0000
1000
0001
1000
0000
,
0001
0101
1000
1010
,
1000
0100
0010
0000
0001
0000
0011
0000
,
0020
0100
0032
0100
,
2003
0010
3200
0310
,
0120
0000
0100
0000
0031
0000
0000
0100
0001
0100
0001
0000
1000
0000
0001
0000
,
1000
0100
0000
0100
0010
0000
0010
0001
,
0000
0001
1000
0000
0010
0100
0010
0100
,
0001
0010
0000
0001
0100
0010
0100
0001
0000
1000
0001
0000
1001
0000
0000
0000
,
1000
0010
0000
1000
0100
0010
0100
1000
0000
0001
1000
0000
0001
0010
0100
0000
,
0010
0001
0000
0001
1000
0010
1000
0001
0000
0100
0010
0000
0110
0000
0000
0000
,
0010
1000
0000
0010
0100
0001
0100
0010
0000
1000
0020
0000
0000
0000
0030
0000
;

//--------------- dance-double - 8Chasey ----------------
#NOTES:
     dance-double:
     8Chasey:
     Easy:
     3:
     0,0,0,0,0:
00000000
00000000
00000000
00000000
,
00000000
00000000
00000000
00000000
,
00001000
00010000
00000010
00000100
,
00000020
00000000
00000030
00000010
,
00010000
00001000
00100000
01000000
,
00200000
00000000
00300000
00100000
,
01000000
10000000
01000000
00010000
,
00001000
00010000
00000010
00000000
,
00000200
00000000
00000301
00000100
,
00002000
00000000
00013000
00000000
,
00011000
00000000
00001000
00100000
,
00001000
00000000
01000000
00000000
,
01100000
00000000
00100000
00000000
,
10000000
00010000
10000000
00000000
,
01000000
00000000
00100000
00000000
,
00001000
00010000
00001000
00000000
,
00000100
00000000
00000010
00000000
,
00010000
00001000
00010000
00000000
,
00000100
00000000
00001000
00000000
,
00000100
00000000
00000000
00000000
,
00001000
00000000
00001000
00000000
,
00000001
00000000
00000000
00000000
,
00000100
00000000
00000010
00000000
,
00000100
00000000
00000010
00000000
,
00010000
00000000
00001000
00000000
,
00010000
00000000
00001000
00000000
,
00200000
00300000
00200000
00300000
,
02000000
03000000
02000000
03000000
,
00020000
00030000
00020000
00030000
,
00002000
00003000
00002000
00003000
,
00000200
00000300
00000020
00000030
,
00001000
00000001
00001000
00000001
,
00001000
00000000
00000000
00000000
,
00000000
00000000
00000000
00000000
,
00000100
00000000
00000100
00000000
,
00010000
00001000
00010000
00000000
,
00002000
00000000
00000000
00000000
,
00103000
00000000
00010000
00000000
,
01000000
00000000
01000000
00000000
,
00001000
00010000
00001000
00000000
,
00020000
00000000
00000000
00000000
,
00030100
00000000
00001000
00000000
,
00000001
00000000
00001000
00000000
,
00000001
00001000
00000001
00000000
,
00000100
00000000
00000010
00000000
,
00010000
00000000
00001000
00000000
,
00020000
00000000
00000000
00000000
,
00032000
00000000
00000000
00000000
,
00000000
00000000
00000000
00000000
,
00103000
01100000
01000000
01000000
,
00010000
00011000
00001000
00001000
,
00000100
00000010
00000100
00000010
,
00000000
00000000
00000000
00000000
00002002
00000000
00000000
00000000
00000000
00003003
00000000
00000000
00000000
00000000
00000000
00000000
;

//--------------- dance-double - 8Chasey ----------------
#NOTES:
     dance-double:
     8Chasey:
     Medium:
     6:
     0,0,0,0,0:
00000000
00000000
00000000
00000000
,
00000000
00000000
00000000
00000000
,
00002000
00000000
00103000
00000000
01000000
10000000
01000000
00000000
,
20000000
00000000
01000000
00000000
30010000
00000000
00100000
00001000
,
00020000
00000000
00030010
00000000
00000100
00000001
00000100
00000000
,
00000002
00000000
00000010
00000000
00001003
00000000
00000100
00000010
,
00000100
00000000
00010000
00000000
00001000
00000000
00100000
01000000
,
00100000
01000000
00010000
00001000
,
00022000
00000000
00033000
00000000
00010000
00000000
00000100
00000010
,
00000200
00010000
00000001
00001300
,
00000020
00000000
00000130
00000000
00000001
00000100
00000000
00000010
,
00002000
00003100
00020000
00031000
,
00200000
00000000
00010000
00000000
01000000
01000000
01300000
00000000
,
10000000
00010000
10000000
00020000
00000000
00000000
01030000
00000000
,
01100000
00000000
01000000
00001000
00100000
00000000
00001000
00000000
,
00010000
00000000
00000100
00000010
00000001
00000000
00000100
00000000
,
00001000
00010000
00001000
00000000
00100000
00010000
00100000
00000000
,
01000000
00000000
10000000
00000000
00100000
00100000
01000000
01000000
,
00001000
00010000
00001000
00000000
,
00010000
00000100
00010000
00000010
,
00000100
00000001
00000100
00000000
,
00001000
00010000
00001000
00100000
,
01000000
00100000
00010000
00000000
,
01000000
00010000
01000000
00000000
,
00100000
10000000
00010000
00100000
,
02000000
00100000
03100000
00000000
,
20020000
00000000
30030000
10000000
02000000
00000000
13000000
00000000
,
02020000
00000000
03030000
01000000
00002000
00000000
00013000
00000000
,
00002200
00000000
00003300
00001000
00000002
00000000
00000103
00000000
,
00000010
00000100
00000010
00000100
00000020
00000000
00001030
00000000
,
00000200
00000000
00010300
00000000
00001000
00010000
00001000
00000000
,
00200000
01000000
01300000
00000000
10000000
00010000
10000000
00000000
,
20020000
00000000
00000000
00000000
,
30030000
00000000
10000000
01000000
,
10000000
00000000
01010000
00000000
,
01000000
01000000
00100000
00100000
,
10000000
00010000
10000000
00010000
,
00100000
00000000
00001000
00010000
,
00001000
00000000
00001010
00000000
,
00000010
00000010
00000100
00000100
,
00000001
00000010
00000001
00000000
,
00001000
00000100
00001000
00000000
,
00000001
00000100
00001000
00000000
,
00010000
00100000
10000000
01000000
,
20000000
00000000
30020000
00000000
,
00130000
00000000
01000000
00100000
,
02200000
00000000
03300000
00000000
00011000
00000000
00010000
00000100
,
00000110
00000000
00000000
00000001
00000000
00000000
00000110
00000000
,
00000000
00001000
00000000
00000000
00000001
00000000
00001000
00000000
,
00001001
00000000
00000000
00000000
00000001
00000000
00000000
00000100
00000000
00000100
00000000
00000000
00000010
00000000
00000010
00000000
,
00001000
00000000
00000000
00000000
00000100
00000000
00000000
00010000
00000000
00010000
00000000
00000000
00001000
00000000
00100000
00000000
,
01000000
00000000
00000000
00000000
10000000
00000000
00000000
00100000
00000000
00100000
00000000
00000000
01000000
00000000
01000000
00000000
,
00001000
00000000
00010000
00000000
00001000
00000000
00000000
00000000
00000000
00022000
00000000
00000000
00000000
00000000
00033000
00000000
;

//--------------- dance-double - 8Chasey ----------------
#NOTES:
     dance-double:
     8Chasey:
     Hard:
     8:
     0,0,0,0,0:
00000000
00000000
00000000
00000000
,
00000000
00000000
00000000
00000000
,
00011000
00000000
00000000
00010000
00000100
00000000
00000000
00000000
00001000
00000000
00000010
00000000
00000100
00000000
00000001
00000000
,
00000020
00000000
00000000
00000000
00000000
00000000
00000000
00000000
00000030
00000000
00000000
00000000
00000100
00001000
00000100
00000000
,
00010000
00000000
00000000
00001000
01000000
00000000
00000000
00000000
00100000
00000000
10000000
00000000
01000000
00000000
00010000
00000000
,
00002000
00000000
00000000
00000000
00000000
00000000
00000000
00000000
00003000
00000000
00000000
00000000
00010000
00001000
00010000
00000000
,
00000100
00000000
00000000
00000010
00000100
00000000
00000000
00000000
00001000
00000000
00000001
00000000
00000010
00000000
00001000
00000000
,
00010000
00000000
00000000
00000000
00010000
00000000
00001000
00000000
00011000
00000000
00000000
00001000
00000000
00000000
00001000
00000000
,
00200000
00000000
00000000
00000000
00310000
10000000
00000000
00000000
02000000
00000000
00000000
00000000
03100000
00000000
00100000
00000000
,
00001000
00000100
00000001
00001000
00000100
00000010
00000001
00000000
,
00001001
00000000
00000001
00000100
00000001
00000010
00000100
00000100
,
00020000
00000000
00031000
00100000
02000000
00000000
13000000
00000000
,
10100000
00000000
00000000
10000000
00000000
00000000
10000000
00000000
00000000
00000000
01000000
00000000
00010000
00000000
00001000
00000000
,
00010000
00010000
00000010
00000200
00000000
00000001
00000301
00000010
,
00000100
00000000
00010000
00000000
00001000
00010000
00000000
00001000
00000000
00000000
01000000
00000000
00100000
00000000
01000000
00000000
,
00010000
00000000
00100000
01000000
00000000
00100000
00000000
01000000
00000000
00000000
10000000
00000000
00100000
00000000
01000000
00000000
,
01000000
00000000
00001000
00000000
00010000
00001000
00000000
00010000
00000000
00000000
00000010
00000000
00001000
00000000
00000100
00000000
,
00000001
00000000
00000100
00000000
00010000
00000000
00000000
00001000
00010000
00001000
00010000
00000000
00000100
00000000
00000100
00000000
,
00000010
00000000
00000001
00000000
00000100
00000010
00000000
00000010
,
00010000
00000000
00001000
00000000
00100000
00010000
01000000
00000000
,
00100000
00000000
10000000
01000000
00000000
10000000
01000000
00200000
,
00010000
00000000
01000000
00000000
00301000
00010000
00001000
00000000
,
00010000
00000000
00000100
00000000
00001000
00000010
00000000
00000010
,
00000100
00000001
00000100
00000000
00001000
00010000
00001000
00000000
,
00110000
00000000
00010000
01000000
00100000
00000000
10100000
00000000
,
10000000
01000000
00100000
00000000
00001000
00010000
00001000
00000000
,
00020000
00000000
00030010
00000100
00000020
00000000
00000130
00000000
,
00000002
00000000
00001003
00000010
00002000
00000000
00003100
00000000
,
00020000
00000000
00031000
00010000
00002000
00000000
00103000
00000000
,
01000000
00000000
00000000
11000000
00000000
00000000
00100000
00000000
00110000
00000000
00000000
00000000
00010000
01000000
00010000
00000000
,
20000000
00000000
00000000
00000000
30100000
00000000
01000000
00000000
00020000
00000000
00000000
00000000
00130000
00000000
00000000
00100000
,
01000000
00000000
00100000
00000000
00001000
00000000
00000000
00001000
00010000
00000000
00000100
00000000
00000010
00000100
00000010
00000100
,
00000020
00000000
00000000
00000000
,
00000030
00000000
00000000
00000000
00000100
00000010
00000100
00000010
,
00000100
00010000
00011000
00001000
,
00200000
02300000
23000000
30020000
,
01030000
00000000
00100000
01000000
00001000
00000000
00010000
00000100
,
00000010
00000000
00000001
00000000
00000100
00000010
00000100
00000010
,
00001000
00000100
00000110
00000010
,
00000002
00002003
00003020
00000230
,
00001300
00000000
00010000
00001000
00100000
00000000
01000000
10000000
,
00100000
00000000
01010000
00000000
01000000
00001000
00010000
00000000
,
00000100
00001100
00000010
00000011
,
00000001
00001000
00000100
00000000
00010000
00000000
00011000
00000000
,
00002000
00100000
02003000
10000000
,
03100000
00000000
10000000
01000000
00010000
00000000
00001000
00000000
,
00011000
00000000
00010000
00000000
00000100
00000000
00000000
00001000
00000010
00001000
00000010
00000000
00000100
00000000
00000001
00000000
,
00000010
00000100
00000000
00000100
00010000
00000000
00010000
00001000
,
00000000
00001000
01000000
00000000
00100000
01000000
00100000
01000000
,
00010000
00100000
00000000
00100000
00010000
01000000
00100000
10000000
00000000
10000000
01000000
00000000
01100000
00000000
00000000
00000000
,
00100000
00001000
00000000
00001000
00010000
00000100
00001000
00000100
00000000
00000010
00000100
00000000
00000010
00000001
00000100
00000000
,
00000001
00001000
00000000
00001000
00000100
00000010
00000100
00010000
00000000
00001000
00010000
00000000
00011000
00000000
00000000
00000000
,
00001000
00100000
00000000
00100000
00010000
00100000
01000000
10000000
00000000
00010000
00100000
00010000
10000000
01000000
10000000
00100000
;
