#TITLE:君と微笑みと・・・;
#SUBTITLE:;
#ARTIST:Water Stand;
#TITLETRANSLIT:Kimi to hohoemi to...;
#SUBTITLETRANSLIT:;
#ARTISTTRANSLIT:;
#GENRE:Innocent;
#CREDIT:;
#MUSIC:Kimi to hohoemi to.ogg;
#BANNER:;
#BACKGROUND:;
#CDTITLE:;
#SAMPLESTART:75.220;
#SAMPLELENGTH:12.000;
#SELECTABLE:YES;
#OFFSET:-0.330;
#BPMS:0.000=120.000
,21.000=121.000
,22.000=122.000
,23.000=123.000
,24.000=124.000
,204.000=122.000
,205.000=121.000
,206.000=120.000
,207.000=119.000
,208.000=118.000
;
#STOPS:;
#BGCHANGES:;
#FGCHANGES:;

//--------------- dance-single - 8Chasey ----------------
#NOTES:
     dance-single:
     8Chasey:
     Beginner:
     1:
     0,0,0,0,0:
0000
0000
0000
0000
,
0000
0000
0000
0000
,
0000
0000
0000
0000
,
0000
0000
0000
0000
,
0000
0000
0000
0000
,
0000
0000
0000
0000
,
0001
0000
0001
0000
,
0001
0000
0000
0000
,
1000
0000
1000
0000
,
1000
0000
0000
0000
,
1001
0000
0000
0000
,
0001
0000
0000
0000
,
1000
0000
0000
0000
,
0000
0000
1001
0000
,
0001
0000
0000
0000
,
0001
0000
0000
0000
,
0001
0000
0001
0000
,
0001
0000
0000
0000
,
1000
0000
0000
0000
,
1000
0000
0000
0000
,
1000
0000
1000
0000
,
1000
0000
0000
0000
,
0001
0000
0000
0000
,
1000
0000
0000
0000
,
0001
0000
1000
0000
,
0001
0000
0000
0000
,
1000
0000
0000
0000
,
0001
0000
0000
0000
,
1000
0000
0001
0000
,
1000
0000
0000
0000
,
0000
0001
0000
0001
,
0000
1000
0000
1000
,
0000
0001
0000
0001
,
0001
0000
0000
0000
,
0000
1000
0000
1000
,
0000
0001
0000
0001
,
0000
1000
0000
1000
,
1000
0000
0000
0000
,
0001
0000
1000
0000
,
1001
0000
0000
0000
,
0001
0000
0000
0000
,
1000
0000
0000
0000
,
0001
0001
0001
0000
,
0001
0000
0000
0000
,
1000
0000
0000
0000
,
0001
0000
0000
0000
,
1000
1000
1000
0000
,
1000
0000
0000
0000
,
0001
0000
1000
0000
,
0001
0000
0000
0000
,
1000
0000
0001
0000
,
1000
0000
0000
0000
,
1001
0000
0000
0000
;

//--------------- dance-single - 8Chasey ----------------
#NOTES:
     dance-single:
     8Chasey:
     Easy:
     3:
     0,0,0,0,0:
0000
0000
0000
0000
,
0000
0000
0000
0000
,
0000
0000
0000
0000
,
0000
0000
0000
0000
,
0000
0000
0000
0000
,
0000
0000
0000
0000
,
0001
0100
0001
0000
,
1000
0010
1000
0000
,
0100
0010
0100
0020
,
0000
0100
0100
0130
,
2002
3003
0001
0000
,
1000
0001
1000
0000
,
0020
0000
0000
0200
,
0000
0330
0110
0000
,
1001
0000
1000
0000
,
0100
1000
0010
0000
,
0200
0000
0301
0000
,
0100
0010
1000
0000
,
0001
0000
0010
0000
,
0001
1000
0001
0000
,
0200
0000
0301
0000
,
0010
0010
0100
0100
,
0020
0000
1000
0000
,
1030
0000
0010
0000
,
0200
0000
0001
0000
,
0301
0000
0100
0001
,
1000
0000
0010
0000
,
0100
0010
0100
0000
,
0200
0000
0000
0000
,
0310
0000
1001
0000
,
0002
0000
0000
0003
,
2000
0000
0000
3000
,
0200
0000
0000
0300
,
0020
0000
0100
0130
,
2000
0000
0000
3000
,
0002
0000
0000
0003
,
0200
0000
0020
0330
,
1000
1000
0001
0001
,
1000
0001
1000
0001
,
2002
3003
0001
0000
,
0020
0030
0001
1000
,
0200
0000
0310
0000
,
1000
0100
1000
0000
,
0010
0000
0100
0000
,
0001
0100
0001
0000
,
2002
0000
3003
0000
,
1000
0100
0010
0001
,
0200
0000
0301
0000
,
0100
0001
0100
0000
,
0020
0000
1030
0000
,
0010
1000
0010
0000
,
2000
0000
0000
0000
,
0002
0000
0000
0000
,
0000
0000
0000
0000
0000
3003
0000
0000
;

//--------------- dance-single - 8Chasey ----------------
#NOTES:
     dance-single:
     8Chasey:
     Medium:
     6:
     0,0,0,0,0:
0000
0000
0000
0000
,
0000
0000
0000
0000
,
0000
0000
0000
0000
,
0000
0000
0000
0000
,
0000
2000
3200
0320
,
0032
0003
0020
0130
,
1000
0000
0010
1000
0000
1000
0000
0001
,
0000
0010
0001
0100
0000
0001
1000
0000
,
1001
0000
1000
0100
0000
1000
0100
0010
,
0000
0001
0010
0000
0100
0000
1000
0100
,
0010
0000
0001
0100
0000
0001
0000
1000
,
0000
0010
1000
0100
0000
0010
0100
0000
,
2002
0000
0000
3003
0000
0100
0100
0020
,
0000
0000
0000
0030
1001
0000
0000
0000
,
0110
0000
0100
0000
0001
0100
0001
0000
,
0010
0000
0001
0000
1000
0100
1000
0000
,
0020
0000
0000
0000
1030
0000
0100
1000
,
0001
0200
0010
0310
,
1010
0000
1000
0000
0001
1000
0001
0000
,
0010
0001
0000
0011
0000
0000
0100
0010
,
0100
0000
1000
0100
0000
1000
0001
0100
,
0000
0001
0010
0000
0001
1000
0001
1000
,
0200
1000
0010
1300
,
0010
0100
0001
0100
0000
0001
0200
0000
,
0020
0030
0001
0310
,
1000
0010
1000
0000
0001
0000
0100
0000
,
0101
0001
0010
0001
,
1000
0100
0000
1100
0000
0000
0010
0100
,
0020
0001
0031
1000
,
0100
1000
0100
0000
0010
0100
0010
0000
,
0002
0000
0010
0000
0000
0000
1003
0100
,
2000
0010
0000
3001
,
1001
0100
0010
0020
,
0200
0000
0330
0010
0100
0001
0100
0001
,
2000
0000
0100
0000
0000
0000
3001
0010
,
0002
0100
0000
1003
,
0010
1000
0010
0000
0100
0001
0100
0000
,
0002
0023
0032
2003
,
3200
0000
2300
0000
3010
0100
0010
0000
,
1001
0000
0100
0000
0010
0100
0001
0000
,
1000
0000
0001
0000
0010
0100
1000
0000
,
0020
1030
0200
0301
,
1000
0100
0010
0001
0010
0100
1000
0000
,
1001
0000
0100
0000
0010
1000
0010
0000
,
1000
0000
0100
0000
0010
0001
0010
0000
,
0002
0010
0100
1003
,
2000
0100
0010
3001
,
1001
0000
0001
0200
0000
0301
0000
2000
,
0000
3100
1000
0020
0000
0100
0130
0010
,
0100
0000
0001
0100
0000
0010
1000
0100
,
0000
1000
0001
0000
1000
0000
0001
0000
,
0220
0000
0000
0330
,
2002
0000
0000
0000
,
0000
0000
0000
0000
0000
3003
0000
0000
;

//--------------- dance-single - 8Chasey ----------------
#NOTES:
     dance-single:
     8Chasey:
     Hard:
     8:
     0,0,0,0,0:
0000
0000
0000
0000
,
0000
0000
0000
0000
,
0000
0000
0000
0000
,
0000
0000
0000
0000
,
0000
2000
3200
0320
,
0032
0000
0003
0000
1001
0001
1000
0100
,
0010
0000
0001
0100
0001
1000
0100
2000
,
0000
3010
1000
0002
0000
0103
0001
1000
,
0010
0000
1000
0001
0000
0001
0100
0010
,
0000
0000
1000
0000
0100
0000
1000
0000
0001
0000
0010
0000
0100
0010
0100
0000
,
0110
0000
0100
2000
0000
3001
0100
0002
,
0000
1003
0100
0010
0100
1000
0001
0000
,
2002
0000
0000
0000
0000
0000
3003
0000
0000
0000
1000
0010
1000
0010
0200
0000
,
0000
0000
0310
0000
1010
0011
0000
0000
,
1001
0000
0001
0200
0000
0301
1000
0010
,
1000
0000
0100
0020
0000
0031
1000
0000
,
0002
0000
0103
0001
0020
0000
0031
1000
,
0200
0000
0310
0001
2000
0000
3010
0000
,
1001
0000
0010
0001
1000
0000
0020
0000
,
0130
0001
0000
1100
0000
1000
0001
0000
,
0101
0000
0010
0001
0000
1000
0010
1000
,
0000
0100
0100
0000
1000
0001
0100
0001
,
0011
0000
1000
0020
0100
0000
0100
0000
,
1030
0100
1000
0200
0000
0010
0010
0000
,
0320
0000
0031
1000
0002
0000
1003
0100
,
2000
3010
0101
1100
,
0110
0000
0010
0001
0100
0001
1000
0000
,
0100
1000
0000
0020
0000
1030
0001
0000
,
0101
0000
1000
0010
0000
1000
0100
0010
,
0000
0100
1100
0000
0010
0001
1000
0010
,
0100
0100
0002
0100
0000
0000
0103
0000
,
0010
0010
2000
0010
0000
0000
3010
0000
,
1000
0001
0020
0100
0000
0000
0130
0000
,
2002
0000
0000
0000
3003
0000
0001
0000
1000
0000
0001
0010
0001
0000
1000
0000
,
0100
0100
2000
0100
0000
0000
3100
0000
,
0010
0010
0001
0020
0000
0000
0031
0000
,
1002
0000
0103
0001
1000
0000
0100
0000
,
1000
0100
0010
0001
0100
0010
1000
0001
,
0100
0000
0001
0000
1000
0000
0010
0000
1000
0100
1000
0100
0010
0000
0001
0000
,
2001
0000
3010
0000
0100
0001
1000
1000
,
0010
1000
0010
0000
0100
0000
0110
0000
,
0100
0001
0020
0000
0031
0010
0001
0200
,
0000
0310
1000
0010
0100
0002
2000
0003
,
3001
0000
0102
0000
1003
0010
1000
0000
,
0100
0000
2100
0000
3020
0000
0130
0010
,
1010
0000
0100
0001
0010
0000
0001
0000
,
1000
0000
0000
0000
1010
0000
0000
0000
0001
1000
0001
1000
0100
0000
0010
0000
,
0012
0000
0103
0020
0000
1030
0000
0200
,
0000
1300
0001
2000
0000
3010
0100
0001
,
1001
0000
0010
0001
0000
1000
0001
0200
,
0000
0000
0301
0000
0010
0000
0100
0000
1000
0001
1000
0001
0010
0000
0001
0000
,
0102
0000
0000
0023
0000
0130
0100
2000
,
0200
0000
0000
0000
,
0000
0000
0000
0000
0000
3300
0000
0000
;

//--------------- dance-double - 8Chasey ----------------
#NOTES:
     dance-double:
     8Chasey:
     Easy:
     3:
     0,0,0,0,0:
00000000
00000000
00000000
00000000
,
00000000
00000000
00000000
00000000
,
00000000
00000000
00000000
00000000
,
00000000
00000000
00000000
00000000
,
00000000
00000000
00000000
00000000
,
00000000
00000000
00000000
00000000
,
00001000
00100000
00001000
00000000
,
00010000
00000100
00010000
00000000
,
00000100
00000010
00000100
00000020
,
00000000
00000100
00000100
00000130
,
00002002
00003003
00000001
00000000
,
00000100
00001000
00010000
00000000
,
00200000
00000000
00000000
02000000
,
00000000
03300000
01100000
00000000
,
10010000
00000000
00010000
00000000
,
00100000
00001000
00010000
00000000
,
00000200
00000000
00001300
00000000
,
00000001
00000010
00000001
00000000
,
00001000
00000000
00000100
00000000
,
00010000
00001000
00010000
00000000
,
00200000
00000000
10300000
00000000
,
01000000
01000000
00100000
00100000
,
02000000
00000000
00010000
00000000
,
03010000
00000000
00100000
00000000
,
00002000
00000000
00010000
00000000
,
00013000
00000000
00000100
00001000
,
00000100
00000000
00001000
00000000
,
00000001
00001000
00000001
00000000
,
00000200
00000000
00000000
00000000
,
00000310
00000000
00001001
00000000
,
00002000
00000000
00000000
00003000
,
00000200
00000000
00000000
00000300
,
00020000
00000000
00000000
00030000
,
00200000
00000000
01000000
01300000
,
00002000
00000000
00000000
00003000
,
00020000
00000000
00000000
00030000
,
00000200
00000000
00000020
00000330
,
00000001
00000010
00000100
00001000
,
00010000
00100000
01000000
10000000
,
20020000
30030000
00010000
00000000
,
02000000
03000000
00100000
10000000
,
00200000
00000000
01300000
00000000
,
00001000
00010000
00001000
00000000
,
00000100
00000000
00000001
00000000
,
00000100
00000001
00001000
00000000
,
00000220
00000000
00000330
00000000
,
00001000
00010000
00001000
00010000
,
00200000
00000000
01300000
00000000
,
00010000
10000000
00010000
00000000
,
00200000
00000000
01300000
00000000
,
00100000
01000000
00100000
00000000
,
00002000
00000000
00000000
00000000
,
00020000
00000000
00000000
00000000
,
00000000
00000000
00000000
00000000
00000000
00033000
00000000
00000000
;

//--------------- dance-double - 8Chasey ----------------
#NOTES:
     dance-double:
     8Chasey:
     Medium:
     6:
     0,0,0,0,0:
00000000
00000000
00000000
00000000
,
00000000
00000000
00000000
00000000
,
00000000
00000000
00000000
00000000
,
00000000
00000000
00000000
00000000
,
00000000
00200000
00302000
00023000
,
00030200
00000300
00000020
00000130
,
00001000
00000000
00000010
00000100
00000000
00000001
00000000
00001000
,
00000000
00000100
00010000
00001000
00000000
00100000
00010000
00000000
,
10010000
00000000
10000000
00100000
00000000
10000000
01000000
00100000
,
00000000
01000000
00010000
00000000
00001000
00000000
00000100
00000001
,
00000100
00000000
00000001
00001000
00000000
00000010
00000000
00001000
,
00000000
00000100
00010000
00000100
00000000
00010000
00001000
00000000
,
00022000
00000000
00000000
00033000
00000000
00100000
00010000
20000000
,
00000000
00000000
00000000
30000000
10010000
00000000
00000000
00000000
,
00011000
00000000
00010000
00000000
00000100
00001000
00000100
00000000
,
00001000
00000000
00000010
00000000
00001000
00000001
00000100
00000000
,
00002000
00000000
00000000
00000000
00013000
00000000
00001000
00100000
,
00001000
00200000
00010000
01300000
,
11000000
00000000
10000000
00000000
00010000
01000000
00010000
00000000
,
00100000
00001000
00000000
00101000
00000000
00000000
00010000
00001000
,
00010000
00000000
00000100
00000010
00000000
00000100
00000010
00000001
,
00000000
00001000
00000010
00000000
00001000
00000100
00001000
00000100
,
00020000
00001000
00000010
00031000
,
00100000
00001000
00100000
00010000
00000000
10000000
02000000
00000000
,
00200000
00300000
10000000
03100000
,
00010000
01000000
00010000
00000000
00100000
00000000
00001000
00000000
,
00011000
00010000
00000100
00001000
,
00000010
00010000
00000000
00010010
00000000
00000000
00010000
00001000
,
00200000
00010000
00310000
00100000
,
01000000
10000000
01000000
00000000
00100000
00010000
01000000
00000000
,
00200000
00000000
10000000
00000000
00000000
00000000
01300000
00010000
,
00200000
00001000
00000000
00301000
,
00011000
00010000
00000100
00000020
,
00000200
00000000
00000030
00000310
00000001
00000010
00000100
00001000
,
00000200
00000000
00010000
00000000
00000000
00000000
00001300
00001000
,
00000020
00000100
00000000
00001030
,
00000100
00010000
00001000
00000000
00100000
00001000
00010000
00000000
,
02000000
23000000
30200000
02300000
,
03002000
00000000
00023000
00000000
00030100
00001000
00000100
00000000
,
00000110
00000000
00000010
00000000
00000001
00001000
00000001
00000000
,
00000100
00000000
00001000
00000000
00010000
00001000
01000000
00000000
,
00020000
00130000
20000000
31000000
,
00010000
00001000
00000100
00000010
00000100
00001000
00010000
00000000
,
00011000
00000000
00100000
00000000
00010000
01000000
00010000
00000000
,
00100000
00000000
01000000
00000000
00010000
00001000
00010000
00000000
,
00002000
00010000
00100000
01003000
,
00020000
00001000
00000100
00030010
,
00000110
00000000
00001000
00000200
00000000
00010300
00000000
00002000
,
00000000
00103000
00001000
00020000
00000000
00031000
00001000
01000000
,
00100000
00000000
10000000
00100000
00000000
01000000
00100000
10000000
,
00000000
01000000
00010000
00000000
00001000
00000000
00010000
00000000
,
00002200
00000000
00000000
00003300
,
00000022
00000000
00000000
00000000
,
00000000
00000000
00000000
00000000
00000000
00000033
00000000
00000000
;

//--------------- dance-double - 8Chasey ----------------
#NOTES:
     dance-double:
     8Chasey:
     Hard:
     8:
     0,0,0,0,0:
00000000
00000000
00000000
00000000
,
00000000
00000000
00000000
00000000
,
00000000
00000000
00000000
00000000
,
00000000
00000000
00000000
00000000
,
00000000
00200000
00302000
00023000
,
00030200
00000000
00000300
00000000
00000110
00000010
00000001
00001000
,
00000010
00000000
00000100
00001000
00010000
00000100
00010000
00002000
,
00000000
00103000
00001000
00020000
00000000
00031000
01000000
00010000
,
00100000
00000000
00010000
10000000
00000000
01000000
00010000
00001000
,
00000000
00000000
00010000
00000000
00010000
00000000
00000100
00000000
00001000
00000000
00000010
00000000
00000100
00000010
00000100
00000000
,
00000110
00000000
00000100
00000002
00000000
00000013
00000001
00002000
,
00000000
00003100
00010000
00001000
00100000
01000000
10000000
00000000
,
02200000
00000000
00000000
00000000
00000000
00000000
00000000
00000000
03300000
00000000
01000000
00010000
01000000
00010000
00200000
00000000
,
00000000
00000000
00301000
00000000
00101000
00011000
00000000
00000000
,
00001010
00000000
00000100
00000002
00000000
00000013
00000001
00001000
,
00000010
00000000
00000100
00002000
00000000
00013000
00001000
00100000
,
00020000
00000000
00130000
00001000
00200000
00000000
00310000
10000000
,
02000000
00000000
13000000
00100000
20000000
00000000
30010000
00000000
,
01010000
00000000
00100000
00001000
00010000
00000000
00000020
00000000
,
00001030
00000100
00000000
00001100
00000000
00000010
00000100
00000000
,
00000110
00000000
00000010
00000001
00000000
00000100
00001000
00010000
,
00000000
00001000
00001000
00000000
00010000
00001000
00100000
00010000
,
00110000
00000000
10000000
02000000
00100000
00000000
00100000
00000000
,
13000000
00010000
00100000
00002000
00000000
00010000
00010000
00000000
,
00023000
00000000
00030100
00001000
00000020
00000000
00001030
00000001
,
00000200
00000301
00001010
00000011
,
00000110
00000000
00000100
00001000
00000010
00010000
00001000
00000000
,
00100000
00010000
00000000
02000000
00000000
03010000
10000000
00000000
,
10100000
00000000
00010000
01000000
00000000
10000000
01000000
00010000
,
00000000
00100000
00110000
00000000
00100000
00001000
00010000
00000100
,
00001000
00001000
00000020
00001000
00000000
00000000
00001030
00000000
,
00000001
00000001
00000200
00000001
00000000
00000000
00000301
00000000
,
00001000
00000100
00020000
00001000
00000000
00000000
00031000
00000000
,
00022000
00000000
00000000
00000000
00033000
00000000
00100000
00000000
00010000
00000000
10000000
01000000
10000000
00000000
00100000
00000000
,
01000000
01000000
00020000
01000000
00000000
00000000
01030000
00000000
,
00100000
00100000
20000000
00100000
00000000
00000000
30100000
00000000
,
02010000
00000000
03100000
10000000
01000000
00000000
00100000
00000000
,
00001000
00010000
00000100
00010000
00001000
01000000
00001000
00010000
,
00000010
00000000
00010000
00000000
00001000
00000000
00100000
00000000
00001000
00010000
00001000
00010000
00000100
00000000
00001000
00000000
,
00001020
00000000
00000130
00000000
00000001
00000100
00000010
00001000
,
00000100
00000100
00000010
00000000
00000100
00000000
00010100
00000000
,
00010000
00001000
00200000
00000000
00310000
10000000
00100000
02000000
,
00000000
03010000
00100000
00010000
01000000
00002000
00020000
00003000
,
00030100
00000000
00002100
00000000
00003001
00000010
00000100
00000000
,
00000010
00000012
00002003
00003100
,
00011000
00000000
00100000
00010000
01000000
00000000
10000000
00000000
,
01000000
00000000
00000000
00000000
01010000
00000000
00000000
00000000
00100000
00010000
00100000
00010000
01000000
00000000
00001000
00000000
,
00021000
00000000
00030100
00002000
00000000
00003001
00000000
00000200
,
00000000
00000310
00001000
00000020
00000000
00000130
00000001
00001000
,
00001001
00000000
00001000
00000100
00000000
00000010
00000010
00000002
,
00000000
00000000
00001003
00000000
00000100
00000000
00001000
00000000
00000010
00001000
00000010
00001000
00000100
00000000
00010000
00000000
,
00012000
00000000
00000000
00203000
00000000
00010000
00310000
20000000
,
02000000
00000000
00000000
00000000
,
00000000
00000000
00000000
00000000
00000000
33000000
00000000
00000000
;

//--------------- pump-single - 5-Buttons/Easy ----------------
#NOTES:
     pump-single:
     5-Buttons/Easy:
     Easy:
     5:
     0,0,0,0,0:
00000
00000
00000
00000
00001
10000
00100
00001
,
00010
00000
00000
00000
,
00000
00000
00000
00000
00001
10000
00100
00001
,
00010
00000
00000
00000
,
00000
10000
01000
00100
,
00010
00000
00001
00000
,
00000
00000
00000
00000
,
00000
00000
00000
00000
,
00000
00000
00000
00000
,
00000
00000
00000
00000
00000
10000
00100
00010
,
00001
00000
00000
00000
,
00000
00000
00000
00000
00000
00001
00100
10000
,
00100
00000
00000
00000
00000
00010
00000
00001
,
00000
00000
00000
00000
10001
10001
00000
00000
,
10000
00100
00001
00000
00000
00000
00000
00000
,
10000
00100
00010
00000
00000
00000
00000
00000
,
10000
00100
00001
00000
00100
00000
10000
00000
,
10000
00100
00001
00000
00010
00000
01000
00000
,
00000
00000
00000
00000
00000
00100
00000
00100
,
00000
00000
00000
00000
00000
00100
00001
00001
,
00000
00000
00000
00000
,
00000
00000
00000
00000
00000
00100
00100
00100
,
01000
00000
00000
00010
00000
00000
00000
00000
,
00000
00000
00000
00001
00000
00000
00010
00000
,
00100
00000
00001
00000
,
00100
00001
00100
01000
,
10000
00000
00000
00000
,
00000
00000
00000
00000
,
00101
00000
00000
00000
,
00000
00000
00000
00000
00010
00010
01000
01000
,
10000
00001
00000
00001
,
00000
00001
00000
00001
,
00000
00001
00000
10000
,
01000
00000
00000
00000
00001
00010
00100
01000
,
10000
10000
00000
10000
00000
00000
00000
00000
,
00100
00100
00000
00100
00000
00000
00000
00000
,
01000
01000
00000
01000
00000
00000
00000
00000
,
00000
00000
00000
00000
,
10000
10000
01000
01000
00100
00100
00010
00010
,
00001
00000
00000
00000
,
00000
00001
10000
00001
,
00100
00000
00000
00000
,
10000
00000
00100
00000
00100
00001
00100
00000
,
00000
00000
00000
00000
,
00000
00001
10000
00100
,
10001
00000
00000
00000
,
10000
01000
00100
00010
,
00001
00000
00001
00010
00000
00010
00000
00100
,
00000
00000
00000
00000
00000
10000
01000
00100
,
00010
00000
00010
00100
00000
00001
00000
00001
,
00000
00000
00000
00000
,
10000
00000
00000
00100
00000
00000
00000
00000
,
00001
00000
00000
00000
;

//--------------- pump-double - Normal ----------------
#NOTES:
     pump-double:
     Normal:
     Easy:
     5:
     0,0,0,0,0:
0000000000
0000000000
0000000000
0000000000
0000000010
0000100000
0000001000
0000000010
,
0000000100
0000000000
0000000000
0000000000
0000001000
0010000000
0000100000
0000001000
,
0000010000
0000000000
0000000000
0000000000
0000100000
1000000000
0010000000
0000100000
,
0001000000
0100000000
0010000000
0000100000
0000001000
0000000000
0000000000
0000000000
,
0000000010
0100000000
0001000000
0000010000
,
0000001000
0000000000
0000000100
0000000000
,
0000100000
0000000000
0000000000
0001000000
0000000000
0001000000
0000000000
0010000000
,
0000000000
0010000000
0000000000
0100000000
0000000000
1000000000
0010000000
0000100000
,
0000010000
0000000000
0000000000
0000100000
0000000000
0000001000
0000001000
0000000100
,
0000000000
0000000000
0000000000
0000000000
0000000000
0010000000
0001000000
0000100000
,
0000011000
0000000000
0000000000
0000000000
0000000000
0000000000
0000000010
0000001000
,
0000000000
0000000000
0000000000
0000000000
0000000000
0000000100
0000010000
0001000000
,
0010010000
0000000000
0000000000
0000000000
0000000000
0000000100
0000000000
0000000010
,
0000000000
0000000000
0000000000
0000000000
1010100000
1010100000
0000000000
0000000000
,
0010000000
0000100000
0000001000
0000000010
0000000000
0000000000
0000000000
0000000000
,
1000000000
0010000000
0000100000
0000001000
0000000000
0000000000
0000000000
0000000000
,
0100000000
0001000000
0000010000
0000000010
0000000100
0000000000
0000000000
0000000000
,
1000000000
0010000000
0000100000
0000000100
0001000000
0000001000
0000100000
0100000000
,
0000000000
0000000000
0000000000
0000000000
0000000000
0001000000
0000000000
0000000100
,
0000000000
0000000000
0000000000
0000000000
0000000000
0100000000
0001000000
0000000100
,
0000000000
0000000000
0000000000
0000100000
0000010000
0000001000
0000000100
0000000010
,
0000000000
0000000010
0000000100
0000000000
0000010000
0010100000
0010000000
0010000000
,
0001000000
0000000000
0000000000
0000000100
0000000000
0000000000
0000000000
0000000000
,
0000000000
0000000000
0000000000
0000000010
0000000000
0000000000
0000001000
0000000000
,
0000010000
0000000000
0000000010
0000000000
,
0000100000
0001000100
0010001000
0100010000
,
1000100000
0000000000
0001000000
0000000000
0100000000
0000000000
0010000000
0000100000
,
0000000000
1000000000
0000000000
0000000100
0000000000
0000010000
0000000000
0001000000
,
0010000000
0000000000
0000000000
0010000000
0000100000
0000001000
0000000100
0000001000
,
0000010000
0000000000
0000000000
0000000010
0000001000
0000100000
0010000000
1000000000
,
1000010000
0000010000
0000000000
0000010000
0000000000
0000000000
0000000000
0000000000
,
0000000100
0000000100
0000000000
0000000100
0000000000
0000000000
0000000000
0000000000
,
0000001000
0000001000
0000000000
0000001000
0000000000
0000000000
0100000000
0000000000
,
0000000100
0000000000
0000000000
0000000010
0000001000
0000100000
0010000000
1000000000
,
0000001000
0000001000
0100000000
0000001000
0000000000
0000000000
0100000000
0000000000
,
0000000010
0000000010
0100000000
0000000010
0000000000
0000000000
0100000000
0000000000
,
0000010000
0000010000
0100000000
0000010000
0000000000
0000000000
0000000000
0000000000
,
0001000000
0000100000
0000000010
0001000000
0000100000
0000000010
0001000000
0000100000
,
1000000000
0100000000
0010000000
0001000000
0000100000
0000010000
0000001000
0000000100
,
0000001010
0000001000
0000010000
0000010000
,
0000100000
0000100010
0001010000
0001000100
,
0010001000
0010000000
0100000000
0100000000
,
1000000000
0010000000
0000100000
0000010000
0000010000
0000000100
0000100000
0000000000
,
0000001000
0010000000
0000100000
0000001000
0000010000
0100000000
0001000000
0000010000
,
0000100000
0000001000
0001000000
0000000100
,
0000110000
0000000000
0000000000
0000000000
,
0101000000
0010100000
0000010100
0000001010
,
0000000100
0000000000
0000000010
0000001000
0000000000
0000000010
0000000000
0000010000
,
0000000000
0000000010
0000010000
0000100000
0000000000
0001000000
0000100000
0000001000
,
0000010000
0000000000
0000000100
0000001000
0000000000
0000000100
0000000000
0000000100
,
0000000000
0000000010
0000000100
0000000100
0000000000
0000010000
0001000000
0100000000
,
1000000000
0000000000
0000000000
0010000000
0000000000
0000000000
0000000000
0000000000
,
0000100000
0000000000
0000000000
0000000000
;

//--------------- pump-double - Hyper ----------------
#NOTES:
     pump-double:
     Hyper:
     Medium:
     5:
     0,0,0,0,0:
0000000000
0000000000
0000000000
0000000000
0000000010
0000100000
0000001000
0000000010
,
0000000100
0000000000
0000000000
0000000000
0000001000
0010000000
0000100000
0000001000
,
0000010000
0000000000
0000000000
0000000000
0001000000
1000000000
0010000000
0000100000
,
0001000000
0100000000
0001000000
0000100000
0000001000
0000000000
0000000000
0000000000
,
0000000100
0100000000
0001000000
0000010000
,
0000001000
0000000000
0000000100
0000000000
,
1000001000
0000000000
1000000000
0000010000
1000000000
0000010000
1000000000
0000100000
,
1000000000
0000100000
1000000000
0001000000
1000000000
0001000000
1001000000
0001000000
,
1100000000
0000000000
1000000000
1000000000
1010000000
0000100000
1000010000
0000001010
,
1000000000
0000000000
0000000100
0000000000
1000000100
0000000000
0000000100
0000000000
0000000100
0000000000
1000010000
0000000100
0100010000
0000000100
0010100000
0000000000
,
0001001000
0000000000
0000100000
0010000000
0000000000
0000100000
0000000010
0100001000
,
0000000000
0000100000
0100000000
1000000000
0000000000
0000100010
0001000100
0010001000
,
1101000000
0000000000
0000000000
0000000000
0000000000
0000000000
0000000000
0000000000
0000000000
0000000000
1000010000
0000100000
0000010000
0000100000
0000010100
0000000000
,
0000000000
0000000000
0001000000
0000010000
1010001000
1010001000
0000000000
0000000000
,
0010000010
0000100000
0000001000
0000000010
0000000000
0001000000
0000000000
0000000100
,
1000000000
0010000000
0000100000
0000001000
0000000000
0001000000
0000010000
0000000100
,
1000000000
0010000000
0000100000
0000000010
0000001000
0000000000
0100000000
0000010000
,
0010000000
0001000000
0000100000
0000000100
0001000000
0000000100
0001000000
0100000000
,
1000000000
0010000000
0000001000
0000100000
0000000000
0001000000
0000000000
0000000100
,
1000000000
0010000000
0000100000
0000000010
0000000000
0001000000
0000010000
0000000100
,
1000000000
0100000000
0010000000
0001100000
0000010000
0010001000
0000000100
0100000010
,
0000000000
0100000010
0010000100
0001000000
0000010000
0010101000
0010000100
0010000010
,
0001100000
0001000000
0001000000
0001000100
0001000000
0001000000
0001000000
0001000000
,
1000000000
1000000000
1000000000
1000000010
1000000000
1000000000
1000000100
1000000000
,
0000101000
0000100000
0000100000
0000100000
0100000010
0100000000
0100000000
0100000000
,
0001010000
0001000000
0001001010
0001000000
0010010100
0010000000
1000101000
1000000000
,
0001010000
0000000000
0010000000
0000000000
0100000000
0000000000
0010000000
0000100000
,
0000000000
1000000000
0000000000
0000000100
0000000000
0000010000
0000000000
0010000000
,
0100100000
0000000000
0000000000
0001000000
0000100000
0000010000
0000000100
0000010000
,
1000000000
0100000000
0010000000
0000100010
0000000100
0000010000
0001000000
0100000000
,
1000100000
0000100000
0100000000
0000100000
0000000000
0000000000
0100000000
0000000000
,
0000001000
0000001000
0100000000
0000001000
0000000000
0000000000
0100000000
0000000000
,
0000010000
0000010000
0100000000
0000010000
0000000000
0000000000
0000000010
0000000000
,
1000001000
0000000000
0000000000
0000001000
0000000000
0000000000
0000000000
0000000000
0000000000
0000000010
0000000000
0000000000
0000000100
0000000000
0000000000
0000010000
0000000100
0000010000
0001000000
0000000000
0000000000
0100000000
0000000000
0000000000
,
1000001000
0000100000
0100000000
0000001000
0000000000
0000000000
0100000000
0000000000
,
0000000010
0000001000
0100000000
0000000010
0000000000
0000000000
0100000000
0000000000
,
0000000100
0000000000
0000010000
0000000000
0100000000
0000000000
0000000100
0000000000
0000000010
0000001000
0000000000
0000100000
0010000000
0000000000
1000000000
0000000000
,
0001000000
0000010000
0000000010
0001000000
0010010000
1000000010
0011000000
1000010000
,
0100000100
0000000000
0110000000
0000000000
0101000000
0000000000
0100100000
0000000000
0010010000
1000000000
0010001000
1000000000
0010000100
0000000000
0010000010
1000000000
,
0000100100
0000100000
0001000000
0001000000
,
0010000000
0010000010
0100010000
0100000100
,
0010101000
0010000000
0010000100
0010000000
0100010000
0100000000
0100001000
0100000000
,
1010000000
0100100000
0010001000
0001000100
0000100100
0000010010
0101000000
0000000000
,
0000001010
0100000000
0001000000
0000001000
0000010000
0100000000
0001000000
0000010000
,
0000100000
1000000000
0100000010
0000100000
0001010000
1000000000
0100000100
0001000000
,
0010000110
0000010000
0001000000
0100000000
,
0010100000
1000010000
0010000100
0000100010
,
1000000100
1000000000
0000000010
1000001000
0000000000
0100000010
0010000000
0001010000
,
0000000000
0000000010
0000010000
0000100000
0001000000
0100010000
0001001000
0100000010
,
0000000100
0100000000
0000000010
0100010000
0000000000
0010000100
0001000000
0000100100
,
0000000000
0001000010
0010000100
0000100100
0000000000
0000101000
0100010000
0001000000
,
1000000000
0000000000
0000000000
0010000000
0000000000
0000000000
0000000000
0000000000
,
0000100000
0000000000
0000000000
0000000000
;
