#TITLE:Kahoot!;
#SUBTITLE:;
#ARTIST:CG5;
#TITLETRANSLIT:;
#SUBTITLETRANSLIT:;
#ARTISTTRANSLIT:;
#GENRE:;
#CREDIT:8Chasey 2026;
#MUSIC:Kahoot.ogg;
#BANNER:Kahoot-bn.png;
#BACKGROUND:Kahoot-bg.png;
#CDTITLE:cdtitle.png;
#SAMPLESTART:74.800;
#SAMPLELENGTH:15.000;
#SELECTABLE:YES;
#OFFSET:-0.586;
#BPMS:0.000=120.000;
#STOPS:140.000=1.000;
#BGCHANGES:;
#FGCHANGES:;

//--------------- dance-single - 8Chasey ----------------
#NOTES:
     dance-single:
     8Chasey:
     Beginner:
     1:
     0,0,0,0,0:
0000
0000
0000
0000
,
0000
0000
0000
0000
,
0000
0000
0000
0000
,
0000
0000
0000
0000
,
1000
0000
0001
0000
,
1000
0000
0000
0000
,
0001
0001
0001
0000
,
0000
0000
1000
0000
,
0001
0000
1000
0000
,
0001
0000
0000
0000
,
1000
1000
1000
0000
,
0020
0000
0030
0000
,
0000
0010
0010
0000
,
0100
0100
0000
0000
,
0010
0000
0100
0000
,
0010
0000
0000
0000
,
0000
0100
0100
0000
,
0010
0010
0000
0000
,
0100
0000
0010
0000
,
0200
0000
0300
0000
,
1001
0000
0000
0000
,
0000
0001
0000
0001
,
0001
0000
0100
0100
,
0000
1000
0000
1000
,
1000
0000
0010
0000
,
0000
0010
0010
0000
,
0100
0000
0010
0000
,
0010
0000
0100
0000
,
0001
0000
0001
0001
,
0000
0000
0000
0000
,
1000
0000
1000
1000
,
0000
0010
0010
0000
,
0100
0000
0100
0100
,
0000
0000
0000
0000
,
0010
0000
0100
0000
,
0010
0000
0000
0000
,
0000
0000
0100
0100
,
0100
0100
0100
0000
,
0010
0010
0000
0100
,
0100
0000
0001
0000
,
1000
0000
0000
0001
,
0001
0000
1000
0000
,
0001
0000
1000
1000
,
1000
0000
0001
0001
,
0001
0000
0100
0000
,
0010
0000
1000
1000
,
1000
0000
0010
0000
,
0100
0000
0010
0010
,
0010
0000
0100
0000
,
0010
0000
0100
0100
,
0100
0000
0001
0000
,
1000
0000
0001
0000
,
0002
0000
0000
0000
,
0003
0000
1000
0000
,
2000
0000
0000
0000
,
3000
0000
0010
0000
,
0020
0000
0000
0000
,
0030
0000
0100
0000
,
0200
0000
0000
0000
,
0300
0000
0000
0000
;

//--------------- dance-single - 8Chasey ----------------
#NOTES:
     dance-single:
     8Chasey:
     Easy:
     3:
     0,0,0,0,0:
0000
0000
0000
0000
,
0000
0000
0000
0000
,
0000
0000
0000
0000
,
0000
0000
0000
0000
,
0002
0000
1003
0001
,
2000
0000
3100
0000
,
0010
0100
0010
0020
,
0000
0100
0000
0130
,
2000
0000
3001
1000
,
0002
0000
0013
0000
,
0100
0010
0100
0000
,
0010
0000
0000
0020
0000
0000
0030
0000
,
0001
0100
0001
0000
,
2000
0000
3001
0000
,
1000
0010
1000
0000
,
0001
1000
0001
0000
,
1000
0100
1000
0000
,
0002
0000
1003
0000
,
0010
0100
0010
0000
,
0100
0000
0000
0200
0000
0000
0300
0000
,
1001
0000
0001
0000
,
1000
0100
1000
1000
,
2000
0000
3010
0010
,
0000
0100
0001
0100
,
0002
0000
1003
0000
,
0100
1000
0100
0100
,
0200
0000
0310
0000
,
0100
0010
0100
0010
,
0002
0000
0100
0103
,
0000
0010
0000
0010
,
2000
0000
0100
3100
,
0010
0100
0010
0000
,
0200
0000
0010
0310
,
0000
0001
0000
1000
,
0020
0000
0100
0130
,
0010
0000
0000
1000
,
0000
1000
0000
0001
,
1000
0001
1001
0000
,
1000
1000
0000
0100
,
1000
0100
2000
0000
,
3010
0000
0100
0001
,
0100
0001
0200
0000
,
0310
0000
1000
0001
,
1000
0000
1001
0110
,
1001
0000
0001
0000
,
1000
0000
0110
1001
,
0110
0000
0100
0000
,
0010
0000
1100
1001
,
0011
0000
0100
0000
,
0010
0000
0101
0110
,
1010
0000
2002
0000
,
3003
0000
1000
0001
,
2000
0000
0000
0000
,
3001
0000
0001
1000
,
0002
0000
0000
0000
,
1003
0000
0010
0100
,
0010
0020
0000
0000
,
0130
0000
0100
0010
,
0100
0200
0000
0000
,
0000
0300
0000
0000
;

//--------------- dance-single - 8Chasey ----------------
#NOTES:
     dance-single:
     8Chasey:
     Medium:
     5:
     0,0,0,0,0:
0000
0000
0000
0000
,
0000
0000
0000
0000
,
0000
0000
0000
0000
,
0000
0000
0000
0000
,
0001
0000
2000
0000
3100
0000
0100
0010
,
0100
0000
0010
0100
0000
0000
0010
0100
,
0010
0000
0001
0000
1000
0000
0010
0100
,
0000
0000
0010
0100
0001
0000
1000
0000
,
0100
0000
0010
0100
0020
0000
0000
0100
,
0000
0000
0130
0100
0000
0010
0100
0000
,
1000
0000
0010
1000
0010
0000
0100
0000
,
0001
0000
1000
0001
0000
1000
0001
0000
,
0010
0001
0010
0000
0200
0000
0310
0000
,
0100
1000
0100
0000
0020
0000
0130
0000
,
1000
0010
0100
0000
0002
0000
1003
0000
,
0001
1000
0000
0001
0000
0100
0010
0000
,
0100
0010
0100
0000
0002
0000
0013
0000
,
0100
0010
0100
0000
2000
0000
3010
0000
,
1000
0001
1000
0000
0200
0000
0310
0000
,
0002
0000
0000
2000
0000
0000
3003
0000
,
1001
0000
1000
0100
1000
0000
0010
0000
,
0000
0100
0001
0100
0001
0000
0010
0100
,
0020
0000
0031
0000
0100
0010
0100
0000
,
0001
0000
0010
0001
0010
0000
0100
0000
,
2000
0000
3020
0000
0230
0000
0310
0100
,
0000
0010
1000
0010
1000
0000
0100
1000
,
0200
0000
0310
0000
0100
0000
1000
0001
,
1000
0000
0001
0100
0001
0000
0010
0000
,
0002
0000
0100
0000
1003
0000
0010
1000
,
0000
0010
1000
0000
0100
0000
0010
0000
,
0001
1000
0001
0000
0100
0000
0020
0000
,
0100
0000
0130
0000
0002
0000
0003
1000
,
0001
0000
0100
0010
0100
0000
1000
0000
,
0100
0010
0100
0000
0001
0010
0001
0000
,
1000
0100
1000
0000
0001
0000
1000
0001
,
2000
3100
0020
0001
,
0130
0000
1000
0100
0000
1000
0001
1000
,
0001
0100
0100
0100
0110
0000
0010
0000
,
1000
0010
1000
0000
0100
0000
0010
0100
,
0010
0001
1001
2000
,
3002
0000
0103
0000
0010
0100
0010
0000
,
1000
0000
0100
1000
0200
0000
0310
0000
,
0001
0010
0001
0000
0100
0000
0010
1000
,
0010
1000
1100
1000
,
0011
0000
0001
0000
0100
0000
0010
0100
,
0100
0010
0100
0000
0101
0000
0001
0000
,
1010
0000
1000
0000
0001
0000
1000
0001
,
0001
1000
0001
0000
0011
0000
1100
0000
,
1000
0001
2000
0000
0100
0000
3100
0000
,
1000
0001
1000
0000
1010
0000
0101
0000
,
0001
0010
0002
0000
0100
0000
0103
0000
,
0010
1000
0010
0000
2000
0000
0010
0000
,
3010
0000
0200
0000
0000
0000
0300
0001
,
0100
0001
0100
0000
0002
0000
0010
0000
,
0013
0000
0200
0000
0000
0000
0300
1000
,
0100
1000
0100
0000
0020
0000
0100
0000
,
0130
0000
0220
0000
0000
0000
0330
0100
,
0010
0100
0010
0000
0001
0000
1000
0000
,
0001
2002
0000
0000
,
0000
0000
0000
3003
0000
0000
0000
0000
;

//--------------- dance-single - 8Chasey ----------------
#NOTES:
     dance-single:
     8Chasey:
     Hard:
     7:
     0,0,0,0,0:
0000
0000
0000
0000
,
0000
0000
0000
0000
,
0000
0000
0000
0000
,
0000
0000
0000
0000
,
1000
0000
0002
0010
0010
0000
0100
0103
,
0010
0100
0010
0010
0000
0000
0100
0100
,
0010
1000
0100
0000
1000
0000
0001
2000
,
0000
0000
0001
3001
1000
0010
0100
0000
,
0001
0000
0100
0001
0100
0000
0010
0010
,
2000
0000
0100
0100
0000
3100
0010
0100
,
0020
0000
0031
1000
0200
0000
0310
0100
,
2000
0000
3001
0100
0002
0000
1003
0100
,
0000
0010
0100
0100
0010
0001
0000
1000
,
0010
1000
0100
1000
0002
0000
0103
0000
,
0010
0100
0010
0000
2000
0000
0100
0000
,
3001
1000
0000
1000
0100
0010
0100
0000
,
0010
0001
0010
0000
0001
1000
0000
1000
,
0001
0000
0000
0000
0100
0000
0001
0000
0100
0000
0000
0010
0000
0000
0100
0000
,
0010
1000
0010
0000
1000
0000
0001
0000
,
0200
0000
0000
0020
0000
0000
0330
0000
,
0110
0000
0010
1000
0010
0000
1000
0001
,
0000
0010
0010
0100
0100
0010
0001
1000
,
1001
0000
0001
0100
0001
0001
1000
0100
,
0000
1000
0010
0100
0001
0010
0100
0000
,
0120
0000
0032
0000
2003
0100
3100
0000
,
0010
0100
0010
0001
1000
0010
0100
0010
,
0200
0000
0301
0100
0020
0000
1030
0010
,
0100
0000
0001
0100
0001
1000
0010
1000
,
0200
0000
1000
0000
0010
0010
0320
0000
,
0001
0000
0100
0100
0000
0031
0100
0001
,
1000
0100
1000
0001
0100
0000
0002
0000
,
0010
0010
0010
0000
2000
0000
3003
0001
,
0200
0000
0310
0100
0020
0000
1030
0000
,
0100
1000
0001
0001
0000
0100
0001
1000
,
0010
0010
1000
0100
0010
0000
0001
0010
,
0002
0000
0103
0010
2000
0000
0100
0000
,
0001
0000
3010
0010
0000
0100
0100
0010
,
0010
0000
0100
0010
0100
0000
0001
0000
1001
0000
0000
0000
0100
0000
0010
0000
,
1000
1000
1000
0000
0100
1000
0010
0100
,
0001
0010
0100
0000
0110
0000
0010
0001
,
0020
0000
0130
0000
1000
0100
0100
1000
,
0001
0100
0100
0001
0200
0000
0010
0000
,
1000
0000
0301
0010
0001
1000
0100
1000
,
0010
0100
0110
0101
,
1010
0000
0000
0000
1001
0000
0001
0000
0000
0000
0010
0000
0001
0000
0000
0001
,
1000
0001
1000
0000
1100
0000
0011
0000
,
1001
0000
0000
0000
0110
0000
0100
0000
0000
0000
0010
0000
1000
0000
0000
1000
,
0100
1000
0001
0000
0101
0000
1010
0000
,
1001
0000
0000
0000
0110
0000
0000
0000
0010
0000
0010
0000
0100
0000
0000
0100
,
1000
0001
1000
0001
0011
0000
0101
0000
,
1010
0000
0000
0000
1100
0000
0100
0000
0000
0000
1000
0000
0001
0000
0000
0010
,
0001
0000
0100
0000
0010
0100
0010
0000
2000
0000
0000
0000
0100
0000
0000
0000
,
0001
0000
3020
0000
0000
0000
0000
0100
,
0100
0100
0130
0000
0002
0000
1000
0000
,
0010
0000
0203
0000
0000
0000
0000
0010
,
0010
0010
0310
0000
0120
0000
0001
0000
,
1000
0000
2030
0000
0000
0000
0000
0001
,
0001
0001
3001
0000
1002
0000
2003
0000
,
3020
0200
0000
0000
,
0000
0000
0000
0330
0000
0000
0000
0000
;

//--------------- dance-double - 8Chasey ----------------
#NOTES:
     dance-double:
     8Chasey:
     Easy:
     3:
     0,0,0,0,0:
00000000
00000000
00000000
00000000
,
00000000
00000000
00000000
00000000
,
00000000
00000000
00000000
00000000
,
00000000
00000000
00000000
00000000
,
00020000
00000000
00031000
00010000
,
00001000
00000000
00000000
00100000
,
01000000
00100000
01000000
02000000
,
00000000
03010000
00000000
00001000
,
00020000
00000000
00031000
00010000
,
00001000
00000000
00000000
00000010
,
00000100
00000000
00000010
00000100
,
00000010
00000000
00000000
00000020
00000000
00000000
00000030
00000000
,
00000001
00001000
00000001
00000000
,
00000100
00000000
00000010
00000000
,
00010000
00001000
00010000
00000000
,
00001000
00000000
01000000
00000000
,
00010000
10000000
00010000
00000000
,
00100000
00000000
01000000
00000000
,
10000000
00010000
10000000
00000000
,
01000000
00000000
00000000
02000000
00000000
00000000
03000000
00000000
,
10010000
00000000
10000000
00000000
,
01000000
00100000
01000000
00100000
,
00001000
00000000
00010000
00001000
,
00010000
00000000
00000010
00000100
,
00000001
00000001
00002000
00000000
,
00003100
00000000
00010000
00010000
,
00000200
00000000
00000310
00000000
,
00001000
00000001
00001000
00000001
,
00000020
00000000
00000100
00000130
,
00000000
00010000
00000000
00001000
,
00020000
00000000
00001000
00031000
,
01000000
01000000
00010000
00000000
,
02000000
00000000
00100000
03100000
,
00000000
10000000
00000000
00010000
,
00100000
00100000
00001000
00010000
,
00001000
00000000
00000000
00010000
,
00000000
00001000
00000000
00010000
,
00001000
00010000
00011000
00000000
,
00001000
00001000
00000000
00010000
,
00000000
00000100
00000020
00000000
,
00000130
00000000
00001000
00000001
,
00001000
00001000
00000200
00000000
,
00000310
00000000
00000100
00000010
,
00000100
00000000
00000101
00001001
,
00001100
00000000
00020000
00000000
,
00031000
00000000
01010000
10010000
,
11000000
00000000
02000000
00000000
,
03100000
00000000
00110000
00011000
,
00001010
00000000
00000200
00000000
,
00000301
00000000
00001100
00011000
,
01010000
00000000
01000000
00100000
,
01000000
00000000
00010000
10000000
,
00010000
00020000
00000000
00000000
,
00130000
00000000
00001000
00010000
,
00002000
00000000
00013000
00000000
,
00000010
00000000
00001000
00000001
,
00001000
00002000
00000000
00000000
,
00003100
00000000
00000010
00000100
,
00000010
00000200
00000000
00000000
,
00000000
00000300
00000000
00000000
;
