#TITLE:KIT-GUN Disco;
#SUBTITLE:;
#ARTIST:RazQ;
#TITLETRANSLIT:;
#SUBTITLETRANSLIT:;
#ARTISTTRANSLIT:;
#GENRE:;
#CREDIT:8Chasey 2025;
#MUSIC:KIT-GUN Disco.ogg;
#BANNER:;
#BACKGROUND:;
#CDTITLE:;
#SAMPLESTART:64.690;
#SAMPLELENGTH:12.000;
#SELECTABLE:YES;
#OFFSET:-0.704;
#BPMS:0.000=180.020;
#STOPS:;
#DISPLAYBPM:180.000;
#BGCHANGES:-1.950=KIT-GUN Disco.avi=1.000=1=0=0=StretchNoLoop==CrossFade==,
244.500=KIT-GUN Disco-bg.png=1.000=1=0=0=StretchNoLoop==CrossFade==
;
#FGCHANGES:;

//--------------- dance-single - 8Chasey ----------------
#NOTES:
     dance-single:
     8Chasey:
     Beginner:
     2:
     0,0,0,0,0:
0000
0000
0000
0000
,
0000
0000
0000
0000
,
0000
0000
0000
0000
,
0000
0000
0000
0000
,
0001
0000
1000
0000
,
0001
0001
0000
1000
,
1000
0000
0001
0000
,
1000
0000
0110
0000
,
0010
0000
0100
0000
,
0010
0010
0010
0000
,
0100
0000
0010
0000
,
0100
0100
0100
0000
,
0001
0000
1000
0000
,
0001
0001
0001
0000
,
1000
0000
0001
0000
,
1000
1000
1000
0000
,
0010
0000
0010
0000
,
0100
0000
0100
0000
,
1000
0000
0001
0000
,
1000
0000
0001
0000
,
1000
0000
0001
0000
,
0100
0100
0100
0000
,
0010
0000
0100
0000
,
0110
0000
1001
0000
,
0001
0000
0100
0000
,
0001
0001
0000
1000
,
1000
0000
0010
0000
,
0100
0100
0000
0010
,
0010
0000
1000
0000
,
0001
0001
0000
1000
,
1000
0000
0001
0000
,
0100
0100
0100
0000
,
0010
0000
1000
0000
,
0010
0010
0000
0100
,
0100
0000
0001
0000
,
1000
1000
0000
0001
,
0001
0000
1000
0000
,
0001
0000
0100
0000
,
0010
0010
0010
0010
,
0010
0010
0010
0000
,
0100
0000
0010
0000
,
1000
1000
1000
0000
,
0010
0000
0100
0000
,
0001
0001
0001
0000
,
1000
0000
0001
0000
,
0100
0100
0100
0000
,
0001
0000
1000
0000
,
0010
0010
0010
0000
,
1000
0000
0001
0000
,
1000
1000
1000
0000
,
0001
0000
1000
0000
,
0001
0001
0001
0000
,
1000
0000
0010
0000
,
0100
0100
0100
0000
,
0001
0000
0100
0000
,
0010
0010
0010
0000
,
1000
0000
0001
0000
,
1000
1000
0000
0001
,
0001
0000
1000
0000
,
0001
0000
0110
0000
,
1001
0000
0000
0000
;

//--------------- dance-single - 8Chasey ----------------
#NOTES:
     dance-single:
     8Chasey:
     Easy:
     5:
     0,0,0,0,0:
0000
0000
0000
0000
,
0000
0000
0000
0000
,
0000
0000
0000
0000
,
0000
0000
0000
0000
,
0001
0000
1000
0000
0010
1000
0010
0000
,
0100
0001
0100
0000
0001
0000
1000
0000
,
0100
0000
0010
0000
0100
0000
1000
0001
,
1000
0000
0001
0000
1000
0001
1000
0000
,
0010
0000
0100
0001
,
0100
0000
0100
0000
0010
0100
0010
0000
,
1000
0000
0100
1000
,
0100
1100
1001
1100
,
1000
0001
0100
0100
,
0001
1000
1001
0000
,
0001
0010
0100
1000
,
0001
1000
1001
1001
,
0010
0010
0100
0100
,
1000
0001
1000
0001
,
0100
0100
0001
1000
,
1001
1001
0000
0001
,
1000
0100
1000
0001
,
0100
0001
1001
0000
,
0100
0000
0010
0000
0100
0000
0100
0010
,
0000
0000
0110
0110
,
0001
0000
0000
0001
0010
0000
0000
0000
,
0001
1000
0000
0001
,
1000
0000
0100
1000
,
0010
0100
0000
0001
,
0100
0000
0000
0100
0010
0000
0000
0000
,
0100
0010
0000
0010
,
1000
1000
0001
0001
,
1000
0001
1000
1001
,
0001
0000
0000
0010
0000
0000
0001
0000
0000
0000
1000
0000
0000
0000
0100
0000
,
0000
1000
0100
0000
0000
0000
1000
0010
,
0000
0000
0010
0000
0000
0010
0000
0000
,
0100
0000
0000
0100
0000
0000
0001
0000
0100
0000
0000
0000
0001
0000
0000
0000
,
1000
0001
0100
0010
,
0100
0000
0000
0110
0000
0000
0010
0000
,
0100
0001
0100
0010
,
1000
0010
0110
0100
,
0001
0000
1000
0000
,
0001
0010
0001
0000
,
1000
0000
0001
0000
,
1000
0100
1000
0000
,
0010
0100
0010
0100
,
0001
1000
1001
0000
,
0100
0010
0100
0010
,
1000
0001
1001
0000
,
0001
0010
0001
0000
,
1000
1000
0001
0000
,
1000
0010
1000
0000
,
0001
0001
1000
0000
,
0100
1000
0010
0000
,
0100
0001
0010
0000
,
0100
0100
0010
0010
,
1001
0000
0110
0100
,
0001
0000
1000
0000
0100
1000
0100
0000
,
0010
0001
0010
0000
0100
0000
0010
0000
,
0001
0000
1000
0000
0001
0000
0100
0001
,
0100
0010
1000
0001
,
1001
0000
0000
0000
;

//--------------- dance-single - 8Chasey ----------------
#NOTES:
     dance-single:
     8Chasey:
     Medium:
     8:
     0,0,0,0,0:
0000
0000
0000
0000
,
0000
0000
0000
0000
,
0000
0000
0000
0000
,
0000
0000
0000
0000
,
0001
0001
1000
0100
1000
0010
0110
0000
,
0100
0001
1001
0000
1000
0100
0010
0001
,
0100
0000
0001
0000
0100
0000
0000
0000
0010
0000
1000
0000
0010
0000
0000
1000
,
0000
0010
0100
0000
0001
1000
0001
1000
,
0010
0000
0000
1000
0100
1000
0001
0010
,
0001
0000
1001
0000
1000
0010
0100
0001
,
0010
0000
0000
0100
1000
0001
0100
0001
,
0010
0000
0110
0000
0100
0010
0110
0000
,
1001
0000
0001
0100
0001
0000
1000
0010
,
1000
0000
0100
0010
0011
0000
1010
1000
,
0001
0000
0100
0001
0100
0010
1000
0000
,
0100
0010
0100
0000
0110
0000
1001
0000
,
0001
0100
0001
0000
1000
0010
1000
0000
,
0100
0010
0100
0000
0010
0010
0001
1000
,
0001
1000
0100
0000
1000
0001
1001
0000
,
0010
0010
0100
0100
1000
0001
1000
0001
,
0100
0001
0010
0000
0100
1000
0010
0000
,
0110
0000
1001
0000
0110
0000
0000
1000
,
0100
0000
1000
0001
0100
0001
0010
0100
,
0000
0010
0001
0000
1100
0000
0101
0000
,
0001
0000
0000
0100
0010
0000
0000
1000
,
0100
1000
0001
0000
0010
0000
0011
0000
,
0001
0000
0100
0001
1000
0100
1000
0000
,
1100
0000
1001
0000
0001
0010
0001
0100
,
0010
0000
1000
0010
1000
0000
0100
1000
,
0010
0100
0001
0000
0100
0000
0010
0100
,
0010
0110
1010
1100
,
1001
0000
0001
0010
0001
0000
0100
0001
,
0100
0000
0010
0100
0010
1000
0000
0100
,
1000
0100
0010
0000
0001
0000
0100
0001
,
0010
0001
1000
0100
0010
0000
0100
1000
,
0010
0000
0000
1000
0000
0000
0010
0000
0100
0000
0001
0000
0100
0000
0100
0000
,
0010
1000
0100
1000
0000
1001
0000
0001
,
0100
0001
0010
0100
0000
1000
0100
0000
,
1000
0010
1000
0000
0001
0010
0001
0000
,
1001
0000
0010
0100
0010
0000
0110
0000
,
0100
0000
0001
0100
0010
0000
1000
0001
,
1000
0000
1100
0000
0011
0000
0000
0001
,
0100
0000
0001
0010
0001
0000
1000
0100
,
0010
0000
1001
0000
0110
0000
0000
0010
,
0100
1000
0100
0000
0010
0001
0010
0000
,
0001
0000
0101
0000
1010
0000
1000
0001
,
0010
0001
0010
0001
1000
0100
1000
0100
,
0010
1001
0110
0000
,
0010
0000
1000
0100
0010
0000
0001
0010
,
0100
0000
1100
0000
0101
0000
0000
0001
,
1000
0000
0100
1000
0010
0000
0100
0000
,
1100
1010
1100
0000
,
0101
0101
0010
0000
,
0110
0101
0110
0000
,
0010
0000
1000
0100
0010
0001
1000
0000
,
1001
0000
0000
0001
0100
0010
1000
0001
,
1000
1000
0010
0100
0001
0010
0110
0000
,
0100
1000
1001
0000
0001
0010
0100
1000
,
0010
0000
1000
0000
0010
0000
0000
0000
0100
0000
0001
0000
0100
0000
0000
0010
,
0000
0100
0001
0000
0010
0001
1000
0000
,
1001
0000
0000
0000
;

//--------------- dance-single - 8Chasey ----------------
#NOTES:
     dance-single:
     8Chasey:
     Hard:
     10:
     0,0,0,0,0:
0000
0000
0000
0000
,
0000
0000
0000
0000
,
0000
0000
0000
0000
,
0000
0000
0000
0000
,
1000
0000
0010
1000
0010
0000
0100
0010
0100
0000
0001
0000
0101
0000
0100
0000
,
0010
0000
1000
0000
1100
0000
0000
0000
0100
0000
1000
0000
0010
0000
0100
0010
,
0100
0000
0001
0000
0010
0000
0010
0000
0100
0000
1000
0000
0010
0000
1000
0010
,
0000
1000
0001
0000
0100
0000
0000
0000
0110
0000
0010
0000
1001
0000
1000
0100
,
0010
0000
0000
0000
0001
0000
0100
0001
0010
0000
0001
0000
1000
0000
0100
0000
,
1000
0010
0000
0000
1000
0001
0000
0000
1000
0100
1000
0000
0001
0000
0010
0100
,
1000
0000
0000
0000
0010
0000
1000
0100
0010
0000
0001
0000
1000
0000
0010
0000
,
0100
0001
0101
0000
1010
1000
1001
0001
,
0100
0001
0010
0100
1100
1000
1001
0001
,
0101
0000
0000
0000
0100
0000
0010
0000
0110
0000
0000
0000
0010
0000
1000
0100
,
1000
0100
0010
0001
0100
0001
0001
0100
,
0110
0000
0010
0000
1000
0000
0100
0000
0010
0001
0000
0000
1001
0000
0000
0000
,
1000
0010
0000
1000
0001
0000
0100
0001
0010
0000
0100
0000
1100
0000
1000
0000
,
0010
0000
1000
0000
1000
0000
0010
0100
0010
0000
0100
0000
0001
0000
0010
0001
,
0010
0000
0100
0000
0100
0000
1000
0100
0010
0000
0001
0000
0101
0000
0100
0000
,
0110
0000
0000
0000
1001
0000
0001
0000
1000
0000
0001
0000
0100
0001
0100
0001
,
0010
0100
1000
0010
1010
1000
0001
0010
,
0001
0010
0000
0000
1000
0100
0000
0000
1001
0000
0000
0000
0001
0000
1000
0010
,
1000
0100
0010
0001
0100
0010
0100
0110
,
0000
0000
0010
0100
0001
0000
1000
0000
1001
0000
0000
0000
0101
0000
0100
0010
,
0100
0000
0010
0000
1000
0000
0100
0000
1100
0000
0000
1000
0001
0000
0010
0000
,
0001
0000
0100
0000
0110
0000
0000
0000
0010
0000
1000
0100
1000
0000
0001
0100
,
0001
0000
0000
0100
0010
0000
0100
0000
0001
0000
0000
0010
0100
0000
1000
0000
,
0010
0000
0100
0000
0101
0000
0000
0000
0001
0000
0010
0000
0001
0000
1000
0100
,
1000
0000
0010
0000
0100
0000
0001
0010
0001
0000
1000
0000
0100
0000
0010
0000
,
0001
1000
1001
0000
0001
0100
0110
0110
,
0010
0000
1000
0000
0100
0000
1000
0010
1000
0000
0001
0000
0100
0010
0000
0000
,
0110
0000
0100
0000
0010
0000
1000
0000
1001
0000
0001
0000
0010
0001
0010
0001
,
1000
0000
0100
0000
1000
0000
0001
1000
0001
0000
0100
0000
0001
0000
0010
0100
,
0010
0000
0100
0000
1000
0000
0100
0000
0000
0000
0100
0000
1000
0001
1000
0000
,
0001
0010
0100
1000
0001
1000
0001
0100
,
0010
0100
0000
0000
0110
0000
0010
0000
1000
0000
0100
0000
1000
0000
0001
0000
,
0001
0000
0010
0000
0001
0000
0100
0010
0000
0000
0110
0000
0000
0000
0010
1000
,
0010
0000
1000
0000
0100
0000
1000
0000
0000
0000
0001
0000
0100
0010
0100
0000
,
0001
1000
0000
0001
1000
0000
0100
1000
0010
0000
0110
0000
0100
0000
0001
0000
,
0101
0000
1000
0100
1100
0000
1001
0000
,
0001
0000
0010
0000
0001
0000
1000
0000
0100
0000
0000
0000
1000
0000
0010
1000
,
0010
0000
0100
0000
0001
0000
0000
0000
1001
0000
0000
0000
1000
0000
0100
0010
,
0100
0000
0010
0000
0001
0000
0100
0000
0010
0100
0000
0000
0010
0000
1000
0000
,
1100
0000
0000
0000
0011
0000
0000
0000
1001
0000
1000
0000
0001
0000
0100
0010
,
0100
0000
0010
0000
1000
0000
0100
0000
1000
0100
1000
0000
0001
0000
0010
0001
,
0010
0000
0100
0000
1000
0000
0000
0000
1001
0000
0000
0000
0001
0000
0100
0001
,
0010
0100
1100
1000
0010
0100
0101
0001
,
1000
0001
0000
0000
0001
1000
0000
0000
1001
0000
0000
0000
0110
0000
0010
0000
,
0100
0000
0000
0000
0001
0000
0010
0001
0010
0000
0100
0000
1000
0000
0010
0000
,
1000
0010
0000
0000
0100
0001
0000
0000
1001
0000
0001
0000
1000
0000
0100
0010
,
0001
0000
0010
0000
0001
0100
0001
0000
0100
0000
0010
0000
1000
0000
0100
0000
,
1000
0001
0000
0000
0100
0010
0000
0000
0110
0000
0000
0000
0010
0000
0100
0001
,
0100
0000
0010
0000
1000
0000
0100
0010
0001
0000
1000
0000
1001
0000
0000
0001
,
0100
0000
0010
0000
1000
0000
0000
0000
1100
0000
0000
0000
0100
0000
0010
0001
,
1000
0000
0000
0000
1010
0000
0010
0000
0100
0001
0100
0000
0001
0000
0010
0000
,
0110
0000
1001
1000
0001
1000
0010
1000
,
0001
0000
0100
0001
0100
0000
0010
1000
0010
0000
1000
0000
1100
0000
1000
0000
,
0001
0010
0001
0000
1001
0000
0000
1000
0100
0000
1000
0000
1010
0000
0010
0100
,
0010
0000
0100
0000
0001
0000
0010
0000
0001
0000
1000
0000
1100
0000
1000
0001
,
0000
1000
0001
0000
0010
0000
0001
0100
0010
0000
1000
0000
0001
0000
0000
0000
,
1001
0000
0000
0000
;

//--------------- dance-double - 8Chasey ----------------
#NOTES:
     dance-double:
     8Chasey:
     Easy:
     6:
     0,0,0,0,0:
00000000
00000000
00000000
00000000
,
00000000
00000000
00000000
00000000
,
00000000
00000000
00000000
00000000
,
00000000
00000000
00000000
00000000
,
00001000
00000000
00010000
00000000
00000010
00001000
00000010
00000000
,
00010000
00000100
00010000
00000000
00001000
00000000
00100000
00000000
,
01000000
00000000
00100000
00000000
00010000
00000000
10000000
00010000
,
10000000
00000000
01000000
00000000
00100000
00001000
00100000
00000000
,
00001000
00000000
00010000
00000010
,
00000100
00000000
00000100
00000000
00000010
00000100
00000010
00000000
,
00001000
00000000
00000001
00000100
,
00001000
00011000
00010010
00011000
,
00001000
00100000
00100000
00010000
,
10000000
00000000
01000000
00100000
01000000
00000000
01100000
00000000
,
00010000
00001000
00000100
00000001
,
00001000
00000001
00001001
00001001
,
00000010
00000010
00000100
00000100
,
00001000
00000001
00001000
00000001
,
00000100
00000100
00001000
00010000
,
00011000
00011000
00000000
00001000
,
00100000
00010000
01000000
00100000
,
10000000
01000000
01100000
00000000
,
00010000
00000000
00001000
00000000
00010000
00000000
00010000
00000010
,
00000000
00000000
00000100
00000001
00001000
00000000
00001001
00000000
,
00000001
00000000
00000000
00000001
00000100
00000000
00000000
00000100
,
00001000
00010000
00000000
00010000
,
00001000
00000000
00100000
00010000
,
01000000
10000000
00000000
01000000
,
00001000
00000000
00000000
00001000
00010000
00000000
00000000
00010000
,
00000010
00000100
00000000
00000010
,
00001000
00001000
00000001
00000001
,
00000100
00001000
00010000
00011000
,
00001000
00000000
00000000
00001000
01000000
00000000
00000000
01000000
,
00010000
10000000
00000000
10000000
,
00010000
00000000
00100000
00001000
,
00100000
00100000
00000000
00001000
,
01000000
00100000
10000000
00010000
,
00100000
00000000
00000000
01100000
00000000
00000000
01000000
00000000
,
10000000
01000000
10000000
00010000
,
00100000
00001000
00011000
00010000
,
00000100
00000000
00000010
00000000
,
00000001
00000100
00000001
00000000
,
00000010
00000000
00000100
00000000
,
00001000
00000010
00001000
00000000
,
00000010
00000100
00000010
00000100
,
00001000
00010000
00011000
00000000
,
00100000
01000000
00100000
01000000
,
00010000
00001000
00011000
00000000
,
00100000
00001000
00100000
00000000
,
00010000
00010000
01000000
00000000
,
00001000
00100000
00010000
00000000
,
00110000
00101000
00110000
00000000
,
00010100
00010100
00001000
00000000
,
00001100
00001010
00001100
00000000
,
00001000
00001000
00000001
00000001
,
00000110
00000000
00000000
00000000
00001000
00010000
00001000
00000000
,
00010000
00000000
00001000
00000000
01000000
00010000
01000000
00000000
,
00100000
10000000
00100000
00000000
10000000
00000000
01000000
00000000
,
00100000
00000000
00001000
00000000
00010000
00000000
00000100
00000010
,
00000100
00001000
00000010
00010000
,
00011000
00000000
00000000
00000000
;
