#TITLE:Just Say No (but better?);
#SUBTITLE:;
#ARTIST:Hank Hill and Chadtronic (Roy'el Clark);
#TITLETRANSLIT:;
#SUBTITLETRANSLIT:;
#ARTISTTRANSLIT:;
#GENRE:;
#CREDIT:8Chasey 2025;
#MUSIC:Just Say No (But Better).ogg;
#BANNER:;
#BACKGROUND:;
#CDTITLE:;
#SAMPLESTART:49.05;
#SAMPLELENGTH:12;
#SELECTABLE:YES;
#OFFSET:-0.050;
#BPMS:0.000=94.800
,70.000=94.700
,94.000=94.900
,108.000=94.800
,124.000=94.900
,148.000=94.800
,174.000=94.900
;
#STOPS:;
#DISPLAYBPM:95.000;
#BGCHANGES:;
#FGCHANGES:;

//--------------- dance-single - 8Chasey ----------------
#NOTES:
     dance-single:
     8Chasey:
     Beginner:
     1:
     0,0,0,0,0:
0000
0000
0000
0000
,
0000
0000
0000
0000
,
0001
0000
0000
0000
,
0001
0000
0000
0000
,
1000
0000
0000
0000
,
1000
0000
0000
0000
,
0001
0000
0000
0000
,
1000
0000
0000
0000
,
0010
0000
0000
0000
,
0100
0000
0000
0000
,
0000
0000
0001
0000
,
0001
0000
1000
0000
,
1000
0000
0001
0000
,
0001
0000
0001
0000
,
0000
0000
1000
0000
,
1000
0000
0001
0000
,
0001
0000
1000
0000
,
1000
0000
1000
0000
,
0000
0000
0010
0000
,
0000
0000
0100
0000
,
0000
0000
0010
0000
,
0000
0000
1000
0000
,
1000
0000
0001
0000
,
0001
0000
0000
0000
,
0100
0000
0100
0000
,
0010
0000
0010
0000
,
1000
0000
1000
0000
,
0001
0000
0000
0000
,
0010
0000
0010
0000
,
0100
0000
0100
0000
,
0001
0000
0001
0000
,
1000
0000
0000
0000
,
0000
0000
0000
0000
,
0001
0000
0001
0000
,
1000
0000
0001
0000
,
1000
0000
1000
0000
,
0001
0000
1000
0000
,
0000
0000
0010
0000
,
0100
0000
0100
0000
,
0010
0000
1000
0000
,
1000
0000
0001
0000
,
0000
0000
0100
0000
,
0010
0000
0010
0000
,
0100
0000
0001
0000
,
0001
0000
1000
0000
,
0000
0000
0001
0000
,
0001
0001
0001
0000
,
0001
0000
1000
0000
,
1000
1000
1000
0000
,
1000
0000
0010
0000
,
0100
0000
0010
0000
,
0000
0000
0100
0000
,
0010
0000
0100
0000
,
0000
0000
0001
0000
,
1000
0000
0001
0000
,
0000
0000
1000
0000
,
0000
0010
0010
0000
;

//--------------- dance-single - 8Chasey ----------------
#NOTES:
     dance-single:
     8Chasey:
     Easy:
     3:
     0,0,0,0,0:
0000
0000
0000
0000
,
0000
0000
0000
0000
,
0001
0000
0000
0010
,
0100
0000
1000
0010
,
1000
0000
0000
0010
,
0100
0000
0001
0100
,
0001
0000
1000
0000
,
0001
0000
0100
0000
,
0010
0100
0010
0000
,
0100
0010
0100
0000
,
0000
0000
1000
0000
,
0001
0010
0001
0000
,
1000
0100
1000
0000
,
0001
0000
0100
0000
,
0010
0100
0010
0000
,
0100
0001
0100
0000
,
0010
1000
0010
0000
,
1000
1000
0001
0000
,
0100
0000
0001
1000
,
0001
1000
0010
0000
,
0010
0000
0100
0000
,
0010
0000
0100
0001
,
0100
0000
0001
1000
,
0001
0000
0000
0000
,
1000
0000
0010
0100
,
0001
0000
1000
0001
,
0100
0000
0010
0000
,
1000
0100
1000
0000
,
0010
0000
0100
0001
,
0100
0000
0001
0010
,
0001
0000
1000
1000
,
0010
0000
0100
0010
,
0100
0000
0001
0001
,
0010
0000
0001
0000
,
1000
0001
0100
0000
,
0010
1000
0010
0000
,
0100
0010
0100
0000
,
0000
0000
0010
1000
,
0010
0000
0100
0001
,
0100
0000
0001
0001
,
1000
1000
0001
0000
,
1000
0100
1000
0000
,
0010
0000
0100
0001
,
0100
0000
0001
0010
,
0001
0100
0001
0000
,
1000
0010
1000
0000
,
0001
1000
0001
0000
,
0100
0010
0100
0000
,
0010
0000
1000
0100
,
1000
0001
0001
0000
,
0010
0001
0010
0000
,
0100
1000
0100
0000
,
1000
0001
1000
0000
,
0010
0000
0100
0001
,
0100
0000
0001
0000
,
1000
0000
0100
0000
,
0010
0100
0010
0000
;

//--------------- dance-single - Colton ----------------
#NOTES:
     dance-single:
     Colton:
     Medium:
     5:
     0,0,0,0,0:
0000
0000
0000
0000
,
0000
0000
0000
0000
,
1000
0010
0010
0001
,
0100
0100
0010
1000
,
0100
0100
1000
0001
,
0010
0000
0100
0000
0100
0000
0001
1000
,
0100
0000
0100
0001
0010
0000
0100
0000
,
1000
0000
1000
0010
0100
0000
1000
0000
,
0100
0001
0100
0000
0100
0000
1000
0000
,
0100
1000
0001
0100
0010
0000
1000
0000
,
0000
0000
0010
0100
,
0100
0000
1000
0001
0100
0000
0100
0000
,
0001
0000
1000
0100
1000
0010
0100
0000
,
0001
0100
0010
0000
1000
0000
0100
0000
,
0100
0000
1000
0010
0100
0000
0100
0000
,
0001
0000
0001
1000
0100
0000
0100
0000
,
0001
0000
1000
0100
0010
0010
0001
0000
,
1000
0000
0010
0100
0001
0000
0001
0000
,
1000
0000
0001
0000
0100
0000
0010
1000
,
0010
0000
0001
0100
0010
0000
1000
0010
,
0100
0000
0100
1000
0001
0000
0100
0000
,
0010
1000
0010
0100
,
0001
0000
0001
0000
1000
0001
0100
0001
,
1000
1000
0000
0000
,
0010
0000
0010
0000
0001
0000
1000
0010
,
0010
0000
1000
0000
0001
0000
0100
1000
,
0001
0000
0001
1000
0010
0000
1000
0001
,
0100
0000
0100
0000
0100
0000
1000
0001
,
0010
0010
0001
0001
,
0100
1000
1001
0100
,
0001
0100
0001
1000
0100
0000
1000
0001
,
0010
0000
0010
0000
0010
0000
0001
1000
,
0010
0000
0100
0000
0001
0000
0001
0001
,
0100
0000
1000
0001
0100
0000
1000
0010
,
0001
0000
0001
0100
0001
0000
0010
0000
,
1000
0010
0010
0000
0001
0000
0001
0000
,
1000
0001
1000
0001
0100
0000
0010
0000
,
0000
0000
1000
0001
,
1001
0000
0100
0010
0100
0000
0100
0000
,
0110
0000
0100
1000
0001
0000
0001
0100
,
0001
0000
0100
0100
0001
0000
1000
0000
,
1000
0000
0010
1000
0001
0000
0001
0000
,
0100
0000
0100
1000
0100
0000
0100
0000
,
1001
0000
0100
1000
0100
0000
0100
1000
,
0010
0000
1000
0001
0100
0000
0100
0000
,
0010
0000
1000
0001
0100
0000
0100
0000
,
1001
0000
0100
0001
0010
0000
0010
0000
,
0110
0000
1000
0000
0001
0100
0001
0000
,
1000
0100
1000
0000
0100
0000
0010
0000
,
0001
0000
1000
0010
0010
0000
1000
0000
,
1100
0000
0100
0010
0001
0000
0001
0000
,
0011
0000
1000
0010
0100
0100
0001
1000
,
0100
0000
1000
0010
0100
0000
0100
0000
,
0001
0000
0010
0000
0100
0100
0001
1000
,
0001
0000
0010
0100
0001
0000
0100
0000
,
0010
1000
1000
0100
,
0100
0000
1000
0001
0110
0000
0000
0000
;

//--------------- dance-single - 8Chasey ----------------
#NOTES:
     dance-single:
     8Chasey:
     Hard:
     7:
     0,0,0,0,0:
0000
0000
0000
0000
,
0000
0000
0000
0000
,
1000
0000
0001
0000
1000
0000
0000
0000
0001
0000
0000
0010
0000
0000
0010
0000
,
0001
0000
0100
0000
0001
1000
1001
0000
,
1000
0000
0010
0000
1000
0000
0000
0000
0010
0000
0000
0100
0000
0000
0100
0000
,
0001
0000
1000
0001
1000
0000
0100
0010
,
0001
0000
0100
0001
1000
1000
0100
0000
,
1000
0000
0000
0001
1000
0000
0001
0000
0010
0000
0001
0000
0100
0000
0000
0000
,
0010
0000
1000
0000
0010
0000
0000
0010
0000
0000
0100
0000
0010
0000
0100
0000
,
0001
1000
0001
1000
0010
0000
0100
0000
,
1001
0000
0001
1000
0001
0000
0010
0000
,
0100
1000
1000
0001
0010
0000
0001
0000
,
0100
0001
0001
1000
0100
1000
0100
0000
,
1000
0001
1000
0000
0010
0000
0100
0000
,
0001
0000
1000
0100
0001
0000
0100
0000
,
0010
0000
0001
0100
0001
0000
1000
0000
,
0010
1000
0100
1000
1000
0001
0010
0000
,
0001
0000
0100
0001
1001
0000
1000
0100
,
0010
0000
0100
0000
0110
0000
0100
0010
,
0100
0000
1000
0000
0001
0000
0000
0000
1001
0000
0000
0000
0010
0000
0000
1000
,
0000
0010
0100
0001
0100
0000
0001
0010
,
0100
0000
0000
0000
1000
0000
0100
0000
0010
0000
0000
0000
0100
0000
0000
0100
,
0000
1000
0001
0000
0100
0001
0010
0100
,
1000
0000
0001
0000
1001
0000
0100
0010
,
0110
0000
0010
0000
1000
1000
0100
0010
,
0001
0000
0100
0001
1000
1000
0010
0000
,
0100
0001
0100
0010
1000
0000
0100
1000
,
0001
0000
0100
0001
0010
0000
0100
1000
,
1100
0000
1000
0000
0010
0010
1000
0000
,
0001
0000
0101
0000
0100
0100
0010
0000
,
1000
0100
1000
0001
0010
0000
0100
0010
,
0001
0000
0000
0000
0100
0000
0010
0000
1000
0000
0000
0000
0100
1000
0000
0000
,
0001
0000
0010
0001
0010
0010
0100
1000
,
0100
0000
0000
0000
1000
0000
0000
0001
0000
0000
1000
0000
0010
0000
0100
0000
,
0001
0000
0100
0010
0010
1000
0100
0000
,
1000
0000
0100
0000
1000
0000
0000
0001
0000
0000
0001
0000
1000
0000
0000
0000
,
0001
0100
0001
0010
0100
1000
0001
0000
,
0101
0000
1000
0010
1010
0000
1000
0000
,
0001
0001
0010
0001
1000
0000
0100
0000
,
1000
1000
0010
0100
0001
0010
0100
0000
,
1000
0100
0010
0010
0100
0000
1000
0010
,
1000
0000
0000
0000
0100
0000
0010
0100
0010
0000
0000
0000
0001
0000
1000
0000
,
0010
0010
0100
0001
0100
0010
1000
0000
,
0100
0100
1000
0001
0100
0001
0010
0001
,
1000
0000
0100
1000
0010
0100
0001
0000
,
1000
0000
0000
0000
0010
0000
0100
0010
0100
0000
0001
0000
1000
0000
0000
0000
,
0010
0010
0100
0001
1000
0000
0100
0000
,
1000
1000
0100
1000
0010
1000
0001
0000
,
0010
0001
0100
0000
0010
1000
0010
0100
,
0001
0000
0000
0000
1000
0000
0001
1000
0001
0000
0010
0000
0100
0000
0010
0000
,
0001
0001
1000
1000
0100
0000
1000
0001
,
0100
0100
0010
0010
1000
0100
1000
0001
,
0100
0000
0010
0100
0001
0000
1000
0100
,
0110
0000
0010
0001
1000
1000
0010
0100
,
0001
0000
1000
0100
0110
0000
0001
1000
,
0010
0000
0100
0001
0000
0100
0001
0000
1000
0000
0100
0000
1000
0000
0010
0000
,
0100
0000
0010
0100
1001
0000
0000
0000
;

//--------------- dance-single - 8Chasey ----------------
#NOTES:
     dance-single:
     8Chasey:
     Challenge:
     8:
     0,0,0,0,0:
0000
0000
0000
0000
,
0000
0000
0000
0000
,
1000
0000
0000
0000
0010
0000
0000
0000
0000
0000
1000
0001
0000
1000
0001
0000
,
0010
0000
0001
0000
0100
0001
1000
0000
,
0001
0000
0000
0000
1000
0000
0100
0000
1000
0000
0010
1000
0000
0000
0010
0000
,
0100
0000
0000
0000
0001
0000
1000
0100
1000
0000
0100
0000
0010
0000
0100
1000
,
0100
0000
1000
0000
0001
0000
0010
0001
0100
0000
0010
0000
0110
0000
0000
0000
,
1000
0000
0010
1000
0000
0001
1000
0000
0100
0000
0010
0000
0011
0000
0000
0001
,
0100
0000
0001
0000
1000
0000
0100
1000
0010
0000
1000
0000
1010
0000
0000
0000
,
0010
0000
0010
0000
0100
0000
0001
0000
1000
0100
1000
0000
0100
0000
0010
0000
,
1001
0000
0000
0000
0000
0000
0001
1000
0001
0000
0010
0000
0001
0000
0100
0000
,
0110
0000
0000
0000
0010
0000
1000
0000
0010
0000
1000
0100
1000
0000
0001
0000
,
1001
0000
1000
0100
1000
0001
0001
0010
,
0001
0000
0100
0000
1000
0000
0100
0000
0010
0000
1000
0010
1000
0000
0001
0000
,
0010
0000
0100
0000
0010
0001
1000
0000
0100
0000
1000
0000
0010
0000
0100
0000
,
0110
0000
0000
0000
0010
0000
1000
0100
1000
0000
0001
0000
1000
0000
0000
0000
,
1001
0000
0000
0000
1000
0000
0001
0100
0001
0000
0001
0000
1000
0000
1000
0000
,
0010
0000
0100
0000
0001
0000
1000
0100
1000
0000
0010
1000
0000
0010
1000
0000
,
0010
0100
0001
0000
1100
1000
0100
1000
,
0001
0000
0000
0000
0010
0000
0100
0010
0100
0000
1000
0000
0001
0000
1000
0010
,
1000
0000
0100
0000
0010
0000
0001
0010
0001
0000
1000
0000
0010
0000
0100
0001
,
0100
0000
0001
0000
1000
0100
0010
0001
0010
0000
0001
0000
0010
0000
0001
1000
,
0001
0000
1000
0000
0100
0000
1000
0000
0010
0000
0010
0000
0100
0000
0010
0100
,
0010
0000
0000
0000
0100
0001
0100
0000
1010
0000
0000
0000
0000
0000
0010
0100
,
0010
0000
1000
0000
0100
0000
1000
0000
1001
0000
0000
0000
0001
0000
0100
0001
,
0100
0010
1000
0010
0110
0000
0100
0001
,
1000
0000
1000
0000
0001
0000
0001
0000
0010
0000
0001
1000
0001
0000
1000
0000
,
0100
0000
1000
0000
1000
0000
0100
0000
1000
0010
1000
0000
0001
0000
0010
0000
,
0110
0000
0100
0000
1000
0000
0100
0000
1100
0000
0000
0000
1000
0000
0010
1000
,
0010
0000
1000
0000
0001
0000
0100
0000
0101
0000
0000
0000
0001
0000
0010
0001
,
0010
0000
0001
0000
0001
0000
1000
0000
0100
0000
1000
0001
1000
0000
0001
0000
,
0100
0000
0010
1000
0000
0010
1000
0000
0001
0000
0010
0000
0001
0100
0000
0000
,
0110
0000
0000
0000
0010
0000
1000
0010
1000
0000
1000
0000
0100
0000
0100
0000
,
1000
0000
0100
0000
0001
0000
0100
0010
0100
0000
0010
0000
0001
0000
0100
0000
,
0001
0000
1000
0001
1000
0000
0100
0000
0100
0000
0010
0000
0100
0000
0010
0000
,
0100
0000
1000
0000
0100
0000
1000
0100
1000
0000
0001
0000
0100
0000
0001
0000
,
0010
0000
0001
0000
1000
0000
0010
0100
0010
0000
0100
0000
0001
0000
1000
0000
,
1100
0000
0000
0000
0000
0000
0100
0010
0100
0000
0010
0000
0001
0000
1000
0000
,
1001
0000
0001
0000
0100
0000
0001
0000
0100
0000
0010
0100
0010
0000
0100
0000
,
0110
0000
0010
0000
1000
0000
0100
0000
1000
0000
0100
0000
0001
0000
0100
0010
,
0100
0000
0010
0000
0001
0000
0010
0000
0001
0000
1000
0000
0100
1000
0000
0100
,
1000
0000
0010
0000
0100
0000
0010
0100
0001
0000
1000
0000
0010
0000
1000
0000
,
1100
0000
0100
0000
0010
0100
0010
0000
0001
0000
0100
0001
0010
0000
0001
0000
,
0011
0000
0010
0000
0100
0000
1000
0100
1000
0000
0100
0000
0001
0000
0100
0000
,
0010
0000
0001
0010
0001
0000
0100
0000
0001
0000
1000
0010
1000
0000
0010
0100
,
0010
0000
0100
0100
0001
0000
1100
0000
0101
0000
0010
0000
0001
0000
1000
0000
,
1001
0000
0001
0100
0001
0000
0100
0000
0010
0000
0010
0000
1000
0000
0010
0000
,
0110
0000
0100
0001
0100
0000
0001
0000
1000
0000
1000
0000
0010
0000
0010
0100
,
0010
0000
0100
0000
0001
0000
0010
0000
0001
0000
1000
0100
1000
0000
0010
1000
,
0010
0000
1000
0001
1000
0000
0001
1000
0001
0000
1000
0000
0010
0000
0100
0000
,
0101
0000
0001
0010
0001
0000
0010
0000
0100
0000
1000
0000
0010
0000
1000
0000
,
1010
0000
0010
0100
0010
0000
0100
0001
0100
0000
0100
0000
0001
0000
0001
0000
,
1000
0000
0100
0010
0001
0000
0010
0000
0001
0000
1000
0010
1000
0000
0010
0000
,
0110
0000
0100
0001
0100
0000
0001
1000
0001
0000
1000
0000
0010
0000
0010
0000
,
0100
0000
0001
0000
1000
0000
0100
0000
0110
0000
0010
0001
0010
0000
0001
0000
,
0100
0001
0100
0010
0000
0000
1000
0010
1000
0000
0100
0000
1000
0000
0001
0000
,
0100
0000
1010
0101
1001
0000
0000
0000
;
