#TITLE:Joy!;
#SUBTITLE:;
#ARTIST:Reddy Yoko;
#TITLETRANSLIT:;
#SUBTITLETRANSLIT:;
#ARTISTTRANSLIT:;
#GENRE:Do-up;
#CREDIT:;
#MUSIC:Joy!.ogg;
#BANNER:Joy!.png;
#BACKGROUND:;
#CDTITLE:;
#SAMPLESTART:56.293;
#SAMPLELENGTH:12.000;
#SELECTABLE:YES;
#OFFSET:-0.296;
#BPMS:0.000=119.984;
#STOPS:;
#BGCHANGES:;
#FGCHANGES:;

//--------------- dance-single - 8Chasey ----------------
#NOTES:
     dance-single:
     8Chasey:
     Beginner:
     1:
     0,0,0,0,0:
0000
0000
0000
0000
,
0000
0000
0000
0000
,
0000
0000
0000
0000
,
0000
0000
0000
0000
,
0001
0000
0001
0000
,
1000
0000
0000
0000
,
0010
0000
0100
0000
,
0010
0000
0000
0000
,
1000
0000
1000
0000
,
0001
0000
0000
0000
,
0010
0000
0100
0000
,
0010
0000
0000
0000
,
0001
0000
0001
0000
,
0100
0000
0001
0000
,
1000
0000
1000
0000
,
0010
0000
1000
0000
,
0110
0000
0000
0000
,
0000
0000
0000
0000
,
0010
0000
0100
0000
,
0110
0000
1001
0000
,
0001
0000
1000
0000
,
0001
0000
1000
0000
,
0010
0000
0100
0000
,
0100
0100
0100
0000
,
1000
0000
0001
0000
,
1000
0000
0001
0000
,
0010
0000
0100
0000
,
0001
0000
1000
0000
,
0010
0000
0000
0000
,
0001
0001
0001
0000
,
1000
0000
0100
0000
,
1000
0000
0000
0000
,
0010
0000
0000
0000
,
1000
1000
1000
0000
,
0001
0000
0100
0000
,
0001
0000
1001
1001
,
1001
0000
1000
1000
,
1000
0000
0001
0001
,
0001
0000
1000
0000
,
0001
0000
0100
0000
,
1001
0000
0000
0000
;

//--------------- dance-single - 8Chasey ----------------
#NOTES:
     dance-single:
     8Chasey:
     Easy:
     3:
     0,0,0,0,0:
0000
0000
0000
0000
,
0000
0000
0000
0000
,
0000
0000
0000
0000
,
0000
0000
0000
0000
,
0002
0000
0103
0001
,
2000
0000
3100
0100
,
0020
0030
0200
0300
,
1001
0000
0001
1000
,
0020
0000
1030
0100
,
0200
0000
0310
0100
,
2000
3000
0002
0003
,
0110
0010
0100
0100
,
0001
0000
0010
0001
,
0100
0000
1000
1000
,
0100
0000
1000
0001
,
0010
0000
0100
0010
,
0002
0000
1003
0000
,
2000
0000
3001
0000
,
0010
0000
0100
0000
,
0010
0100
0110
0110
,
0001
0000
1000
0000
0100
0000
0000
0020
,
0000
0000
0000
0200
0000
0000
0330
0000
,
1000
0000
0001
0000
,
1000
0001
0100
0100
,
0000
0000
0010
0000
0010
0000
0000
2000
,
0000
0000
0000
0002
0000
0000
3003
0000
,
0100
0001
0100
0000
,
0010
1000
0010
0100
,
0020
0000
0130
0001
,
1000
0000
0100
0010
,
0001
0000
1000
0000
,
0001
1000
0100
0010
,
2002
0000
3003
0100
,
0200
0000
0310
0100
,
0001
0100
1000
0000
,
0100
0010
0110
1001
,
2000
3000
0100
1000
,
0002
0003
0100
0001
,
0020
0030
0100
0010
,
0200
0300
0001
1000
,
2002
3003
0000
0000
;

//--------------- dance-single - 8Chasey ----------------
#NOTES:
     dance-single:
     8Chasey:
     Medium:
     5:
     0,0,0,0,0:
0000
0000
0000
0000
,
0000
0000
0000
0000
,
0000
0000
0000
0000
,
0000
0000
0000
0000
,
0200
0310
1000
0100
,
0010
0001
0010
0000
0100
0000
1000
0000
,
0001
0100
0001
0000
1000
0000
0010
0000
,
1001
1000
0001
0200
,
0310
0000
0100
0000
0001
1000
0001
0000
,
2000
0000
3100
0000
1000
0001
0010
0000
,
0100
0010
0001
0000
0010
0000
0100
0000
,
1001
0000
0010
0000
0100
1000
0100
0000
,
0020
0001
0100
0001
,
0230
0000
1000
0000
0010
0000
1300
0002
,
0000
0100
0010
0100
,
2003
0100
0010
3100
,
1001
0000
0010
0001
0010
0000
0100
1000
,
0100
0000
0010
0100
0010
0000
0100
0000
,
2002
3003
2020
3030
,
0022
0033
1100
0101
,
0110
0000
0100
0001
1000
0000
0100
0020
,
0000
0000
0000
0200
0000
0000
0330
0000
,
1000
1000
0100
0000
1000
0001
0010
0000
,
0002
0000
0203
0000
0301
1000
0100
0000
,
0110
0000
1001
0000
1000
1000
0010
2000
,
0000
0000
0000
0002
0000
0000
3003
0000
,
0100
0000
0001
0000
0010
0001
1000
0100
,
0000
0100
1000
0001
,
0002
0000
0000
0000
1000
0000
0000
1003
0000
0000
0100
0000
0000
0010
0000
0000
,
0220
0000
0330
2200
0000
3300
1010
0000
,
1000
0100
1000
0000
0001
0010
0001
0000
,
0100
0010
1000
0000
0100
0000
0010
0100
,
2001
0000
0000
0000
0001
0000
0000
3001
0000
0000
0010
0000
0000
0100
0000
0000
,
0220
0000
0330
0022
0000
0033
0101
0000
,
1000
0100
1000
0010
2000
0000
3001
0100
,
0000
0010
0100
0000
0110
0000
1001
0000
,
0002
0000
0103
0000
0001
1000
0100
0000
,
2000
0000
3100
0000
1000
0001
0100
0000
,
0020
0000
1030
0000
0001
0100
0001
0000
,
0020
0000
0031
0000
1000
0100
1000
0000
,
2002
3003
0000
0000
;

//--------------- dance-single - 8Chasey ----------------
#NOTES:
     dance-single:
     8Chasey:
     Hard:
     8:
     0,0,0,0,0:
0000
0000
0000
0000
,
0000
0000
0000
0000
,
0000
0000
0000
0000
,
0000
0000
0000
0000
,
2001
0000
3100
0010
0000
0001
1000
0010
,
0210
0000
0301
0010
0000
0010
0100
0100
,
2100
3010
0102
0013
,
1001
0000
1000
0000
0001
0000
0010
0000
0001
0000
0001
0000
1000
0001
1000
0000
,
0002
0000
0103
0000
0001
1000
0100
0100
,
2000
0000
3100
0000
0010
0100
0010
0001
,
0200
0001
0301
1000
0020
1000
1030
0001
,
0110
0000
0000
0000
1001
0000
0000
0000
1000
0000
0100
0000
1000
0001
0010
0000
,
0002
0100
0103
0001
1000
0010
1000
0100
,
2000
0100
3100
1000
0001
0010
0100
1002
,
0000
1003
0100
1000
0001
0100
1000
0100
,
0020
1000
2030
0001
3001
0010
0100
0000
,
1002
0000
1000
0013
0001
1000
0100
1000
,
2001
0000
0001
3010
1000
0001
0100
0001
,
0022
0000
0033
0011
2200
0000
3300
1100
,
1001
0000
1000
0000
0001
0000
1001
0000
0110
0000
1000
0000
0001
0010
0100
0000
,
1001
0000
0000
0000
0020
0000
0000
0031
0010
0000
0001
0000
1000
0000
0200
0000
,
0000
0000
1300
0000
1000
0000
1010
0000
0000
0000
0100
0000
0001
0100
0001
0000
,
0010
0001
1000
0010
0100
0100
0001
0010
,
0101
0000
0000
0000
1100
0000
0000
0000
1010
0000
1000
0000
0001
0010
0001
0000
,
0011
0000
0000
0000
0200
0000
0000
1300
0100
0000
1000
0000
0010
0000
0200
0000
,
0000
0000
0301
0000
1000
0000
1001
0000
0000
0000
0010
0000
0100
1000
0010
0000
,
0100
0001
0100
1000
0100
0010
1000
1100
,
0000
0000
0101
0000
1001
0000
2000
0000
0010
0000
3010
0000
0001
0100
0010
0000
,
2010
0000
0010
0000
3100
0000
1000
0001
0000
0000
0101
0000
0000
1100
0000
0000
,
0120
0000
0000
0130
0000
0000
1002
0000
0000
0000
1003
0000
0100
1000
0100
0000
,
0010
0000
0100
0000
1000
0000
0001
0000
0100
0000
0001
0100
0001
0000
1000
0000
,
1010
0000
1000
0000
0011
0000
0001
0000
0100
0000
0010
0000
1000
0001
0100
0000
,
0012
0000
0010
0000
0103
0000
0001
1000
0000
0000
1010
0000
0000
0011
0000
0000
,
0210
0000
0000
0301
0000
0000
1200
0000
0000
0000
0310
0000
0100
0010
0001
0000
,
1000
0000
0010
0000
0001
0000
0010
0000
0100
0000
0001
0010
0001
0000
2100
0000
,
0000
3001
0100
0010
0110
0000
1001
0001
,
2000
0000
0000
0000
3100
0000
1000
0000
1000
0000
0010
0000
0100
0001
0100
0000
,
0002
0000
0000
0000
0013
0000
0001
0000
0001
0000
0010
0000
0100
1000
0100
0000
,
0020
0000
0000
0000
0031
0000
0010
0000
0010
0000
0100
0000
1000
0100
1000
0000
,
0200
0000
0000
0000
1300
0000
0010
0000
0010
0000
0100
0000
0001
0100
0001
0000
,
2002
3003
0000
0000
;
