#TITLE:Jersey Nova;
#SUBTITLE:;
#ARTIST:CactusTeam;
#TITLETRANSLIT:;
#SUBTITLETRANSLIT:;
#ARTISTTRANSLIT:;
#GENRE:;
#CREDIT:8Chasey 2025/Funny Mix 3;
#MUSIC:Jersey Nova.ogg;
#BANNER:;
#BACKGROUND:;
#CDTITLE:;
#SAMPLESTART:34.316;
#SAMPLELENGTH:12.001;
#SELECTABLE:YES;
#OFFSET:-5.745;
#BPMS:0.000=168.000;
#STOPS:;
#BGCHANGES:;
#FGCHANGES:;

//--------------- dance-single - BEGINNER ----------------
#NOTES:
     dance-single:
     BEGINNER:
     Beginner:
     1:
     0,0,0,0,0:
0000
0000
0000
0000
,
0000
0000
0000
0000
,
0010
0000
0010
0000
,
0100
0000
0010
0000
,
0100
0000
0000
0000
,
0001
0000
0000
0000
,
0100
0000
0000
0000
,
1000
0000
0000
0000
,
0010
0000
0000
0000
,
0001
0000
0000
0000
,
0010
0000
0000
0000
,
1000
0000
0000
0000
,
0001
0000
0000
0001
,
0001
0000
0000
0000
,
1000
0000
0000
1000
,
1000
0000
0000
0010
,
0010
0000
0000
0000
,
0100
0000
0000
0000
,
0100
0000
0000
0000
,
0010
0000
0100
0000
,
0001
0000
0000
0000
,
0001
0000
0000
0000
,
0001
0000
0000
0000
,
0100
0000
0010
0000
,
1000
0000
0000
0000
,
1000
0000
0000
0000
,
1000
0000
0000
0000
,
0100
0000
0000
0000
,
1000
0000
0000
0000
,
1000
0000
0000
0000
,
1000
0000
0000
0000
,
0100
0000
0010
0000
,
0001
0000
0000
0000
,
0001
0000
0000
0000
,
0001
0000
0000
0000
,
0001
0000
0000
0000
,
1000
0000
0001
0000
,
1000
0000
0000
0000
,
0001
0000
0000
0000
,
0100
0000
0010
0000
,
0001
0000
1000
0000
,
0001
0000
0000
0000
,
1000
0000
0000
0000
,
0001
0000
0000
0000
,
1000
0000
0000
0000
,
0000
0000
0000
0010
,
0010
0000
0000
0000
,
0100
0000
0010
0000
,
0100
0000
0000
0000
,
0001
0000
1000
0000
,
0001
0000
0000
0000
,
1000
0000
0010
0000
,
0010
0000
0000
1000
,
1000
0000
0000
0001
,
0001
0000
0000
0100
,
0100
0000
0010
0000
,
1000
0000
0000
0000
,
1000
0000
0000
0000
,
0001
0000
0000
0000
,
0001
0000
0000
0000
,
0100
0000
0000
0000
,
0000
0000
0000
0000
,
0001
0000
0000
0000
,
0000
0000
0000
0000
,
1000
0000
0000
0000
,
0000
0000
0000
0000
,
0010
0000
0010
0000
,
0010
0010
0010
0010
;

//--------------- dance-single - NOVICE ----------------
#NOTES:
     dance-single:
     NOVICE:
     Easy:
     4:
     0,0,0,0,0:
0000
0000
0000
0000
,
0000
0000
0000
0000
,
0010
0000
0010
0000
,
0100
0010
0100
0010
,
0100
0000
0001
0100
,
0001
0000
1000
0000
,
0001
0000
1000
0100
,
1000
0000
0001
0000
,
0100
0000
0010
0100
,
0010
0000
1000
0000
,
0001
0000
0100
0010
,
0100
0000
0010
0000
,
0110
0000
0100
0000
,
0010
0010
0100
0000
,
0001
0000
1000
0000
,
1001
0000
0100
0100
,
0010
0000
1000
0000
,
0100
0000
1000
0000
,
0001
0000
0010
0000
,
0001
0000
0100
0000
,
1001
0000
0001
0000
,
0100
0000
0100
0010
,
0100
0000
0010
0000
,
1000
0000
0000
0000
0000
0000
0000
0000
0100
0000
0000
0010
0000
0000
0000
0000
,
0100
0000
1000
0000
,
0001
0000
1000
0001
,
1000
0000
0001
0000
,
0100
0000
0010
0100
,
0110
0000
0010
0000
,
1000
0000
0001
0100
,
0001
0000
1000
0000
,
0001
0000
0000
0000
0000
0000
0000
0000
0100
0000
0000
0010
0000
0000
0000
0000
,
0110
0000
0010
0000
,
1000
0000
0100
1000
,
0001
0000
0010
0000
,
0001
0100
0001
0100
,
0010
0000
1000
0000
,
0001
0000
1000
0010
,
1000
0000
0100
0000
,
0010
0000
0000
0000
0000
0000
0000
0000
0100
0000
0000
0010
0000
0000
0000
0000
,
0001
0000
0100
0000
,
0001
0000
1000
0010
,
1000
0000
0100
0010
,
0100
0000
0010
0001
,
0010
0000
0000
0001
,
0100
0000
0000
1000
,
0100
0000
0010
0010
,
0001
0000
0000
0000
0000
0000
0000
0000
0100
0000
0000
0010
0000
0000
0000
0000
,
1000
0000
0100
1000
,
0100
0000
1000
0010
,
1000
0000
0010
0000
,
0100
0100
0001
0100
,
0001
0000
1000
0001
,
1001
0000
1000
0010
,
1000
0000
0010
0100
,
0110
0000
0000
0000
0000
0000
0000
0000
0100
0000
0000
0010
0000
0000
0000
0000
,
1000
0010
1000
0000
,
0001
0000
0010
0010
,
0100
0000
1000
0000
,
0001
1000
0001
1000
,
0001
0000
0000
0000
,
0100
0000
0001
0001
,
0010
0000
0000
0000
,
0001
0000
1000
1000
,
0100
0000
0000
1000
,
0010
0000
0100
0100
,
0010
0000
0100
0000
,
0001
1000
0001
1001
;

//--------------- dance-single - REAL ----------------
#NOTES:
     dance-single:
     REAL:
     Medium:
     7:
     0,0,0,0,0:
0000
0000
0000
0000
,
0000
0000
0000
0000
,
0010
0000
0010
0000
,
0100
0000
0010
0000
0100
0001
1000
0000
,
1001
0000
0001
0000
1000
0000
0010
1000
,
0010
0000
1000
0000
0100
0000
1000
0001
,
1000
0000
0010
0000
0010
0000
0100
0001
,
0100
0001
1000
0110
,
1001
0000
0001
0000
0010
0000
0001
1000
,
0001
0000
1000
0000
0100
0000
1000
0010
,
1000
0000
0010
0000
0010
0000
0100
0001
,
0100
0001
1100
0101
,
1001
0000
0000
0000
0001
0000
1000
0010
,
1000
0000
1100
0000
1000
0000
0001
0100
,
0001
0010
0001
1000
,
1001
0000
0101
0000
0100
0010
0100
0000
,
0110
0000
0010
0000
1000
0100
1000
0000
,
0001
0000
0100
0000
0010
0000
1000
0010
,
1000
0000
0100
0000
1000
0100
0010
0000
,
0001
0000
0100
0000
0001
1000
0001
0000
,
1001
1000
0010
1000
,
0001
0100
0001
0101
,
0001
0001
0010
0010
,
0100
0000
0000
0000
0100
0000
0000
0000
1000
0000
0000
0010
0000
0000
0000
0000
,
0100
0001
1000
0010
,
0100
0010
0100
0101
,
0100
0001
1000
0100
,
0010
0100
0010
0001
,
0101
0001
1100
1000
,
0110
0000
0010
0000
0100
0010
0100
0000
,
1001
1000
0001
0100
,
0001
0000
0000
0000
1000
0000
0000
0000
0100
0000
0000
0010
0000
0000
0000
0000
,
0011
0001
0100
0010
,
1010
1000
0100
1000
,
1100
1000
0001
0100
,
0010
0000
0010
0000
1000
0001
1000
0000
,
1001
0000
0001
0000
0100
0010
0100
0000
,
0010
1000
0100
1000
,
0001
0000
0100
0000
0010
0100
0010
0000
,
1000
0000
0000
0000
0100
0000
0000
0000
0010
0000
0000
0100
0000
0000
0000
0000
,
1001
0000
0001
0000
0100
0010
0100
0000
,
0010
1000
0001
1001
,
0010
1000
0010
0001
,
0010
0100
0010
0000
1000
0000
0100
0000
,
1100
0000
0000
1000
0000
0000
1000
0000
,
0100
0000
0000
0010
0000
0100
0010
0000
,
0100
0000
1000
0000
0001
0100
0001
0000
,
1000
0000
0000
0000
0010
0000
0000
0000
0100
0000
0000
0010
0000
0000
0000
0000
,
0110
0000
0000
0000
0100
0000
0001
0100
,
0001
0001
1000
0010
,
1000
0100
0010
0001
,
1000
0001
0100
0110
,
0010
0000
0010
0000
1000
0000
0000
0100
,
1000
0000
0001
0101
,
0100
0000
0000
0000
0010
0000
0000
0100
,
0001
0010
0100
1000
,
1001
0000
0001
0100
,
0001
1000
0100
0010
,
0100
0000
0000
0100
1000
0000
0001
0000
,
0100
0001
0100
0010
,
1000
0000
0001
0000
0000
0001
0000
0010
,
0000
0001
0000
0000
0100
0000
0110
0000
,
0010
0000
1000
0000
0000
0100
0000
1000
,
0000
0100
0000
0000
1000
0000
1001
0000
,
0001
0000
0100
0000
0000
0010
0000
0100
,
0000
0001
0000
1000
0001
0000
1001
0000
,
1000
0000
0010
0000
0000
0100
0000
0001
,
1000
0001
1001
1001
;

//--------------- dance-single - MASTER ----------------
#NOTES:
     dance-single:
     MASTER:
     Hard:
     8:
     0,0,0,0,0:
0000
0000
0000
0000
,
0000
0000
0000
0000
,
0001
0000
1000
0000
,
0101
0000
1010
0000
1000
0001
1000
0010
,
0100
0000
0001
0010
0001
0000
1000
0100
,
1000
0000
0010
1000
0001
0000
0001
1000
,
0001
0000
0100
0001
1000
0000
0010
1000
,
0001
0000
0010
0001
1000
0000
1001
0000
,
1010
0000
0010
0100
0001
0000
0100
0001
,
0010
0000
0011
0000
0001
1000
0001
0010
,
0100
0000
1100
0000
1000
0000
0001
0010
,
0001
0000
0101
0000
1000
0100
0001
0100
,
1100
0100
1000
0000
0110
0000
0000
0001
,
0101
0000
0101
0000
1000
0010
0100
0100
,
0110
0010
1000
0000
0001
0000
1000
0010
,
1010
0000
0010
0000
0010
0100
0100
0010
,
0110
0000
1000
0000
0001
0000
0100
0001
,
0010
0001
1000
0000
0100
0000
1000
1000
,
0001
0000
0100
0010
0100
0000
0001
1000
,
0001
0000
1010
0000
0010
1000
0001
0100
,
0110
0000
0000
0010
0000
0000
0010
0000
0100
0000
0000
0001
0000
0000
0001
0000
,
0010
0000
0000
0010
0000
0000
0010
0000
0001
0000
1000
0000
0001
0000
1000
0000
,
0100
0000
0000
1000
0000
0000
1000
0000
0010
0000
0000
0100
0000
0000
0100
0000
,
0001
0000
0000
0001
0000
0000
0001
0000
0010
0000
0100
0000
0010
0000
0100
0000
,
1100
0000
0000
1000
0000
0000
1000
0000
0010
0000
0000
0100
0000
0000
0100
0000
,
0001
0000
0000
0010
0000
0000
0010
0000
0001
0000
1000
0000
1000
0000
0001
0000
,
1000
0000
0000
0100
0000
0000
0100
0000
0010
0000
0000
0001
0000
0000
0001
0000
,
1000
0000
0000
1000
0000
0000
1000
0000
0001
0000
0100
0000
0001
0000
0100
0000
,
0110
0000
0000
0000
0101
0000
0000
0000
0001
0000
0000
0001
0000
0000
0001
0000
,
1000
0000
0000
0000
1100
0000
0000
0000
1000
0000
0000
0001
0000
0000
1000
0000
,
0001
0000
0000
0000
0011
0000
0000
0000
0010
0000
0000
0010
0000
0000
0010
0000
,
0100
0000
1000
0000
0001
0100
1000
0100
,
0010
0000
0000
0000
0110
0000
0000
0000
1100
0000
0000
1000
0000
0000
0100
0000
,
1000
0000
0000
0000
1001
0000
0000
0000
0011
0000
0000
0010
0000
0000
0001
0000
,
0010
0000
0000
0000
0001
0000
0000
0000
0100
0000
0000
0001
0000
0000
0001
0000
,
0100
0000
0000
0001
0000
0000
1000
0000
0001
0000
1000
0000
0001
0000
0000
0000
,
1000
0000
0010
0000
1000
0000
0000
0000
0001
0000
0000
0001
0000
0000
0001
0000
,
0010
0000
0110
0000
0100
1000
0100
0010
,
0100
0000
0000
0000
1100
0000
0000
0000
1000
0000
0000
1000
0000
0000
1000
0000
,
0001
0000
0010
0000
0001
0000
0000
0000
0100
0000
0000
0100
0000
0000
0100
0000
,
0110
0000
0000
0000
1001
0000
0000
0000
0001
0000
0000
1000
0000
0000
0001
0000
,
1000
0100
1000
0010
0100
0001
0100
0000
,
0101
0000
0000
0000
1100
0000
0000
0000
1000
0000
0000
0010
0000
0000
1000
0000
,
0001
0010
0001
1000
0010
0100
0001
0000
,
1001
0000
1000
0001
0000
0100
0001
0000
,
1000
0000
0010
1000
0000
1000
0100
1000
,
0001
0000
0101
0000
0010
0100
0010
0010
,
0100
0000
0000
0000
1100
0000
0000
0000
1000
0000
0000
0010
0000
0000
1000
0000
,
0100
0000
0110
0000
0010
0001
0100
0001
,
1000
0000
1001
0000
1000
0100
0100
1000
,
0001
0000
0011
0000
0010
0100
1000
0001
,
1000
0000
0010
0000
0100
0001
0101
0000
,
1000
0100
1000
0100
1000
0000
0001
1000
,
1001
0000
0001
0000
0100
0010
0010
0100
,
0100
0000
0001
0000
1000
0010
1000
0001
,
0101
0000
0000
0000
1010
0000
0000
0000
0100
0000
0000
0001
0000
0000
1000
0000
,
1010
0000
0010
0100
0001
1000
0001
0001
,
1000
0000
1100
0000
0100
0010
0011
0001
,
0100
0000
0110
0000
0010
1000
0010
0100
,
0001
0000
1100
0000
1000
0000
0101
0001
,
1001
0000
1000
0000
0010
1000
0000
0010
,
0100
0001
0000
1000
0001
1000
0001
0000
,
0100
0000
0010
1000
0010
0100
0000
0001
,
1000
0001
1000
0000
0100
1000
0010
0000
,
0100
0000
0001
0000
0100
0001
0000
0010
,
0000
0001
0010
0100
0010
0000
0100
0000
,
0110
0000
0010
0001
0010
0001
0000
1000
,
0001
0101
1100
1001
;

//--------------- dance-double - DOUBLE ----------------
#NOTES:
     dance-double:
     DOUBLE:
     Easy:
     4:
     0,0,0,0,0:
00000000
00000000
00000000
00000000
,
00000000
00000000
00000000
00000000
,
00000000
00000000
00000000
00000000
,
00000000
00000000
00000000
00000000
,
00011000
00000000
01000000
00000000
,
00010000
00000000
00100000
01000000
,
00100000
00000000
00001000
00000000
,
00010000
00000100
00000010
00000001
,
00001000
00000000
00000010
00000000
,
00001000
00000000
00000100
00010000
,
00000100
00000000
00010000
00000000
,
00001000
01000000
00100000
01000000
,
10010000
00000000
10000000
00010000
,
10010000
00000000
10000000
01000000
,
00100000
00000000
00001000
00010000
,
00011000
00000000
00010000
00000010
,
00000110
00000000
00000100
00000001
,
00000100
00000000
00000010
00001000
,
00001000
00000000
00000100
00000000
,
00010000
00001000
00010000
00001000
,
01000000
00000000
00100000
00000000
,
01000000
00000000
00010000
01000000
,
10000000
00000000
01000000
00000000
,
00010000
00000000
00000000
00000000
00000000
00000000
00000000
00000000
01000000
00000000
00000000
00100000
00000000
00000000
00000000
00000000
,
10000000
00000000
01000000
00000000
,
10000000
00000000
01000000
00100000
,
00001000
00000000
00010000
00000000
,
00000100
00001000
00000010
00000100
,
00000110
00000000
00000100
00000001
,
00000100
00000000
00000001
00000100
,
00001000
00000000
00010000
00000000
,
00001000
00000000
00000000
00000000
00100000
00000000
00000000
00000000
01000000
00000000
00000000
00100000
00000000
00000000
00000000
00000000
,
00010000
00000000
10000000
01000000
,
10000000
00000000
00010000
00100000
,
00001000
00000000
00010000
00000000
,
00000100
00001000
00000001
00000100
,
00000010
00000000
00001010
00000000
,
00001000
00000100
00010000
00001000
,
00100000
00000000
00110000
00000000
,
00010000
00000000
00000000
00000000
10000000
00000000
00000000
00000000
01000000
00000000
00000000
00100000
00000000
00000000
00000000
00000000
,
01000000
00000000
10000000
01000000
,
00010000
00000000
00001000
00010000
,
00001000
00000000
00100000
00000000
,
00001000
00010000
00000100
00000000
,
00001001
00000000
00000001
00000000
,
00000100
00000000
00000010
00001000
,
00001001
00000000
00000001
00000000
,
00000010
00000000
00000000
00000000
00000001
00000000
00000000
00000000
00000100
00000000
00000000
00000010
00000000
00000000
00000000
00000000
,
00001000
00000000
00000100
00000000
,
00010000
00001000
00010000
00000000
,
00001000
00000000
00100000
00000000
,
00010000
10000000
01000000
00010000
,
00001000
00000000
01000000
00000000
,
10010000
00000000
10000000
01100000
,
00100000
00000000
01000000
00001000
,
00011000
00000000
00000000
00000000
00010000
00000000
00000000
00000000
00000100
00000000
00000000
00000010
00000000
00000000
00000000
00000000
,
00000100
00001000
00000100
00000000
,
00010000
00001000
00010000
00000000
,
00000010
00000000
00000100
00000000
,
00000001
00000100
00000001
00001000
,
00000010
00000000
00001000
00000000
,
00000100
00000000
00010000
00010000
,
00001000
00000000
00100000
00000000
,
00010000
01000000
10000000
01000000
,
00010000
00000000
10000000
00000000
,
01000000
00000000
00010000
00001000
,
00010000
00000000
00000010
00000000
,
00000100
00000010
00000100
00001001
;
