#TITLE:It's Musical Day!;
#SUBTITLE:;
#ARTIST:Artificial Movie Studios and GroovyDominoes52;
#TITLETRANSLIT:;
#SUBTITLETRANSLIT:;
#ARTISTTRANSLIT:;
#GENRE:;
#CREDIT:8Chasey 2025;
#MUSIC:It's Musical Day!.ogg;
#BANNER:It's Musical Day!-bn.png;
#BACKGROUND:It's Musical Day!-bg.png;
#CDTITLE:;
#SAMPLESTART:28.220;
#SAMPLELENGTH:12.000;
#SELECTABLE:YES;
#OFFSET:-0.323;
#BPMS:0.000=128.000;
#STOPS:;
#BGCHANGES:-0.000=Its Musical Day.avi=1.000=0=0=0=StretchNoLoop====,
192.000=It's Musical Day!-bg.png=1.000=0=0=0=StretchNoLoop====,
99999.000=-nosongbg-=1.000=0=0=0=StretchNoLoop====
;
#FGCHANGES:;

//--------------- dance-single - 8Chasey ----------------
#NOTES:
     dance-single:
     8Chasey:
     Beginner:
     1:
     0,0,0,0,0:
0000
0000
0000
0000
,
0000
0000
0000
0000
,
0000
0000
0000
0000
,
0000
0000
0000
0000
,
0001
0000
0000
0000
,
1000
0000
0000
0000
,
0010
0000
0100
0000
,
0010
0000
0100
0000
,
0001
0000
0001
0000
,
1000
0000
0000
0000
,
0001
0000
1000
0000
,
0001
0000
0000
0000
,
0010
0000
0100
0000
,
0010
0000
0000
0000
,
0100
0000
0010
0000
,
0100
0000
0000
0000
,
0001
0000
0000
0000
1000
0100
0000
0000
,
1000
0000
0001
0000
,
0010
0000
0010
0000
,
0100
0000
0100
0000
,
0001
0000
0000
0000
,
0010
0000
0000
0000
,
0100
0000
0000
0000
,
1000
0000
0000
0000
,
0001
0001
0001
0000
,
1000
1000
1000
0000
,
0010
0000
0010
0000
,
0010
0000
0000
0000
,
0000
0100
0000
0100
,
0000
0100
0000
0100
,
0000
0001
0000
1000
,
0000
1001
1001
0000
,
0001
0000
1000
0000
,
1000
0000
0000
0000
0001
0100
0000
0000
,
0010
0000
0100
0000
,
0010
0000
0100
0000
,
1000
0000
0000
0000
,
0100
0000
0000
0000
,
0010
0000
0000
0000
,
0001
0000
0000
0000
,
1000
0000
0010
0010
,
0010
0000
0010
0000
,
0001
0000
0100
0100
,
0100
0000
0100
0000
,
0010
0000
1000
1000
,
1000
0000
1000
0000
,
0100
0000
0001
0001
,
0001
0000
0001
0000
;

//--------------- dance-single - 8Chasey ----------------
#NOTES:
     dance-single:
     8Chasey:
     Easy:
     5:
     0,0,0,0,0:
0000
0000
0000
0000
,
0000
0000
0000
0000
,
0000
0000
0000
0000
,
0000
0000
0000
0000
,
0001
0000
1000
0000
,
0001
0000
0010
0000
,
0100
0010
0100
0010
,
0200
0000
0300
0000
,
1000
0000
0010
0000
,
1000
0001
1000
0000
,
0001
0000
0010
0010
0000
0010
0000
0000
,
0100
0010
0100
0100
,
1000
0010
1000
0000
,
0001
0010
0001
0000
,
1000
0001
1000
0000
,
0001
0000
0100
0000
,
0110
0000
0000
0000
0000
0000
0000
0000
0001
1000
0000
0000
0000
0000
0000
0000
,
1000
0010
0100
0000
,
0001
0010
0001
0000
,
1000
0000
0100
0000
,
1000
0001
1000
0000
,
0010
0100
0010
0000
,
0100
0000
0001
1000
,
0001
0000
0000
0000
,
0100
0000
0001
0001
,
0010
0000
1000
1000
,
0010
0000
0100
0000
,
0020
0000
0030
0000
,
1000
0100
1000
0000
,
0001
0010
0001
0000
,
0100
0000
0010
0000
,
0100
0010
0100
0000
,
1001
0000
0001
0000
,
1000
0000
0000
0000
0010
0000
0000
0000
0100
0010
0000
0000
0000
0000
0000
0000
,
0100
0001
1000
0000
,
0001
0000
1000
0000
,
0010
0010
0100
0000
,
0001
1000
0001
0000
,
1000
0001
1000
0000
,
0020
0000
0030
0000
,
0100
0000
0001
0000
,
0100
0001
1000
0000
,
0010
0000
1000
0000
,
0100
0010
0100
0000
,
1001
0000
0010
0000
,
0100
0010
0100
0000
,
1001
0000
1000
0000
,
0002
0000
0003
0000
;

//--------------- dance-single - 8Chasey ----------------
#NOTES:
     dance-single:
     8Chasey:
     Medium:
     4:
     0,0,0,0,0:
0000
0000
0000
0000
,
0000
0000
0000
0000
,
0000
0000
0000
0000
,
0000
0000
0000
0000
,
0001
0000
1001
0000
1000
0010
1000
0000
,
0100
0010
0001
0100
,
0001
0001
1000
1000
,
0020
0000
0000
0030
,
0100
0010
0100
0000
0001
0000
1000
0000
,
0100
0000
1000
0000
0010
1000
0010
0000
,
0100
0000
0001
0101
0000
1001
0000
0000
,
1000
0000
0010
0000
0100
0001
0200
0000
,
0310
0010
0100
0010
,
1000
1100
0001
0011
,
0100
0100
0010
0010
,
1000
0001
1000
0001
,
0000
0000
0000
0110
0000
0000
1001
1001
0000
0000
0000
0000
,
1000
0000
0100
0001
0000
0000
0100
0000
0000
0010
0000
0000
,
0001
0001
1000
1000
,
0010
0000
0100
0000
0001
1000
0001
0000
,
0010
0001
1000
0100
,
0010
0000
0100
0010
0000
0000
0100
0000
0000
0000
0000
0000
,
1000
0000
0000
0010
0000
0000
0100
0000
0000
0001
0100
0001
,
0200
0000
0000
0300
,
0100
0000
0001
0000
1000
0001
1000
0000
,
0010
0000
1000
0000
0001
0010
0100
0000
,
0010
0000
0001
0000
1000
0001
1000
0000
,
2002
0000
0000
3003
,
0010
0001
0100
0101
,
0001
1000
0010
1010
,
0010
1000
0100
0010
,
0001
0000
0000
0001
0000
0000
1000
0000
1000
0001
0000
0000
,
1000
1001
0110
0000
,
0001
0000
0000
0000
0000
0000
0000
0000
0100
0000
0000
0000
1000
0000
0000
0000
0000
0000
0000
0000
0000
0000
0000
0000
0100
0000
0000
0010
0000
0000
0000
0000
0000
0000
0000
0000
0100
0000
0000
0000
0000
0000
0000
0000
0000
0000
0000
0000
,
0001
0000
0010
0001
0000
0000
1000
0000
0010
0100
0000
0000
,
0010
0000
1000
0001
0000
0000
1001
0000
0000
0110
0000
0000
,
0100
0000
0000
0001
0000
0001
0100
0000
0000
0010
0000
0000
,
1000
0000
0000
0001
0000
0000
0100
0000
0000
0010
0000
0010
,
1000
0001
1000
0001
,
2002
0000
0000
3003
,
0010
0000
0000
0100
0000
0001
0100
0000
0000
0001
0000
0000
,
1000
0010
1000
0100
,
0110
0000
0000
0000
0000
0000
0010
0000
0100
1000
0000
0000
,
0001
0000
0000
0100
0000
0010
0100
0000
0000
0010
0000
0000
,
1001
0000
0000
0000
0000
0000
0001
0000
0010
0001
0000
0000
,
1000
0000
0000
0010
0000
1000
0100
0000
0000
1000
0000
0000
,
0110
0000
0000
0000
0000
0000
0100
0000
0001
1000
0000
0000
,
0002
0003
2000
3000
;

//--------------- dance-single - 8Chasey ----------------
#NOTES:
     dance-single:
     8Chasey:
     Hard:
     7:
     0,0,0,0,0:
0000
0000
0000
0000
,
0000
0000
0000
0000
,
0000
0000
0000
0000
,
0000
0000
0000
0000
,
0001
0000
0010
0001
0000
0000
1000
0001
1000
0100
1000
0000
,
0100
0000
0100
0010
0000
0010
0100
0000
0010
0100
0000
0000
,
1000
0000
0010
0100
0000
0000
0001
0100
0001
1000
0000
0000
,
0010
0000
0000
0100
0000
0000
0001
1000
0001
0100
0000
0100
,
0010
0000
0000
1000
1000
0010
0100
0001
0100
0001
0000
0000
,
1000
0100
0010
0100
0010
0001
0010
0000
0010
0001
0000
0100
,
0001
0000
0000
0000
1000
0000
0000
0000
0010
0000
0000
0000
1000
0000
0000
0001
0000
0000
1000
0000
0000
0000
0000
0000
0000
0000
0000
0001
0000
0000
0100
0000
0000
0000
0000
0000
0001
0000
0000
0000
0000
0000
0000
0000
0010
0000
0000
0000
,
0001
1000
0000
1001
0000
0000
1000
0010
1000
0100
0000
0000
,
0010
0000
0010
0001
0000
1000
0010
0000
0100
0010
0000
0000
,
0100
0000
0001
0010
0000
0001
1000
0000
1000
0100
0000
0000
,
0010
0000
0000
1001
0000
1000
0010
0000
0100
0010
0000
0010
,
0100
0001
0100
0001
0000
1000
0100
0000
0010
0000
0000
0011
,
0000
0000
0000
0000
1000
0000
0010
0000
1000
0000
0010
0000
0100
0010
0100
0010
0000
0000
0100
0000
0000
0000
0001
0000
,
0100
0000
0100
0001
0000
0000
1100
0000
0000
1000
0000
0010
,
0100
0000
0001
0010
0000
0001
1000
0000
1001
0000
0000
0001
,
0010
0000
0000
0100
0000
0100
0010
0000
0000
0110
0000
0000
,
1001
0000
1000
0010
0000
1000
0001
0000
0001
0000
0000
0010
,
0001
0000
1000
0010
0000
0000
0101
0000
0000
1100
0000
1000
,
0010
0000
0100
0010
0000
0000
0100
0001
0100
0010
0000
0000
,
2000
0001
0002
3003
,
0010
0000
0011
0000
0001
1000
0001
0000
,
1000
0000
0000
0000
0000
0000
0010
0000
1000
0000
0010
0000
1000
0000
0000
0001
0000
0000
0100
0000
0000
0000
0000
0000
,
0010
0000
0000
1001
0000
1000
0100
0000
0001
0100
0000
0000
,
0010
0000
0001
0000
0000
2000
0000
0000
0000
0000
0000
0000
0000
0000
0000
0000
0010
0000
3010
0000
0000
0000
0010
0000
,
0100
0000
0100
0001
0000
0001
1000
0100
0010
0100
0000
1000
,
0100
0000
0100
1000
0000
1000
0001
0010
0100
0010
0000
0001
,
1000
0000
0001
0010
0000
0010
0100
0000
0010
0100
0000
1000
,
0001
0000
0100
0010
0000
1000
0001
0000
0000
0010
0000
0110
,
0000
0000
1000
0010
1000
0010
0200
0000
0000
0301
0000
0010
,
0001
0000
0000
0000
1000
0000
0001
0000
0000
0000
0000
0000
0100
0001
0010
0001
0000
0000
0010
0000
0000
0000
0000
0000
,
0001
0000
1000
0010
0000
1000
0100
0000
0100
0000
0000
1000
,
0010
0000
0000
0110
0000
0100
0001
0000
0000
1001
0000
0000
,
1100
0000
0000
1000
0000
0100
1000
0000
0000
0010
0000
0010
,
0000
0000
0100
0000
0000
0001
0000
0000
1000
0001
0000
0010
,
0001
0000
0000
1000
0000
0000
0100
0000
0010
0002
0000
2000
,
0000
0000
0000
3003
,
1100
0000
0000
0010
0000
0001
0010
0000
0001
1000
0000
0100
,
1000
0000
0000
0110
0000
0000
0011
0000
0000
1001
0000
0100
,
0002
0000
0000
1003
0000
0010
1000
0000
0001
0100
0000
0001
,
0010
0000
0000
0110
0000
0000
1100
0000
1000
0001
1000
0001
,
0020
0000
0000
0130
0000
1000
0100
0000
0100
1000
0000
0001
,
0100
0000
0000
0110
0000
0000
1001
0000
0000
1000
0000
0001
,
2000
0000
0000
3010
0000
0100
0001
0000
0100
0010
0000
1000
,
0001
0000
0000
1010
0000
0100
0001
0000
0000
1001
0000
0000
;

//--------------- dance-single - 8Chasey ----------------
#NOTES:
     dance-single:
     8Chasey:
     Challenge:
     8:
     0,0,0,0,0:
0000
0000
0000
0000
,
0000
0000
0000
0000
,
0000
0000
0000
0000
,
0000
0000
0000
0000
,
0010
0000
1000
0001
0000
0000
0100
0000
0001
1000
0000
0100
,
0010
0010
0011
1010
,
0100
0000
0010
1000
0000
0000
0001
0000
0100
0001
0000
0000
,
0010
0000
0000
0100
0000
1000
0001
0000
0100
0001
0000
0000
,
1000
0100
1000
0100
0000
0100
0010
0001
1000
0100
0000
1000
,
0001
0000
0100
0000
0001
0000
0100
0000
0000
0000
0010
0000
1000
0000
0001
0000
0010
0000
0100
0000
0000
0110
0000
0000
,
0010
0000
0100
0100
0001
1000
0100
0010
,
0010
0000
0000
0001
0000
0000
1000
0000
0001
0000
1000
0000
0100
0000
1000
0000
0100
0000
0010
0000
0001
0000
1000
0000
,
0100
0000
1000
1100
0000
0000
0010
0000
0001
0011
0000
0000
,
0001
0000
0100
1001
0000
0000
1000
0000
0010
0110
0000
0000
,
1000
0100
0000
0001
1000
0000
0100
0010
0000
0001
1000
0000
,
0010
0100
0001
0010
0100
1000
0100
1000
0010
0100
0001
0010
,
0100
0000
1000
0020
0000
0000
0130
0000
0001
2000
0000
0000
,
3001
0010
0001
0010
0000
0100
1000
0010
1000
0010
0000
0000
,
0001
0001
0001
0001
0000
0000
1000
1000
1000
1000
0000
0000
,
0001
0000
1000
0000
0001
0000
1001
0000
0000
0010
0000
1000
,
0001
0000
0000
0100
0000
0001
1000
0000
0000
0001
0000
0001
,
2000
0000
0000
3100
0000
0010
0002
0000
0000
0103
0000
0000
,
0010
0000
0000
0100
0001
0010
0001
0100
0001
0100
0000
0010
,
2000
0000
0000
3002
0000
0000
1003
0100
1000
0001
0100
0001
,
0100
0000
0100
0000
0002
0003
0000
0000
1000
0000
0010
0000
2000
3000
0000
0000
,
0110
0000
0000
0000
1001
0000
0000
0000
1000
0000
0001
0000
0200
0300
0000
0000
,
0100
0000
0001
0000
0100
0000
0001
0000
0000
0000
0010
0000
0100
0000
1000
0000
0100
0000
1000
0000
0000
0010
0000
0000
,
0100
0010
0100
0001
0000
1000
0010
0100
0010
0100
0000
0000
,
0201
0000
0000
0310
0000
1000
0001
1000
0001
0100
0000
0000
,
1200
0000
0000
0310
0000
0001
1000
0001
1000
0100
0000
0000
,
1100
0000
0010
0001
0000
1000
0010
0000
0100
0010
0000
0000
,
0010
1000
0100
0010
0000
0000
0010
0001
0100
0010
0000
0000
,
1001
0000
0010
1000
0000
0200
1000
0000
0000
1300
0000
0000
,
0001
0000
1000
0001
0000
1000
0100
0000
0000
0010
0000
0000
,
0002
0000
0000
1003
0000
0100
1000
0000
0010
0100
0000
0000
,
0001
0000
0010
0001
0000
0010
0200
0000
0000
1300
0000
0000
,
1000
0010
0000
1000
0001
0010
0001
0100
0010
2000
0000
3001
,
0100
0000
0001
1000
0000
0010
0100
0000
0000
1001
0000
0000
,
0010
0001
0010
0100
1000
0100
0010
0000
0001
1000
0000
2002
,
0000
0000
0000
3003
,
1000
0000
0010
0100
0000
0001
0010
0000
0001
0100
0000
1000
,
0100
0000
0010
1000
0000
0001
1000
0000
0001
1000
0000
0000
,
0100
0000
0010
0001
0000
1000
0010
0000
0100
0001
0000
0000
,
1000
0000
0100
0010
0000
0000
0100
0000
1000
0010
0000
0000
,
1010
0000
0000
1010
0000
1000
0100
0000
0100
0010
0000
0010
,
0001
1000
0010
0100
0000
0100
0010
0000
0000
1010
0000
0000
,
0100
0000
1000
0010
0000
0110
0000
0000
0001
0010
0000
0001
,
1000
0000
0001
0100
0000
0001
0220
0000
0000
0330
0000
0000
;
