#TITLE:It's Gonna Be Alright;
#SUBTITLE:;
#ARTIST:bill wurtz;
#TITLETRANSLIT:;
#SUBTITLETRANSLIT:;
#ARTISTTRANSLIT:;
#GENRE:;
#CREDIT:8Chasey 2025;
#MUSIC:It's Gonna Be Alright.ogg;
#BANNER:;
#BACKGROUND:It's Gonna Be Alright-bg.png;
#CDTITLE:;
#SAMPLESTART:92.020;
#SAMPLELENGTH:12.000;
#SELECTABLE:YES;
#OFFSET:-1.230;
#BPMS:0.000=150.000;
#STOPS:;
#BGCHANGES:;
#FGCHANGES:;

//--------------- dance-single - 8Chasey ----------------
#NOTES:
     dance-single:
     8Chasey:
     Beginner:
     1:
     0,0,0,0,0:
0000
0000
0000
0000
,
0000
0000
0000
0000
,
0000
0000
0000
0000
,
0000
0000
0000
0000
,
0000
0000
0000
0000
,
0000
0000
0000
0000
,
0000
0000
0000
0000
,
0000
0000
0001
0000
,
0000
0000
0001
0000
,
0000
0000
1000
0000
,
0000
0000
1000
0000
,
0000
0000
0001
0001
,
0000
0000
0000
0000
,
0000
1000
1000
0000
,
0000
0000
0000
0000
,
0000
0000
1000
0000
,
0000
0000
1000
0000
,
0000
0000
0001
0000
,
0000
0000
0001
0000
,
0000
0000
1000
1000
,
0000
0000
0000
0000
,
0000
0001
0001
0000
,
0000
0000
0000
0000
,
0000
0000
1000
0000
,
0000
0000
1000
0000
,
0000
0000
1000
0000
,
0000
0000
0000
0000
,
0000
0000
0001
0000
,
0000
0000
0001
0000
,
0000
0000
0001
0000
,
0000
0000
0000
0000
,
0000
0000
0010
0000
,
0000
0000
0100
0000
,
0000
0000
0010
0000
,
0010
0000
0010
0000
,
0000
0000
0100
0000
,
0100
0000
0100
0000
,
0000
0000
0000
0000
,
0000
0000
0000
0000
,
0000
0000
0000
0000
,
1000
0000
0000
0000
,
1000
0000
1000
0000
,
0001
0000
0000
0000
,
0001
0000
0001
0000
,
1000
0000
0000
0000
,
0001
0000
0000
0000
,
1001
0000
0000
0000
,
0000
0000
0000
0000
,
0001
0000
0000
0000
,
0001
0000
0001
0000
,
1000
0000
0000
0000
,
1000
0000
1000
0000
,
0001
0000
0000
0000
,
1000
0000
0000
0000
,
1001
0000
0000
0000
,
0000
0000
0000
0000
,
0001
0000
0000
0000
,
1000
0000
1000
0000
,
0001
0000
0000
0000
,
0000
0000
0000
0000
,
1000
0000
0000
0000
,
0001
0000
0001
0000
,
1000
0000
0000
0000
,
0000
0000
0000
0000
,
1000
0000
0000
0000
,
0001
0000
0000
0000
,
1000
0000
1000
0000
,
1000
0000
0000
0000
,
0001
0000
0001
0000
,
0001
0000
0000
0000
,
0000
0000
0000
0000
,
0000
0000
0000
1000
,
0000
0000
0000
0000
,
0000
0000
0000
0001
,
0000
0000
0000
0000
,
0000
0000
0000
0100
,
0000
0000
0000
0000
,
0000
0000
0000
0010
,
0000
0000
0000
0000
,
0001
0000
0000
0000
,
1000
0000
0000
0000
,
0001
0000
0001
0000
,
0001
0000
0000
0000
,
1000
0000
0000
0000
,
0001
0000
0000
0000
,
1000
0000
1000
0000
,
1000
0000
0000
0000
,
0010
0000
0000
0000
,
0010
0000
0000
0100
,
0000
0000
0000
0100
,
0000
0000
0000
0010
,
0000
0000
0000
0010
,
0000
0000
0000
0110
,
0000
0000
0000
0000
,
0000
0000
0000
0000
,
1000
0000
0000
0000
,
1000
0000
0000
0000
,
1000
0000
0000
0000
,
0000
0000
0000
0000
,
0001
0000
0000
0000
,
0001
0000
0000
0000
,
0001
0000
0000
0000
,
1001
0000
0000
0000
,
0001
0000
0000
0000
,
1000
0000
0000
0000
,
0001
0000
0001
0000
,
0001
0000
0000
0000
,
1000
0000
1000
0000
,
1000
0000
0000
0000
,
0001
0000
0000
0000
,
0100
0000
0000
0000
,
0100
0000
0000
0000
,
0010
0000
0000
0000
,
1000
0000
0000
0000
,
0010
0000
0000
0000
,
0010
0000
0000
0000
,
0100
0000
0000
0000
,
0100
0000
0000
0000
,
0010
0000
0000
0000
,
0100
0000
0100
0000
,
0100
0000
0000
0000
,
0010
0000
0010
0000
,
0010
0000
0000
0000
,
0000
0000
0000
0100
,
0000
0000
0000
0000
,
0000
0000
0000
0010
,
0000
0000
0000
0000
,
0000
0000
0000
1000
,
0000
0000
0000
0000
,
0000
0000
0000
1001
;

//--------------- dance-single - 8Chasey ----------------
#NOTES:
     dance-single:
     8Chasey:
     Easy:
     3:
     0,0,0,0,0:
0000
0000
0000
0000
,
0000
0000
0000
0000
,
0000
0000
0000
0000
,
0000
0000
0000
0000
,
0000
0000
0000
0000
,
0001
0000
1000
0000
,
0100
0000
0010
0100
,
0010
0000
0001
0000
,
0100
0000
0001
0000
,
0001
0000
1000
0000
,
0100
0000
1000
0000
,
1000
0000
0010
0000
,
0100
0000
0001
0000
,
1000
0000
1000
0000
,
0001
0000
0001
0000
,
1001
0000
1000
0000
,
0010
0000
0100
0000
,
0100
0000
0001
0000
,
0100
0000
0010
0000
,
0010
0000
1000
0000
,
1000
0000
0001
0000
,
0100
0010
0100
0000
,
0001
0000
1000
0000
,
0001
0000
1001
0000
,
0000
0001
1000
0000
,
1000
0000
0001
0000
,
0100
0000
0010
0000
,
1000
0000
0010
0000
,
0000
1000
0001
0000
,
0001
0000
1000
0000
,
0010
0000
0100
0000
,
0001
0000
0100
0000
,
0001
0010
0001
0000
,
1000
0000
0010
0000
,
0100
0000
0100
0000
,
0010
0000
1000
0001
,
1000
0001
1001
0000
,
0000
0000
0000
0000
,
0000
0000
0000
0000
,
0000
0000
0101
0000
,
1100
0000
1000
0000
,
0010
0000
0010
0000
,
1000
0000
0001
0000
,
0010
0000
0010
0000
,
0001
0000
0100
0000
,
0010
0100
0010
0000
,
0100
0000
0000
0000
,
0010
0000
0100
0000
,
0001
0000
0010
0000
,
0001
0000
0001
0000
,
1000
0000
0100
0000
,
1000
0000
1000
0000
,
0010
0000
0010
0000
,
0100
0000
0100
0000
,
0001
0000
1000
0000
,
0100
0010
0100
0000
,
0110
0000
0000
0010
,
0100
0000
0100
0000
,
1000
0000
0001
0000
,
1000
0000
0100
0000
,
0010
0000
0000
0100
,
0010
0000
0010
0000
,
0001
0000
1000
0000
,
0010
0000
0100
0000
,
0001
1000
0001
0000
,
1000
0000
0001
0000
,
0100
0000
0010
0000
,
0010
0000
0100
0000
,
0001
1000
0001
1000
,
1001
0000
0000
0000
,
0000
0000
0000
0000
,
0110
0000
0000
1001
,
0000
0000
0001
0000
,
1000
0000
0000
0001
,
0000
0000
0100
0000
,
0110
0000
0000
1001
,
0000
0000
1000
0000
,
0001
0000
0000
1000
,
0000
0010
0100
0000
,
0110
0000
0010
0000
,
0100
0001
0100
0000
,
0010
0000
1000
0000
,
0100
1000
0100
0000
,
1000
0000
1000
0000
,
0001
0000
0001
0000
,
1001
0000
0000
0000
,
1000
0000
0001
0000
,
0010
0000
0100
0000
,
0100
0000
0010
0010
,
0000
0000
0001
0000
,
1000
0000
0000
0100
,
0000
0000
0000
0100
,
0000
0100
0000
0010
,
0000
0000
0000
0000
,
0000
0000
0000
0000
,
0001
0000
0000
0000
,
0100
0000
0001
0100
,
0001
0000
0000
0000
,
1000
0000
0010
0000
,
1000
0000
0000
0000
,
0100
0000
1000
0100
,
1000
0000
0000
0000
,
1001
0000
0000
0000
,
0001
0000
0010
0000
,
0001
0000
1000
0000
,
0100
0000
1000
0000
,
0010
0000
0000
0000
,
0100
0000
0100
0000
,
0010
0010
0100
0000
,
0010
0000
0000
1000
,
0010
0000
0010
0000
,
1000
0000
0100
0100
,
0000
0100
0100
0000
,
0010
0000
0000
0001
,
0010
0000
0010
0000
,
0001
0000
1000
1000
,
0000
0001
0001
0000
,
1001
0000
1000
0100
,
1000
0000
0001
0100
,
0001
0000
1000
0000
,
0001
0000
0010
0000
,
0100
0010
0100
0010
,
0110
0000
0000
0000
,
0001
0000
0000
1001
,
0000
0000
0000
0000
,
1000
0000
0000
1001
,
0000
0000
0000
0000
,
0010
0000
0000
0110
,
0000
0000
0000
0000
,
0100
0000
0000
0110
;

//--------------- dance-single - 8Chasey ----------------
#NOTES:
     dance-single:
     8Chasey:
     Medium:
     6:
     0,0,0,0,0:
0000
0000
0000
0000
,
0000
0000
0000
0000
,
0000
0000
0000
0000
,
0000
0000
0000
0000
,
0000
0000
0000
0000
0010
0100
0000
0000
,
0000
0000
0000
0000
0001
0000
0000
1000
,
0000
0000
0100
1000
0000
0001
0000
0001
,
0100
0001
0010
0000
,
0100
0000
1000
0100
0000
0000
1000
0000
,
0001
0000
0010
0001
,
1000
0000
0001
0100
0000
0000
0001
0000
,
1000
0000
0010
0100
,
0010
0000
0000
0000
0100
0000
0001
0100
,
0001
0000
0010
0100
,
0010
0000
0000
0000
0100
0000
1000
0100
,
1000
0000
0010
0000
,
1000
0000
0000
0000
0001
0000
0100
0001
,
0000
0000
0010
0001
,
0001
0000
0000
0000
1000
0100
0000
1000
,
0000
0000
0000
0000
0010
0100
0010
0000
,
1000
0000
0100
0010
,
0001
0000
0100
0001
0100
0000
0000
0000
,
0001
0000
0000
0000
1000
0100
1000
0000
,
0001
0000
1001
0000
,
1000
0000
0000
0000
0010
1000
0000
1000
,
0000
1000
0000
1000
0000
0000
0000
0000
,
1100
0000
0000
0000
1000
0010
1000
0000
,
0001
0000
0010
0001
,
1000
0000
0001
0000
0010
0001
0000
0001
,
0000
0001
0000
0001
0000
0000
0000
0000
,
0101
0000
0000
0000
0100
0010
0100
0000
,
0001
1000
0001
0000
1000
0000
0100
0000
,
0010
0001
0100
0001
,
1000
0100
0010
0000
,
0110
0000
0100
0000
,
1000
0100
1000
0000
0001
0000
0000
0100
,
0000
0001
0100
0000
0110
0000
0000
0000
,
0000
0000
0000
0000
,
0000
0000
0000
0000
,
0010
0100
0010
0000
1000
0100
1000
0000
,
0001
0000
0100
0000
0001
0000
0000
0010
,
0000
0001
0010
0000
0001
0000
0000
0000
,
1000
0000
0100
0000
1000
0000
0000
0010
,
0000
1000
0010
0000
1000
0000
0000
0000
,
1001
0000
0001
0000
,
0010
0001
0000
0010
0001
0000
0000
0100
,
0000
0010
1000
0000
,
0100
1000
0100
0000
1000
0000
0010
0000
,
0110
0000
0000
0000
0100
0000
0000
0001
,
0000
0100
0001
0000
0010
0000
0000
0000
,
0100
0000
0010
0000
0100
0000
0000
1000
,
0000
0100
1000
0000
0010
0000
1000
0000
,
1001
0000
1000
0000
,
0010
1000
0000
0010
1000
0000
0000
0100
,
0000
0010
0001
0000
,
0100
0001
0100
0000
0001
0000
1000
0000
,
1001
0000
0001
0010
,
0001
0100
0000
0100
0000
0100
0000
0100
,
0000
0000
0110
0000
,
0010
1000
0010
0000
1000
0000
0100
0000
,
1000
0000
0000
1000
0001
0000
0010
0000
,
0100
0010
0000
0010
0000
0010
0000
0010
,
0000
0000
0110
0000
,
0100
0000
0100
0000
1000
0001
1000
0000
,
0001
0010
0010
0001
,
0100
0010
0000
0100
0000
0010
0100
0000
,
0001
0000
1001
0000
,
1000
0000
0000
0000
0100
1000
0000
0000
,
0001
0000
0000
0010
0001
0000
1000
0000
,
0010
0000
0010
0000
,
0010
0000
1001
0000
,
0101
0000
0000
0001
0010
0000
0001
0000
,
0000
0000
0100
0000
0010
0000
0000
1000
,
0010
0000
0000
1000
0000
0000
1100
0000
,
0100
0010
0001
1000
,
1010
0000
0000
0010
0100
0000
0010
0000
,
1000
0000
0100
0000
1000
0000
0001
0010
,
0001
0000
0000
0011
0000
0000
0010
0000
,
0100
0000
1000
0100
1000
0000
0001
0000
,
0100
0000
0000
0000
0101
0000
0000
0001
,
1000
0001
1000
0010
,
1000
0100
1000
0000
0001
0000
1000
0000
,
0001
0010
0001
0000
1000
0000
0001
0000
,
0010
0000
0000
0010
0100
0000
0010
0000
,
0000
0100
1000
0001
,
1001
0000
0000
0001
0000
1000
0001
0000
,
0010
0001
0100
1000
,
0100
0000
0000
0000
0010
0000
0000
1000
,
0010
1000
0100
0110
,
0000
0010
0001
0000
0010
0000
0001
0000
,
0100
0000
0001
1000
,
0000
0000
1000
0001
,
0100
0010
0000
1001
,
0000
0000
0000
0000
,
0000
0000
0000
0000
,
0001
0000
0000
0100
,
0001
0010
0000
0010
0000
0010
0000
0010
,
0000
0000
0001
0000
,
0100
0000
0100
0000
0001
1000
0000
0001
,
1000
0000
0000
0010
,
1000
0100
0000
0100
0000
0100
0000
0100
,
0000
0000
1000
0000
0001
0000
0000
1000
,
0001
0100
0010
0100
,
0110
0000
0010
1000
,
0100
0010
0001
0100
,
0010
0000
0110
0000
,
0100
0000
0000
0000
0001
0100
0000
0000
,
0001
0010
0001
1000
,
0100
1000
0100
0000
1000
0000
0001
0000
,
0101
0000
0100
0010
,
1000
0001
0000
0001
0000
1000
0000
1000
,
0000
0000
0000
0000
0001
0100
0001
0000
,
1001
0000
1000
0100
,
1100
0000
0100
1000
,
0001
0100
0000
0100
0000
0010
0000
0010
,
0000
1000
0100
1000
,
0001
1000
0000
0001
1000
0000
0001
0000
,
0010
1000
0100
0010
,
1001
0000
0000
0001
0100
0000
0001
0000
,
1001
0000
1010
0000
,
0011
0000
0001
0000
0100
0001
0100
0000
,
0001
0000
0010
0001
,
1001
0000
1000
0000
,
0010
1000
0000
0010
1000
0000
0010
0000
,
1000
0100
1000
0001
,
0010
0001
0000
0010
0001
0000
0100
0000
,
0000
0010
0110
0000
,
0100
0001
0000
0100
0001
0000
0010
0000
,
0100
1000
0000
0100
1000
0000
0010
0000
,
0100
0000
0000
0110
0000
0000
2002
0000
,
0000
0000
0000
0000
,
0000
0000
0000
3003
;

//--------------- dance-single - 8Chasey ----------------
#NOTES:
     dance-single:
     8Chasey:
     Hard:
     8:
     0,0,0,0,0:
0000
0000
0000
0000
,
0000
0000
0000
0000
,
0000
0000
0000
0000
,
0000
0000
0000
0000
,
0001
0000
1000
0000
0100
1000
0100
0000
,
1000
0010
1000
0000
0101
0000
0001
0010
,
0000
0100
1000
0100
0000
1100
0000
1000
,
0001
0000
1001
0000
1000
0000
0100
1000
,
0100
0000
0010
0001
0010
0000
0001
0100
,
0001
1000
0100
0000
1000
0010
1000
0000
,
0101
0000
0001
0010
0001
0000
1000
0100
,
1000
0000
0000
0000
0010
0000
0100
0000
0000
0001
0000
0000
0100
0000
0000
0000
,
0010
0000
1000
0100
0010
0000
0100
0000
,
0110
0000
0010
0000
0001
0100
0000
0000
,
0010
0000
1000
0010
0000
1000
0100
0000
,
0110
0000
0010
0001
0010
0000
0001
0100
,
0001
0000
1000
0000
0010
1000
0100
0000
,
1100
0000
1000
0001
0100
0001
0010
0000
,
0001
0000
0100
0010
1000
0000
1000
0100
,
0000
0000
0000
0000
0010
0000
0100
0000
0000
1000
0000
0000
0100
0000
0000
0000
,
1000
0000
0001
0100
0001
0000
0011
0000
,
0010
0000
0000
0000
0000
0000
0001
0000
0100
0000
0001
0000
0100
0000
0000
0000
0000
0000
0010
0000
0000
1000
0000
0000
,
0010
0000
0100
0001
0000
1000
0001
0000
,
1000
1000
0010
0000
0220
0000
0330
0100
,
0001
0000
0010
0000
0001
0100
0000
0100
,
0000
0010
0000
0010
0000
0000
1000
0000
,
0001
0010
0100
0010
0000
0100
1000
0000
,
0010
1000
0010
0000
0100
0000
0000
0001
,
0100
0000
0010
0000
1000
0010
0000
0010
,
0000
0100
0000
0100
0000
0000
0001
0010
,
0000
0000
0001
0100
0000
0001
1000
0100
,
0000
1000
0001
0000
1001
0000
1000
0010
,
1000
0000
0001
0000
0100
0001
0000
1000
,
0000
1000
0001
0000
0100
0010
0000
0000
,
2010
0000
0000
0000
3001
0000
0100
0001
,
0010
0001
0100
0000
0110
0000
0010
1000
,
0100
1000
0001
0000
0010
0001
0000
2000
,
0000
0100
0000
0002
0000
0000
0000
0000
,
0000
0000
0000
0000
3003
0000
0001
0100
,
0100
0001
1000
0100
0110
0010
0001
0000
,
1000
0001
0000
0100
0000
0001
0000
0010
,
0000
0010
0001
0000
0101
0000
0100
0010
,
1000
0010
0000
1000
0100
1000
0000
0001
,
0100
0010
1000
0000
1100
0000
1000
0000
,
0001
0100
0001
0000
0011
0000
0001
0000
,
0100
0001
0000
0100
0010
1000
0000
1010
,
0000
1000
0100
0000
0010
0010
0000
0001
,
0100
0001
1000
0100
0010
0000
0100
0000
,
0001
0100
0000
1000
0000
0010
0000
0100
,
0000
0001
0010
0000
0110
0000
0100
0000
,
1000
0010
0000
1000
0001
0100
0000
0001
,
0000
0010
0001
0000
0101
0000
0100
0010
,
0000
0100
0010
1000
0100
0000
0010
0100
,
0000
1000
0001
0000
0010
0001
0000
0011
,
0000
0001
0100
0010
0100
0000
0010
1000
,
0100
1000
0001
0100
0110
0000
0010
0000
,
2002
0000
3003
1000
0010
0000
0010
0000
,
0100
0001
0000
0001
0000
1000
0000
1000
,
0000
0000
0000
0000
0000
0000
0010
0000
0000
0100
0000
0000
0010
0000
0000
0000
0000
0000
0100
0000
0001
0000
0100
0000
,
0001
0000
0010
0001
1000
0010
1000
0000
,
2002
0000
3003
0001
0100
0000
0010
0100
,
0010
1000
0000
1000
0000
0001
0000
0001
,
0000
0000
0100
0001
0010
0001
1000
0000
,
0010
0000
1000
0010
0100
0001
0100
0000
,
0110
0000
0010
1000
0010
0000
1000
0000
,
0100
1000
0000
0001
0000
0100
0010
0000
,
1000
0000
0201
0000
,
0310
0000
1000
0100
1000
0001
0010
0000
,
0001
0000
0000
0100
0001
0000
1000
0000
,
0010
0100
0000
0002
0000
0010
0000
2000
,
0000
0000
0000
0000
0000
0000
0000
0000
0000
3003
0000
0000
1000
0000
0000
0000
0100
0000
1000
0000
0100
0000
0010
0000
,
0001
0000
0100
0001
0100
0000
1010
0000
,
1000
0100
0100
1000
0001
0010
0001
0000
,
0100
0001
1000
1010
0000
0000
0011
0000
,
0000
0010
0001
0100
0001
0000
1000
0000
,
1100
0000
1000
0010
0100
0000
0101
0000
,
0001
0010
0001
0100
0000
0001
1000
0000
,
0010
1000
0100
1100
0000
0000
0101
0000
,
0001
0010
0001
1000
0010
1000
0001
0000
,
1002
0000
1000
0000
0103
0001
0000
0010
,
0001
2000
0100
3010
,
0100
0010
0000
0100
0001
0010
0100
0000
,
1000
0100
1000
0000
0001
0010
0001
0000
,
0101
0000
0100
0010
1000
0000
0010
0000
,
1000
0100
1000
0000
0001
0010
0100
0000
,
0110
0000
0000
1001
0000
0001
0100
0001
,
0000
0000
0000
1000
0000
0000
0010
0000
0000
1000
0000
0000
0100
0000
0010
0000
0100
0000
1000
0000
0001
0000
1000
0000
,
0020
0000
0000
0000
0130
0000
0001
0100
,
0001
0010
0001
0000
1000
0000
1100
0000
,
1000
0100
1000
0001
0010
0000
0001
0000
,
0100
0001
0000
0001
1000
0000
1001
0000
,
0001
0000
0010
0001
0010
0000
0100
0000
,
1000
0000
0001
0100
0001
0000
2002
0000
,
0000
0000
0000
0000
,
3003
0000
0001
0010
0001
0200
0000
0000
,
0320
1000
0000
0100
,
0130
0001
0000
1000
0100
1000
0000
0010
,
0200
0000
0000
0000
0301
0000
0100
0001
,
0000
0010
0001
0000
1000
0001
1000
0000
,
0002
0010
0000
0010
,
0013
0001
0000
1000
0010
1000
0000
0010
,
0100
0000
0110
0000
0010
0000
1000
1001
,
0000
0001
0100
0010
0100
0001
1000
0000
,
1001
0000
0001
0010
0001
0000
0100
0000
,
0010
1000
0000
0100
1000
0001
0100
0000
,
0110
0000
2010
0000
,
3001
0000
0100
0001
0010
0001
1000
0000
,
1010
0000
0010
0100
0001
0000
0010
0000
,
0001
0010
0001
0000
1000
1000
0010
0000
,
0110
0000
1001
0000
0001
0100
1000
0000
,
0100
0001
0000
0100
0000
0010
0000
1000
,
0100
0000
0000
1000
0000
0000
0010
0100
0010
0100
0000
0000
,
0001
0010
0001
0000
0100
0010
0000
0010
,
0100
0000
0001
0010
0001
0000
1000
0000
,
0001
1000
0000
0100
0000
0010
0000
0001
,
0100
0000
0010
1000
0010
0100
0001
0000
,
0010
0001
0010
0000
1100
0000
1000
0000
,
0101
0000
0001
0010
0001
0000
1000
0000
,
0010
1000
0000
0100
0000
0001
0100
0000
,
0010
0001
0000
0000
0201
0000
0000
0300
,
1000
0100
0001
0000
0010
0001
0010
0000
,
0100
0000
1000
0100
0000
1000
0001
0000
,
0011
0000
0000
1000
0010
1000
0100
0000
,
1000
0010
1000
0001
0010
0001
0100
0000
,
0000
0101
0000
1000
0010
0000
1000
0100
,
1000
0001
0010
0001
0000
0100
0110
0000
,
0010
1000
0010
0000
0101
0000
0001
0000
,
1000
0010
0100
0001
0010
0100
1000
0000
,
0000
0011
0000
0001
0100
0001
1000
0000
,
0010
1000
0100
0010
0000
0000
2002
0000
,
0000
0000
0000
0000
,
0000
0000
0000
0000
,
0000
3003
0000
0000
;

//--------------- dance-solo - 8Chasey - 2026 chart ----------------
#NOTES:
     dance-solo:
     8Chasey - 2026 chart:
     Beginner:
     1:
     0,0,0,0,0:
000000
000000
000000
000000
,
000000
000000
000000
000000
,
000000
000000
000000
000000
,
000000
000000
000000
000000
,
000000
000000
000000
000000
,
000000
000000
000000
000000
,
000000
000000
000000
000000
,
000000
000000
000010
000000
,
010000
000000
000001
000000
,
000000
000000
010000
000000
,
000010
000000
100000
000000
,
000000
000000
000001
000001
,
000000
000000
000000
000000
,
000000
100000
100000
000000
,
000000
000000
000000
000000
,
000000
000000
100000
000000
,
000001
000000
010000
000000
,
000000
000000
000001
000000
,
100000
000000
000010
000000
,
000000
000000
000100
000100
,
000000
000000
000000
000000
,
000000
001000
001000
000000
,
000000
000000
000000
000000
,
000000
000000
100001
000000
,
000000
000000
100000
000000
,
100000
000000
100000
000000
,
000000
000000
000100
000000
,
000000
000000
010000
000000
,
000000
000000
000001
000000
,
000001
000000
000001
000000
,
000000
000000
000100
000000
,
000000
000000
000010
000000
,
000000
000000
001000
000000
,
000000
000000
000100
000000
,
000100
000000
000100
000000
,
000000
000000
001000
000000
,
001000
000000
001000
000000
,
000000
000000
000000
000000
,
000000
000000
000000
000000
,
000000
000000
000000
000000
,
010000
000000
000000
000000
,
000010
000000
010000
000000
,
000010
000000
000000
000000
,
010000
000000
000010
000000
,
100000
000000
000000
000000
,
000001
000000
000000
000000
,
100001
000000
000000
000000
,
000000
000000
000000
000000
,
000010
000000
000000
000000
,
010000
000000
000010
000000
,
010000
000000
000000
000000
,
000010
000000
010000
000000
,
000001
000000
000000
000000
,
100000
000000
000000
000000
,
100001
000000
000000
000000
,
000000
000000
000000
000000
,
100001
000000
000000
000000
,
100000
000000
000001
000000
,
100000
000000
000000
000000
,
000100
000000
001000
000000
,
000001
000000
000000
000000
,
000001
000000
100000
000000
,
000001
000000
000000
000000
,
000100
000000
001000
000000
,
100000
000000
000000
000000
,
000001
000000
000000
000000
,
010000
000000
010000
000000
,
010000
000000
000000
000000
,
000010
000000
000010
000000
,
000010
000000
000000
000000
,
000000
000000
000000
000000
,
000010
000000
000000
000010
,
000000
000000
000000
000000
,
000000
000000
000000
010010
,
000000
000000
000000
000000
,
010000
000000
000000
010000
,
000000
000000
000000
000000
,
000000
000000
000000
100001
,
000000
000000
000000
000000
,
000001
000000
000000
000000
,
100000
000000
000000
000000
,
000001
000000
000001
000000
,
000001
000000
000000
000000
,
100000
000000
000000
000000
,
000001
000000
000000
000000
,
100000
000000
100000
000000
,
100000
000000
000000
000000
,
000010
000000
000000
000000
,
010000
000000
000000
000001
,
000000
000000
000000
100000
,
000000
000000
000000
000100
,
000000
000000
000000
001000
,
000000
000000
000000
001100
,
000000
000000
000000
000000
,
000000
000000
000000
000000
,
000001
000000
000000
000000
,
100000
000000
000000
000000
,
000001
000000
000000
000000
,
000001
000000
000000
000000
,
100000
000000
000000
000000
,
000001
000000
000000
000000
,
100000
000000
000000
000000
,
100001
000000
000000
000000
,
000001
000000
000000
000000
,
010000
000000
000000
000000
,
000010
000000
000010
000000
,
000010
000000
000000
000000
,
001000
000000
000000
000000
,
000100
000000
000000
000000
,
100000
000000
000000
000000
,
000100
000000
000000
000000
,
000100
000000
000000
000000
,
100000
000000
000000
000000
,
000001
000000
000000
000000
,
000100
000000
000000
000000
,
000100
000000
000000
000000
,
000001
000000
000000
000000
,
100000
000000
000000
000000
,
000010
000000
000000
000000
,
010000
000000
010000
000000
,
010000
000000
000000
000000
,
001000
000000
000000
000000
,
000100
000000
000000
000000
,
001000
000000
000000
001000
,
000000
000000
000000
000000
,
000000
000000
000000
001100
,
000000
000000
000000
000000
,
000100
000000
000000
000100
,
000000
000000
000000
000000
,
000000
000000
000000
100001
;
