#TITLE:Infernal Galop (Can-Can);
#SUBTITLE:;
#ARTIST:The Just Dance Orchestra;
#TITLETRANSLIT:;
#SUBTITLETRANSLIT:;
#ARTISTTRANSLIT:;
#GENRE:;
#CREDIT:8Chasey 2026;
#MUSIC:Infernal Galop (Can-Can).ogg;
#BANNER:;
#BACKGROUND:;
#CDTITLE:;
#SAMPLESTART:42.806;
#SAMPLELENGTH:12.000;
#SELECTABLE:YES;
#OFFSET:-0.292;
#BPMS:0.000=175.000
,124.000=190.000
,300.000=210.000
,434.000=105.000
;
#STOPS:432.000=0.286
,433.000=0.286
;
#DISPLAYBPM:170.000:210.000;
#BGCHANGES:;
#FGCHANGES:;

//--------------- dance-single - 8Chasey ----------------
#NOTES:
     dance-single:
     8Chasey:
     Beginner:
     3:
     0,0,0,0,0:
0000
0000
0000
0000
,
0001
0000
0001
0001
,
0001
0000
0000
0000
,
1000
0000
1000
1000
,
1000
0000
0000
0000
,
0010
0000
0010
0010
,
0010
0000
0000
0000
,
0100
0000
0100
0100
,
0100
0000
0000
0000
,
0010
0000
0000
0000
,
0100
0000
0010
0000
,
0100
0000
0110
0000
,
0001
0000
0001
0000
,
1000
0000
0001
0000
,
1000
0000
1000
0000
,
0001
0000
1000
0000
,
0001
0001
0001
0000
,
1000
1000
1000
0000
,
0001
0000
1000
0000
,
0001
0000
1000
0000
,
1001
0000
0000
0000
,
0010
0000
0010
0000
,
1001
0000
0000
0000
,
0100
0000
0100
0000
,
0110
0000
0000
0000
,
0001
0000
0001
0000
,
0110
0000
0000
0000
,
1000
0000
1000
0000
,
0001
0000
1000
0000
,
0001
0000
1000
0000
,
0010
0010
0010
0000
,
0010
0000
0100
0000
,
0001
0000
0001
0000
,
0010
0000
0100
0000
,
1000
0000
1000
0000
,
0100
0000
1000
0000
,
0010
0000
0100
0000
,
0001
0000
0010
0000
,
0100
0000
0010
0000
,
1000
0000
1000
0000
,
0010
0000
1000
0000
,
0001
0000
0001
0000
,
0100
0000
0001
0000
,
1000
0000
0010
0000
,
0100
0000
0001
0000
,
1000
0000
0001
0000
,
1001
0000
0000
0000
,
0001
0000
1000
0000
,
0001
0000
0001
0000
,
1000
0000
0001
0000
,
1000
0000
1000
0000
,
0001
0001
0001
0000
,
1000
1000
1000
0000
,
0010
0000
0010
0000
,
0100
0000
0100
0000
,
0010
0000
0100
0000
,
0110
0000
0001
0001
,
0001
0000
1000
1000
,
1000
0000
1001
0000
,
0001
0000
0100
0000
,
0010
0000
0010
0000
,
1000
0000
0100
0000
,
0010
0000
0010
0000
,
0100
0000
1000
0000
,
0001
0000
0100
0000
,
0001
0000
1000
0000
,
0010
0010
0010
0000
,
1000
0000
0010
0000
,
0100
0000
0100
0000
,
0001
0000
0100
0000
,
0010
0000
0010
0000
,
1000
0000
0100
0000
,
0010
0000
0001
0000
,
0100
0000
0010
0000
,
1000
0000
0001
0000
,
1001
0000
0000
0000
,
0001
0000
1000
0000
,
1001
0000
0000
0000
,
1000
0000
0001
0000
,
0110
0000
0000
0000
,
0010
0000
0100
0000
,
0110
0000
0000
0000
,
0100
0000
0010
0000
,
0010
0000
0100
0000
,
0100
0000
1000
0000
,
0001
0000
1000
0000
,
0001
0000
1000
0000
,
1000
0000
0001
0000
,
0001
0000
1000
0000
,
0001
0000
0001
0000
,
1000
0000
0001
0000
,
0001
0000
1000
0000
,
1000
0000
0001
0000
,
1000
0000
1000
0000
,
0010
0000
0100
0000
,
0100
0000
0010
0000
,
0010
0000
0100
0000
,
0010
0000
0010
0000
,
0100
0000
0010
0000
,
0010
0000
0100
0000
,
0100
0000
0010
0000
,
0100
0000
0100
0000
,
1001
0000
0000
0000
,
0010
0000
0010
0000
,
1001
0000
0000
0000
,
0010
0000
0100
0000
,
0010
0000
0100
0000
,
0001
0000
1000
0000
,
1001
1001
1001
0000
;

//--------------- dance-single - 8Chasey ----------------
#NOTES:
     dance-single:
     8Chasey:
     Easy:
     6:
     0,0,0,0,0:
0000
0000
0000
0000
,
0001
0000
1000
0001
,
1001
0000
0000
0000
,
1000
0000
0001
1000
,
0110
0000
0000
0000
,
0010
0000
0100
0010
,
1001
0000
0000
0000
,
0100
0000
0010
0100
,
0110
0000
0001
0000
,
0110
0000
1000
0000
,
0001
1001
1000
1001
,
1000
0000
0001
0000
0100
0010
0100
0000
,
0010
0000
1000
0000
0100
1000
0100
0000
,
1000
0001
0100
0001
,
0010
0000
0001
0000
0100
0001
0100
0000
,
0001
1000
0100
1000
,
0010
1000
1010
1010
,
0100
0001
0101
0101
,
0010
0110
0100
0110
,
1000
0001
0110
1001
,
1000
0001
0100
0010
,
1000
1000
1000
0000
,
0001
1000
0010
0100
,
0001
0001
0001
0000
,
0100
0010
1000
0001
,
0100
0100
0100
0000
,
0010
1000
0001
0100
,
0010
0010
0010
0000
,
0110
0000
1001
0000
,
1100
0000
0011
0000
,
1010
0000
0101
0000
,
0002
0000
0100
0103
,
0001
1000
0001
0001
,
1000
0001
1000
1000
,
0010
0100
0010
0100
,
0020
0000
1000
1030
,
0100
0010
0100
0100
,
0010
0100
0010
0010
,
0001
1000
1001
0000
,
2000
0000
0100
3100
,
1000
0001
1000
1000
,
0001
1000
0001
0001
,
0010
0100
0010
0100
,
0020
0000
0001
0031
,
0100
0010
0100
0100
,
0010
0100
0010
0010
,
1000
0001
1001
0000
,
0001
0100
1000
0100
,
0001
0000
0010
0001
0010
0000
0001
0000
,
1000
0100
0001
0100
,
1000
0000
0010
1000
0010
0000
1000
0000
,
0001
0010
1000
0010
,
0001
0000
0100
0010
0100
0000
0010
0000
,
1000
0010
0100
0001
,
1000
0100
0010
0001
,
0100
0010
1000
0001
,
0010
0100
1000
0001
,
0010
0010
0100
0100
,
1000
0001
1000
0001
,
2001
0000
3100
0010
,
0001
0001
0100
0001
,
1000
1000
0100
1000
,
0010
0100
0010
0100
,
0120
0000
1030
0010
,
0100
0100
0001
0010
,
0100
0100
1000
0001
,
0100
0010
0110
0000
,
1002
0000
0103
0010
,
1000
1000
0100
1000
,
0001
0001
0100
0001
,
0010
0100
0010
0100
,
0120
0000
0031
0010
,
0100
0100
1000
0010
,
0100
0100
0001
1000
,
0100
0010
0110
0000
,
0100
1000
0100
1000
,
0001
1000
0001
0000
,
0100
0001
0100
0001
,
1000
0001
1000
0000
,
0010
1000
0010
1000
,
0001
1000
0001
0000
,
0010
0001
0010
0001
,
1000
0001
1000
0000
,
0101
0000
0001
0000
,
1100
0000
1000
0000
,
0011
0000
0001
0000
,
1010
0000
1000
0100
,
1000
1000
0001
0100
,
0001
0001
0010
0100
,
0010
0000
0110
0000
,
1100
0000
0010
1000
,
0010
0010
0100
0001
,
0100
0100
0001
1000
,
0001
1000
1001
0000
,
0101
0000
0001
0010
,
0001
0001
1000
0010
,
1000
1000
0100
0010
,
0100
0000
0110
0000
,
0011
0000
0100
0001
,
0100
0100
0010
1000
,
0010
0010
1000
0001
,
1000
0001
1001
0000
,
1000
0100
0010
0001
,
1000
0001
1001
0000
,
0001
0010
0100
1000
,
0010
0010
0100
0100
,
0001
0001
1000
1000
,
0010
0100
0001
1000
,
0010
0000
0100
0000
2002
0000
0000
3003
;

//--------------- dance-single - 8Chasey ----------------
#NOTES:
     dance-single:
     8Chasey:
     Medium:
     8:
     0,0,0,0,0:
0000
0000
0000
0000
0000
0000
0000
0002
,
0103
0000
0110
1001
,
1000
0001
0000
0000
0001
0000
0000
2000
,
3100
0000
0011
1010
,
2002
0000
3003
0000
0001
0000
1000
0020
,
0130
0000
0110
1001
,
0001
0010
0000
0000
0001
0000
1000
0020
,
1030
0000
0100
0010
,
0110
0000
0100
1000
0100
0000
1000
0000
,
0010
0000
0100
0001
0100
0000
0001
0000
,
1000
1010
0001
0101
,
0100
0010
0100
0000
0001
1000
0001
1000
,
0010
0000
0100
0001
0100
0010
0100
0000
,
0010
1000
0010
0000
1000
0001
1000
0000
,
0100
0000
1000
0010
1000
0000
0001
0100
,
0001
1001
0110
1001
,
1000
0100
1100
0000
0010
0001
0101
0000
,
0010
0100
0010
0100
0001
1000
1001
0000
,
2100
3010
0102
0013
,
0001
0010
0001
1000
0100
1000
0010
0000
,
0100
0101
0010
1010
,
1000
0100
1000
0000
0001
0100
0001
0000
,
1000
0110
0001
1001
,
1000
1000
0001
0000
0100
0010
0100
0000
,
0110
0001
0110
1000
,
0100
1000
0100
0000
1000
0001
1000
0000
,
1001
0010
1001
0100
,
0010
0100
0010
0000
0001
1000
0001
0000
,
0011
0010
0110
0100
,
1100
1000
1001
0001
,
0100
0010
0100
0010
1000
0100
0010
0001
,
2000
0000
0100
0000
3100
0010
0100
0000
,
0010
0000
0011
0000
0001
0100
0001
0000
,
1000
0000
1100
0000
0100
0010
0100
0000
,
1000
0010
1000
0000
0100
0000
0010
0000
,
0002
0000
0100
0000
0103
0010
0100
0000
,
0010
0000
1010
0000
1000
0100
1000
0000
,
0001
0000
0101
0000
0100
0010
1000
0000
,
0100
0010
0001
0000
2002
0000
3003
0000
,
0200
0000
0001
0000
0301
0010
0001
0000
,
1000
0000
1100
0000
0100
0010
0001
0000
,
0100
0000
0101
0000
0001
1000
0001
0000
,
0100
0010
0100
0000
0010
0000
1000
0000
,
0200
0000
1000
0000
1300
0010
1000
0000
,
0001
0000
0101
0000
0100
0010
1000
0000
,
0100
0000
1100
0000
1000
0010
1000
0000
,
0001
0010
0001
0000
0220
0000
0330
0000
,
0100
1000
0100
0000
1000
0010
1000
0000
,
0001
0000
0100
0000
0010
0100
0010
0000
,
1000
0000
0001
0100
0001
0000
1000
0010
,
1000
1100
0011
0110
,
0010
0000
0001
0010
0001
0000
0100
0000
,
0010
1000
0010
0000
1000
0100
1000
0000
,
0001
1000
0001
0000
0100
0010
0100
0000
,
0001
1000
0001
0000
0010
0100
0010
0000
,
0100
1100
1000
1001
,
0001
0000
0011
0000
0010
0100
0010
0000
,
0001
0100
0001
0100
0010
1000
0010
0000
,
1000
0100
1000
0100
0010
0001
0010
0000
,
0002
0000
0010
0000
0013
0100
0010
0000
,
0100
0000
1100
0000
1000
0010
1000
0000
,
0001
0000
0101
0000
0100
0010
0100
0000
,
0001
0010
0010
0001
1000
0000
0100
0000
,
0120
0000
0001
0000
0031
0010
0001
0000
,
0100
0000
0110
0000
0010
1000
0001
0000
,
1000
0000
1001
0000
0001
0100
0001
1000
,
0001
0000
1000
0100
1000
0000
0001
0000
,
0200
0000
0010
0000
0310
1000
0010
0000
,
1000
0000
1001
0000
0001
0100
0001
0100
,
0001
0000
1001
0000
1000
0010
1000
0010
,
1000
0000
0010
0100
0010
0000
0100
0000
,
0120
0000
1000
0000
1030
0100
1000
0000
,
0001
0000
0011
0000
0001
1000
0100
0000
,
1000
0000
1100
0000
0100
0010
0100
0000
,
0010
0001
0010
0001
1000
0000
0001
0000
,
0100
0110
0010
1001
,
1000
0100
1000
0000
0001
0000
0100
0000
,
0001
1001
1000
0110
,
0010
0100
0010
0000
0100
0000
0001
0000
,
0011
0001
1100
1000
,
0010
1000
0010
0000
0100
0001
0100
0000
,
0101
0001
1010
1000
,
0001
1000
0001
0000
2000
0000
0100
0000
,
3002
0010
0203
1000
,
0320
0001
0130
0110
,
0010
0100
0010
0100
0010
0100
0010
0000
,
2000
0000
0010
0000
3100
0000
0010
0100
,
0010
0000
0011
0000
0001
0000
0001
0100
,
0010
0000
1010
0000
1000
0001
1000
0000
,
0001
0101
1010
1000
,
0002
0000
0010
0000
0103
0000
0010
0100
,
0010
0000
1010
0000
1000
0000
1000
0100
,
0010
0000
0011
0000
0001
1000
0001
0000
,
1000
1100
0011
0001
,
1001
0000
0000
0000
1000
0010
1000
0000
,
0001
0000
0101
0000
0001
0010
0001
0000
,
1000
0000
1100
0000
1000
0010
1000
0000
,
0001
0100
0001
0000
0010
0000
0100
0000
,
0110
0000
0000
0000
0100
1000
0100
0000
,
1000
0000
1001
0000
0001
0100
0001
0000
,
0010
0000
0110
0000
0100
0010
0100
0000
,
1000
1010
0101
0001
,
0010
0001
0010
0000
0001
0000
0100
0000
,
0001
0011
1100
1000
,
0010
0100
0010
0000
1000
0000
0001
0000
,
0010
0110
0100
1100
,
1000
1001
0001
0011
,
0010
0001
0100
0000
1010
0000
1000
0000
,
0020
0000
0130
0000
2002
0000
0000
3003
;

//--------------- dance-single - 8Chasey ----------------
#NOTES:
     dance-single:
     8Chasey:
     Hard:
     10:
     0,0,0,0,0:
0000
0000
0000
0000
0000
0000
0000
0000
0000
0000
0000
0000
0000
0000
0001
0100
,
0001
0000
1010
0011
,
1001
0000
1001
0000
0000
0000
0001
0000
0000
0000
0010
0000
0001
0000
1000
0100
,
1000
0000
0011
1010
,
0210
0000
0000
0000
0001
0000
0000
0000
1000
0000
0000
0000
0301
0000
0010
0100
,
0010
0000
0000
0100
1100
0000
0101
0000
,
1001
0000
0110
0000
0000
0000
0100
0000
0001
0000
1000
0000
0100
0000
0010
0100
,
0010
0000
0011
1100
,
1001
0000
0000
0000
0001
0000
0000
0001
0200
0000
0010
0000
0310
0000
0000
0000
,
1010
0000
0000
0000
1000
0000
0010
1000
0020
0000
0100
0000
0130
0000
0000
0100
,
0001
0000
0000
0001
1000
0000
0000
1000
0010
0000
0000
0010
0100
0000
0000
0100
,
0001
0000
0010
0000
1000
0000
0010
0000
0001
0000
0100
0000
1000
0000
0100
0010
,
0100
0001
0001
0010
0001
1000
0010
1000
,
0100
1000
1000
0010
0100
0001
1001
0000
,
1000
0010
0010
0100
0001
0010
0010
0001
,
1000
0100
0001
0100
1000
0010
0001
0010
,
0110
0100
0001
0010
0100
1000
1001
0000
,
1001
1000
0010
0100
0001
0010
0110
0000
,
2100
0000
3010
0100
0102
0000
0013
0100
,
1000
1000
0001
0001
0100
0010
0110
0000
,
1010
0011
1100
0101
,
0001
0010
0010
0001
1000
0100
0100
1000
,
1100
0011
0101
1010
,
0100
0000
0001
0100
0001
0000
1000
0000
0010
0000
0100
0000
0100
0000
0000
0000
,
0101
1010
0011
1100
,
1000
0001
0001
0010
0001
1000
1000
0100
,
1100
1010
0101
0011
,
0010
0000
0001
0010
0001
0000
1000
0000
0010
0000
0100
0000
0100
0000
0001
0000
,
0011
0010
0100
1000
1010
0010
0100
0100
,
0110
1010
0101
1001
,
0001
0010
0001
0000
0010
0100
0010
0000
0100
1000
0100
0000
1000
0001
1000
0000
,
0002
0000
0010
0000
0103
0010
0010
0100
,
1100
0000
0011
0000
0010
0001
0001
1000
,
1010
0000
0101
0000
0001
1000
1000
0001
,
0100
0010
1000
0100
0010
0001
1000
0001
,
2001
0000
0100
0000
3010
0100
0100
0001
,
0010
0000
0110
0000
0100
1000
1000
0001
,
1000
0000
1001
0000
0001
0010
0010
0100
,
1000
0010
0100
0001
2010
0000
3100
0000
,
0012
0000
0103
0000
0010
0100
0100
0001
,
0010
0001
1001
0000
1000
0100
0100
1000
,
0010
0100
0110
0000
0010
0100
0001
0010
,
0100
1000
1000
0001
0001
0100
0010
0100
,
0120
0000
0001
0000
1030
0100
0100
1000
,
0001
0010
0011
0000
0010
0001
0100
0010
,
1000
0010
1010
0000
1000
0001
0001
1000
,
0100
0010
0001
0100
0220
0330
1001
0000
,
0001
0100
1000
0100
0010
0010
1000
0001
,
1000
0100
0001
0100
0010
0010
0110
0000
,
0100
1000
1000
0010
0001
0010
0010
0100
,
0001
0100
0001
0000
1000
0010
1000
0000
0100
0010
0100
0000
0010
0100
0010
0000
,
0001
1001
1000
0010
0100
0100
0001
0010
,
0100
0110
0010
0001
1000
1000
0001
0000
,
0100
0001
0002
0000
0010
1000
2003
0000
,
0100
0010
3020
0000
0001
0100
0230
0000
,
0301
0010
0110
0000
0100
1000
1001
0000
,
0001
0100
1010
0000
1000
0100
0011
0001
,
0100
0100
0001
0001
1000
1000
0010
0010
,
0100
0010
0100
0000
0001
1000
0001
0000
1000
0010
1000
0000
0100
1000
0100
0000
,
0120
0000
1000
0000
0031
0100
0010
0010
,
1000
0000
1001
0000
0001
0010
0100
0100
,
1000
0000
1001
0000
1000
0001
0001
0100
,
0010
0000
1000
0100
1000
0000
0001
0000
0100
0000
1000
0000
0100
0000
0001
0000
,
1002
0000
0010
0000
0103
0010
1000
1000
,
1001
0000
0011
0000
0010
0001
0100
0100
,
0110
0000
1010
0000
1000
0100
0100
0010
,
0010
0000
0001
0000
1000
0000
0010
0000
0100
0000
0000
0000
0010
0000
0100
0010
,
2000
0000
0100
0000
3001
0010
1000
0010
,
0001
0000
0101
0000
0010
1000
0100
0100
,
1000
0000
1001
0000
0001
0010
0010
0001
,
1000
0000
0001
0100
0001
0000
1000
0000
0010
0000
0100
0000
0001
0000
1000
0000
,
0200
0000
0001
0000
1300
0010
0001
0010
,
1000
0000
1100
0000
0010
0001
0100
0100
,
0001
0000
1001
0000
1000
0010
0100
0001
,
0010
0010
0100
0100
1000
0001
1000
0001
,
0101
1010
1100
0011
,
0010
0001
0100
1000
0100
0001
1000
0000
,
1100
0011
0101
1010
,
0010
0100
0001
1000
1000
0001
1001
0000
,
0011
0101
1010
1100
,
1000
0010
0010
1000
0001
0100
0100
0001
,
1001
0110
1010
0101
,
0001
0010
0100
0010
0011
0000
1100
0000
,
1000
0100
1000
0001
0010
0001
0100
0010
,
0100
0001
1000
0001
1000
0100
0010
0001
,
0100
0000
0000
0100
0010
0000
0000
0010
1000
0000
0000
1000
0001
0000
0001
0000
,
1001
0000
1000
0010
0100
0100
0001
0010
,
0100
0000
0110
0000
0010
0001
0100
0010
,
1000
0000
1001
0000
0002
0100
0103
0001
,
2000
0010
3010
1000
0100
0010
0001
0100
,
0110
0000
0010
0000
1000
0100
1000
0001
,
0010
0000
1100
0000
1000
0001
0100
0010
,
1000
0000
0101
0000
0100
0010
1000
0100
,
0100
0000
0000
0100
0010
0000
0001
0000
1000
0000
0010
0000
0100
0000
0000
0000
,
1002
0000
0010
0000
2003
0100
3100
0010
,
0001
0100
1000
0100
0001
1000
1000
0001
,
1000
0100
0001
0100
1000
0001
0001
1000
,
0010
0000
1000
0000
0001
0000
0100
0000
0110
0000
0000
0000
0010
0000
0100
0010
,
0200
1000
0000
0301
0010
0100
0100
1000
,
0001
0100
0101
0000
0010
0100
0100
0001
,
1000
0100
1100
0000
1000
0001
0100
0010
,
1000
0000
0001
0100
0001
0000
0000
0000
0011
0000
0000
0000
1100
0000
0000
0000
,
1000
1000
0010
0010
0100
0100
0001
1000
,
0001
0000
1000
0100
1000
0000
0000
0000
1010
0000
0000
0000
0101
0000
0000
0000
,
0001
0001
0010
0010
0100
0100
1000
0001
,
2000
0100
3100
1000
0002
0010
0013
0001
,
0200
0010
0310
0100
0001
1000
0001
1000
,
0100
0010
0100
1000
1001
0001
0101
0000
,
1010
0000
0110
0000
2002
0000
0000
3003
;

//--------------- dance-single - 8Chasey ----------------
#NOTES:
     dance-single:
     8Chasey:
     Challenge:
     12:
     0,0,0,0,0:
0000
0000
0000
0000
0000
0000
0000
0000
0000
0000
0000
0000
0000
0000
0000
0000
0000
0000
0000
0000
0000
0000
0000
0000
0000
0000
0000
0000
0000
0000
0000
0000
0000
0000
0000
0000
0000
0000
0000
0000
0000
0000
0000
0000
0000
0000
0000
0000
0000
0000
0000
0000
0000
0000
0000
0000
0000
0000
0000
0000
0000
0000
0000
0000
0000
0000
0000
0000
0000
0000
0000
0000
0000
0000
0000
0000
0000
0000
0000
0000
0000
0000
0000
0000
0000
0000
1000
0000
0000
0000
0000
0100
0000
0000
0000
0000
,
0010
000M
0100
0000
1000
0000
0001
0000
1001
0000
0000
0000
0011
0000
0000
0000
,
0101
0000
0000
0000
0000
0000
0000
0000
0000
0000
0000
0000
1010
0000
0000
0000
0000
0000
0000
0000
0000
0000
0000
0000
1000
0000
0000
0000
0000
0000
0000
0000
0000
0000
0000
0000
0100
0000
0000
0000
0000
0000
0000
0000
0000
0000
0000
0000
1000
0000
0000
0000
0000
0000
0000
0000
0000
0000
0000
0000
0010
0000
0000
0000
0000
0000
0000
0000
0000
0000
0000
0000
0100
0000
0000
0000
0000
0000
0000
0000
0000
0000
0000
0000
0000
0000
0001
0000
0000
0000
0000
0010
0000
0000
0000
0000
,
0100
M000
0010
0000
0001
0000
1000
0000
1001
0000
0000
0000
1100
0000
0000
0000
,
2010
0000
0000
0000
0000
0000
0000
0000
0000
0000
0000
0000
0010
0000
0000
0000
0000
0000
0000
0000
0000
0000
0000
0000
0001
0000
0000
0000
0000
0000
0000
0000
0000
0000
0000
0000
0001
0000
0000
0000
0000
0000
0000
0000
0000
0000
0000
0000
3100
0000
0000
0000
0000
0000
0000
0000
0000
0000
0000
0000
0010
0000
0000
0000
0000
0000
0000
0000
0000
0000
0000
0000
0001
0000
0000
0000
0000
0000
0000
0000
0000
0000
0000
0000
0000
0000
0100
0000
0000
0000
0000
0010
0000
0000
0000
0000
,
1000
000M
0010
0000
0100
0000
0001
0000
1001
0000
0000
0000
0110
0000
0000
0000
,
0110
0000
0000
0000
0000
0000
0000
0000
0000
0000
0000
0000
1001
0000
0000
0000
0000
0000
0000
0000
0000
0000
0000
0000
1000
0000
0000
0000
0000
0000
0000
0000
0000
0000
0000
0000
0100
0000
0000
0000
0000
0000
1000
0000
0000
0000
0000
0000
0010
0000
0000
0000
0000
0000
0000
0000
0000
0000
0000
0000
0100
0000
0000
0000
0000
0000
0001
0000
0000
0000
0000
0000
0010
0000
0000
0000
0000
0000
0000
0000
0000
0000
0000
0000
0000
0000
0100
0000
0000
0000
0000
0010
0000
0000
0000
0000
,
0100
00M0
1000
0000
0001
0000
0100
0000
0110
0000
0000
0000
1010
0000
0000
0000
,
0101
0000
0001
0000
0010
0000
0001
1000
0002
0000
1003
0000
0010
0000
1000
0000
,
1100
0000
1000
0000
0010
0000
1000
0001
2000
0000
3001
0000
0010
0000
0001
0100
,
0001
0000
0100
0010
0100
0000
0010
1000
0010
0000
1000
0100
1000
0000
0001
1000
,
0001
0000
01M1
0000
0100
0000
M110
0000
0010
0000
101M
0000
1M00
0001
1000
0001
,
0100
0010
0110
0100
0001
1000
1001
0001
,
0010
0001
0101
0100
0010
1000
2200
3300
,
1000
0010
1000
0000
0100
0000
0010
0000
0001
0010
0001
0000
0100
0000
0010
0000
,
0110
0100
0101
0001
1001
1000
1010
0010
,
0110
0101
0110
1010
1100
0011
2002
3003
,
1100
1001
0101
0110
1010
0011
0220
0330
,
0100
2000
0100
0000
0010
0000
3001
0000
0100
0002
0100
0000
0010
0000
1003
0000
,
1100
0000
0010
0000
0101
0000
0010
0000
0110
0000
1001
0000
0110
0000
1000
0010
,
1000
0100
0011
0000
0101
0010
2M20
3030
,
1000
1100
0100
0110
0010
0011
0001
1001
,
1000
0010
0110
0000
0011
0000
22M0
3300
,
1000
0000
0001
0100
0001
0000
1000
0000
1100
0000
0110
0000
0011
0000
0000
0000
,
0101
0100
0110
0000
1010
1000
2MM2
3003
,
0001
0101
0100
0110
0010
1010
1000
1001
,
0001
0010
0001
0000
0101
0000
0000
0000
1000
0010
1000
0000
220M
0000
3300
0000
,
0100
0000
0010
0001
0010
0000
0001
0000
0100
0000
0010
0000
1000
0000
0001
0000
,
M010
0001
0010
0000
0110
0000
0010
0000
010M
1000
0100
0000
0110
0000
0010
0000
,
00M1
0100
0001
0000
0100
0010
0100
0000
0M10
1000
0010
0000
1000
0001
1000
0000
,
0M01
0010
0001
0010
010M
1000
0100
1000
M010
0100
0010
0100
00M1
1000
0001
1000
,
0200
0001
0010
1300
0010
0110
0100
0001
,
0010
0001
0010
0000
0001
0100
0001
0000
1000
0000
1001
0000
0001
0000
0100
0000
,
0010
1000
0010
0000
1000
0100
1000
0000
0001
0000
0100
0000
0110
0000
0010
0000
,
100M
1100
M011
0001
01M0
0110
1M01
0002
,
2000
0000
0003
0000
0100
0000
3100
0000
0010
0001
0010
0000
0001
0000
0101
0000
,
1010
0000
1000
0000
1001
0000
0001
0100
0001
0000
0011
0000
0010
0000
0100
0000
,
0010
0001
0010
0000
0110
0000
0100
0000
1000
0000
1010
0000
0010
0000
0100
0000
,
00M1
0000
1001
0000
1M00
0000
0100
1000
020M
0000
0010
0000
M310
0000
0001
0000
,
0201
1000
0010
0301
0010
0110
0100
1000
,
0010
0100
0010
0000
1000
0001
1000
0000
0100
0000
0110
0000
0010
0000
0001
0000
,
0100
0001
0100
0000
0010
1000
0010
0000
1000
0000
1001
0000
0001
0000
0100
0000
,
0M10
1010
01M1
0001
100M
1100
M011
0020
,
0200
0000
0030
0000
1000
0000
1300
0000
0010
1000
0010
0000
1000
0000
1100
0000
,
0011
0000
0001
0000
1001
0000
1000
0000
0100
1000
0100
0000
0010
0001
1000
0000
,
1010
0000
0010
0000
0110
0000
0100
0000
0001
0100
0001
0000
1000
0000
0100
0000
,
011M
0000
0010
0001
M010
0000
0001
0000
2M00
0000
0100
0000
31M0
0000
0000
0000
,
0010
0001
0101
0100
0010
1000
1100
0100
,
1000
0010
0110
0100
0001
1000
2002
3003
,
0001
0100
0001
0000
0010
0000
0100
0000
1000
0100
1000
0000
0010
0000
0100
0000
,
0101
0001
0011
0010
0110
0100
1100
1000
,
0020
0000
0100
0000
0130
0000
0001
0000
0011
0000
0010
0100
0010
0000
0100
0000
,
0020
0000
0100
0000
0130
0000
1000
0000
1010
0000
0010
0100
0010
0000
0100
0000
,
00M1
0100
0110
0010
10M0
0100
0110
0010
,
0M11
0000
0001
0100
0001
0000
1000
0000
1M10
0000
1000
0100
1000
0000
0100
0000
,
M010
0001
0100
0000
0110
0000
0000
0000
001M
1000
0100
0000
0110
0000
0000
0000
,
M010
0001
1000
0000
1001
0000
0000
0000
100M
0100
1000
0000
0001
0010
0001
0000
,
M101
0100
011M
0010
1M10
1000
10M1
0001
,
M100
0001
01M0
0001
10M0
0100
100M
0100
M010
0001
0M10
0001
1M00
0010
100M
0010
,
0200
1000
0010
0301
0010
0110
0100
1000
,
0010
1000
0010
0000
1000
0001
1000
0000
0001
0000
1001
0000
1000
0000
0100
0000
,
0010
0001
0010
0000
0001
1000
0001
0000
0100
0000
0110
0000
0010
0000
1000
0000
,
1M01
0000
0001
0010
M001
0000
0100
0000
001M
0000
1000
0100
10M0
0000
0010
0000
,
0210
1000
0010
0301
0010
0011
0001
1000
,
0010
1000
0010
0000
1000
0100
1000
0000
0010
0000
1010
0000
1000
0000
0001
0000
,
0010
0001
0010
0000
0001
0100
0001
0000
0100
0000
0110
0000
0010
0000
1000
0000
,
01M0
0000
1100
0000
M011
0000
0010
0000
011M
0000
0000
0000
1M01
0000
0001
1000
,
0002
0000
0010
0000
0100
0000
1003
0000
0100
0010
0100
0000
1000
0000
0001
0000
,
0101
0000
0100
0000
0110
0000
0010
0000
1010
0000
1000
0001
1000
0000
1000
0000
,
1100
0000
0100
0000
0110
0000
0010
0000
0011
0000
0001
1000
0001
0000
0001
0000
,
01M0
0000
0010
1000
0M10
0000
1000
0000
010M
0000
0010
0001
M010
0000
0001
0000
,
2001
0000
0100
0000
0010
0000
3001
0000
0100
0010
0100
0000
0010
0000
1000
0000
,
1100
0000
0100
0000
0110
0000
0010
0000
0011
0000
0001
1000
0001
0000
0001
0000
,
0101
0000
0100
0000
0110
0000
0010
0000
1010
0000
1000
0001
1000
0000
1000
0000
,
0M10
0101
101M
0100
M110
0010
10M1
1000
,
0001
0100
1010
0000
1100
0010
0M22
0033
,
0001
0101
0100
0110
0010
1010
1000
1001
,
0001
0010
0110
0000
1010
0000
02M2
0303
,
0001
0000
1000
0100
1000
0000
0001
0000
0101
0000
0110
0000
1010
0000
0000
0000
,
1100
0100
0110
0000
0011
0001
2MM2
3003
,
1000
1100
0100
0110
0010
0011
0001
1001
,
1000
0010
1000
0000
1100
0000
0000
0000
0001
0010
0001
0000
M202
0000
0303
0000
,
0100
0000
0010
1000
0010
0000
1000
0000
0100
0010
0100
0000
1001
0000
0000
0000
,
0001
1000
0001
0000
0110
0000
0000
0000
0010
0001
0010
0000
1100
0000
0000
0000
,
0010
1000
0010
0000
0101
0000
0001
0000
0010
0100
0010
0000
0001
1000
0001
0000
,
01M0
0001
0100
0000
0M10
1000
0010
0000
M10M
0010
0100
0010
1000
0001
1000
0001
,
0100
0001
0010
1000
0010
0010
0001
0100
,
0110
0010
1010
1000
1001
0001
1000
0100
,
0110
0010
0011
0001
1001
1000
0001
0100
,
0010
0000
1000
0010
1000
0000
0001
0000
0001
0000
1000
0000
1000
0000
0010
0000
,
0110
0100
0001
1000
0100
0100
0010
0001
,
0101
0100
0110
0010
1010
1000
0100
1000
,
1100
0100
0110
0010
0011
0001
0100
0001
,
1000
0000
0010
0100
0010
0000
0100
0000
0001
0000
1000
0000
1001
0000
0001
0000
,
0010
1000
0010
0100
1000
1000
0010
0100
,
0101
0001
1001
1000
1100
0100
0010
0001
,
0011
0001
1001
1000
1010
0010
0100
0001
,
1000
0000
0100
0000
0100
0000
0010
0000
0010
0000
0001
0000
0100
0000
0010
0100
,
0010
1000
0010
0100
0001
0010
0100
1000
,
1100
0000
0100
0010
0100
0000
0010
0000
0011
0000
0001
0000
1000
0000
0001
0000
,
0101
0000
0100
0010
0100
0000
0010
0000
1010
0000
1000
0000
0001
0000
1000
0000
,
0010
0000
0100
0001
0100
0000
0001
0000
0011
0000
0001
0000
1001
0000
1000
0000
,
1010
0010
0100
0001
0010
1000
0010
0001
,
0010
0000
0100
1000
0100
0000
1000
0000
1010
0000
1000
0000
1001
0000
0001
0000
,
0011
0010
0100
1000
0010
0001
0010
1000
,
0010
0000
0100
0001
0010
0000
0001
0000
1000
0000
0100
1000
0010
0000
1000
0000
,
0100
0000
0010
0001
1000
0000
0010
0000
0100
0000
0010
1000
0001
0000
0010
0000
,
0001
0010
1000
0010
0001
1000
0010
0001
0010
1000
0100
0010
0001
1000
0010
0100
,
0001
0000
0000
0000
1001
0000
0000
0000
2022
0000
0000
0030
0000
0000
30M3
0000
;
