#TITLE:In the Hall of the Pixel King;
#SUBTITLE:;
#ARTIST:Dancing Bros.;
#TITLETRANSLIT:;
#SUBTITLETRANSLIT:;
#ARTISTTRANSLIT:;
#GENRE:;
#CREDIT:;
#BANNER:In The Hall Of The Pixel King.png;
#BACKGROUND:In The Hall Of The Pixel King-bg.png;
#LYRICSPATH:;
#CDTITLE:;
#MUSIC:In the Hall of the Pixel King.ogg;
#OFFSET:-0.275000;
#SAMPLESTART:54.160000;
#SAMPLELENGTH:15.000000;
#SELECTABLE:YES;
#BPMS:0.000000=90.000000
,16.000000=100.000000
,32.000000=106.000000
,48.000000=110.000000
,64.000000=118.000000
,80.000000=124.999992
,96.000000=140.000000
,128.000000=150.000000
,160.000000=160.000000
,192.000000=180.000000
,256.000000=220.000000
,288.000000=240.000000
,320.000000=270.000000
,352.000000=290.000000
,400.000000=145.000000
;
#STOPS:
;
#BGCHANGES:;
#KEYSOUNDS:;
#ATTACKS:;

//---------------dance-single - ----------------
#NOTES:
     dance-single:
     :
     Hard:
     10:
     0.680092,0.834640,0.343348,0.369759,0.089138,721.000000,669.000000,52.000000,56.000000,0.000000,0.000000,0.680092,0.834640,0.343348,0.369759,0.089138,721.000000,669.000000,52.000000,56.000000,0.000000,0.000000:
0001
1000
0100
1000
0010
0100
0010
0000
,
0001
0010
0100
0000
1000
0010
0100
0000
,
0001
1000
0100
1000
0010
0100
0001
0010
,
0100
0010
0100
1000
0001
0000
1001
0000
,
0100
0001
0100
0010
1000
0100
1000
0000
,
0001
0100
0001
0000
0010
0100
0010
0000
,
1000
0100
0010
0001
0100
0010
1000
0100
,
1000
0001
0100
0010
1000
0000
0110
0000
,
0100
0000
0001
0000
1000
0010
1000
0000
0100
0000
0010
0000
0100
1000
0100
0000
,
0001
0000
1000
0000
0100
0010
0100
0000
1000
0000
0001
0000
0100
0010
0100
0000
,
1000
0000
0100
0000
1000
0001
0010
0000
0100
0000
1000
0000
0100
0010
0001
0000
,
0100
0000
0010
0000
0100
0001
0010
0000
0100
0000
1000
0000
0101
0000
0000
0000
,
0001
0000
0100
0000
0001
1000
0100
0000
0010
0000
0100
0000
1000
0001
0100
0000
,
0010
0000
1000
0000
0001
0100
0010
0000
0100
0000
0001
0000
0010
0100
1000
0000
,
0100
0000
1000
0000
0001
0010
0100
0000
0010
0000
0001
0000
1000
0100
1000
0000
,
0001
0010
0001
0000
0100
0010
0100
0000
1000
0000
0000
0000
1001
0000
0000
0000
,
1000
0001
0100
0001
0010
0100
0010
0100
,
1000
0001
0100
0000
0010
1000
0010
0000
,
0100
0001
0010
0100
1000
0100
1000
0010
,
0100
0001
0100
0010
1000
0100
1100
0000
,
0001
0100
0010
1000
0001
0100
0001
1000
,
0100
0010
0100
0000
1100
0001
0010
0000
,
0100
0001
1000
0001
0100
0001
1000
0100
,
0010
0010
0100
1000
0002
0000
1003
0000
,
1000
0100
1000
0001
1001
0100
0001
0000
,
1001
0100
1000
0000
0110
1000
0001
0000
,
1010
0001
0100
0010
1000
0100
1000
0001
,
0001
0010
0001
0100
2002
0000
3003
0000
,
0100
0100
0010
1000
0100
1000
0001
0000
,
0011
0100
0001
0000
1010
0100
1000
0000
,
0010
0100
0001
1000
0001
0100
0001
0010
,
0010
0100
1000
0100
2002
0000
3003
0000
,
0100
0001
0001
0010
0100
1000
0002
0003
,
0110
0001
0020
0030
1100
1000
0002
0003
,
1000
0100
0100
1000
0010
0100
0001
1000
,
0010
0100
0001
0000
0202
0000
0303
0000
,
1000
0010
0010
0100
0001
1000
0001
0000
,
0100
0010
1000
0000
0101
0010
0010
0000
,
1000
1000
0100
0100
0010
0001
1000
0000
,
0101
0010
1000
0000
0220
0000
0330
0000
,
1001
0000
0100
0000
0001
0000
1000
0000
0010
0000
1000
0000
0100
0010
0100
0000
,
0010
0000
0001
0000
1000
0100
1000
0000
0010
0000
1000
0000
0001
0100
0001
0000
,
1000
0100
0100
0001
0100
0010
0100
1000
,
0100
0000
0001
0000
0010
0000
0100
0000
0010
1000
0100
0000
0010
0001
0100
0000
,
0001
0010
0100
0000
1000
0000
1001
0000
0010
0000
0010
0000
1000
0100
1000
0000
,
0001
0100
0001
0000
0001
0010
0001
0000
1000
0010
1000
0000
1001
0000
1001
0000
,
0100
0010
1000
0001
0001
0100
0010
1000
,
0100
1000
0010
0010
2200
0000
3300
0000
,
0002
0203
0320
2030
,
3200
2300
3020
0230
,
0302
0013
0101
1001
,
0010
0100
0001
0010
0001
0000
0011
0000
,
0200
0320
2030
3200
,
0320
0230
0320
0032
,
2003
3200
2300
3020
,
0130
0001
0010
0001
1001
0000
0110
0000
,
0001
0001
0100
0100
0010
0010
1000
1000
,
1000
0100
0010
0001
0100
0000
0110
0000
,
0002
0000
0013
0001
0010
0000
0100
0000
,
1000
0101
1010
0210
,
0010
0302
0203
0320
,
2030
3200
2300
3020
,
0130
0101
1100
0110
,
0001
0000
0010
0000
0100
0000
1000
0000
0001
0100
0001
0100
0001
0000
0000
0000
,
1000
0100
1000
0010
0100
0001
0010
0000
,
0100
1000
0100
0000
0010
0001
0010
0000
,
0100
0001
0010
0100
1000
0100
1000
0010
,
0100
0001
0010
0001
1000
0000
1001
0000
,
0100
0010
0100
0001
1000
0100
1000
0000
,
0010
0100
0001
0000
0010
0100
1000
0000
,
0001
0010
0001
0100
0010
1000
0100
1000
,
0001
0100
0001
0010
0002
0000
0003
0000
,
1000
0100
1000
0001
0010
0100
1000
0000
,
1000
0100
1000
0000
0001
0100
0001
0000
,
0100
0010
1000
0001
0100
0001
1000
0000
,
0010
1000
0100
0000
0202
0000
0303
0000
,
1000
0010
0100
0010
1000
0100
0010
0000
,
0001
0100
0010
0100
0010
0100
0010
0000
,
0100
0001
1000
0010
0100
0001
1000
0010
,
0100
0001
1000
0100
0020
0000
0030
0000
,
0100
0001
0100
0010
1000
0100
1000
0000
,
0001
0100
0001
0000
0010
0100
0010
0000
,
1000
0100
0010
0001
1000
0010
0100
0001
,
0100
0010
1000
0001
0020
0000
0030
0000
,
1000
0001
0100
0001
0010
0100
1000
0100
,
0010
0001
1000
0000
0010
1000
0001
0000
,
0100
0001
1000
0100
0010
0100
1000
0001
,
0100
0010
1000
0000
2002
0000
3003
0000
,
0100
1001
0010
0010
,
1000
0101
0010
0010
,
1000
0001
0100
0010
1000
0100
1000
0001
,
0010
0001
0100
0000
2002
0000
3003
0000
,
0100
0012
1000
0103
,
0010
2100
0001
3010
,
0001
0100
0001
0010
0100
1000
0001
0010
,
0100
1000
0010
0100
0001
0000
1001
0000
,
0100
0001
0100
0010
1000
0000
1001
0000
,
0100
1000
0100
0010
0001
0000
1001
0000
,
0010
0100
0001
0010
0100
0000
0110
0000
,
0010
0100
1000
0010
0100
0000
0110
0000
,
0020
0000
0130
0001
0100
1000
0100
0000
,
0110
0110
0000
0000
0000
0000
0000
0000
;

//---------------dance-single - ----------------
#NOTES:
     dance-single:
     :
     Beginner:
     3:
     0.249021,0.300099,0.178277,0.000000,0.000000,264.000000,237.000000,27.000000,0.000000,0.000000,0.000000,0.249021,0.300099,0.178277,0.000000,0.000000,264.000000,237.000000,27.000000,0.000000,0.000000,0.000000:
0100
0000
0100
0000
,
0100
0100
0100
0000
,
0010
0000
0010
0000
,
0010
0010
0010
0000
,
0001
0000
0001
0000
,
0001
0001
0001
0000
,
1000
0000
1000
0000
,
1000
1000
1000
0000
,
1001
0000
0000
0000
,
0010
0010
0010
0000
,
1001
0000
0000
0000
,
0100
0100
0100
0000
,
0110
0000
0000
0000
,
0001
0001
0001
0000
,
0110
0000
0000
0000
,
1000
1000
1000
0000
,
1000
0000
0100
0000
,
0010
0010
0010
0000
,
0001
0000
1000
0000
,
0001
0001
0001
0000
,
0001
0000
0100
0000
,
0010
0010
0010
0000
,
1000
0000
0001
0000
,
1000
1000
1000
0000
,
0010
0010
0010
0000
,
1000
0000
0001
0000
,
0010
0010
0010
0000
,
0100
0000
0110
0000
,
0010
0010
0010
0000
,
0001
0000
1000
0000
,
0010
0010
0010
0000
,
1000
0000
0001
0000
,
1001
1001
1001
0000
,
0010
0000
0010
0000
,
1000
1000
1000
0000
,
0100
0000
1001
0000
,
0010
0010
0010
0000
,
1000
0000
0001
0000
,
0010
0010
0010
0000
,
0001
0000
1001
0000
,
0100
0100
0000
0001
,
0000
1000
1000
0000
,
0100
0100
0000
0010
,
0010
0000
0110
0000
,
0001
0001
0001
0000
,
1000
0000
0100
0000
,
1000
0000
0010
0000
,
0100
0000
0100
0000
,
0001
0000
1000
1000
,
0000
0001
0001
0000
,
0100
0000
0010
0000
,
0110
0000
0000
0000
,
1000
0000
0001
0001
,
0000
1000
1000
0000
,
0100
0000
0010
0000
,
1001
0000
0000
0000
,
0100
0000
0010
0000
,
0001
0001
0001
0000
,
0100
0000
0010
0000
,
1000
1000
0000
0100
,
0100
0000
0010
0000
,
0100
0000
0010
0000
,
1000
0000
0001
0000
,
1001
0000
0000
0000
,
0001
0001
0001
0000
,
1000
1000
1000
0000
,
0010
0000
0100
0000
,
0010
0000
0000
0000
,
1000
1000
1000
0000
,
0001
0001
0001
0000
,
0010
0000
0100
0000
,
0010
0000
0000
0000
,
1000
1000
1000
1000
,
1000
1000
1000
0000
,
0001
0001
0001
0001
,
0001
0001
0001
0000
,
0010
0000
0010
0000
,
0010
0000
0010
0000
,
0100
0000
0100
0000
,
0100
0000
0100
0000
,
0001
0000
1001
0000
,
1000
0000
1001
0000
,
0010
0000
0010
0000
,
0110
0000
0110
0000
,
1000
0000
1001
0000
,
0001
0000
1001
0000
,
0100
0000
0010
0000
,
1001
0000
0110
0000
,
0000
1001
0000
0000
,
0000
1001
0000
0000
,
0010
0010
0010
0010
,
0010
0010
0010
0000
,
0000
1001
0000
0000
,
0000
1001
0000
0000
,
0100
0100
0100
0100
,
0100
0100
0100
0000
,
0001
0001
0001
0000
,
1000
1000
1000
0000
,
0010
0010
0010
0000
,
0100
0100
0100
0000
,
0001
0000
1000
0000
,
1001
0000
0000
0000
;

//---------------dance-solo - ----------------
#NOTES:
     dance-solo:
     :
     Hard:
     10:
     0.681979,0.802245,0.330142,0.448993,0.108947,723.000000,673.000000,50.000000,68.000000,0.000000,1.000000,0.681979,0.802245,0.330142,0.448993,0.108947,723.000000,673.000000,50.000000,68.000000,0.000000,1.000000:
000001
100000
001000
100000
000010
000100
000010
000000
,
010000
000001
001000
000000
000100
001000
000100
000000
,
010000
000001
001000
000001
100000
001000
000100
000010
,
010000
000001
001000
000001
000100
000000
100001
000000
,
001000
100000
000010
000100
000001
001000
000100
000000
,
010000
000100
100000
000000
000010
000100
000001
000000
,
001000
000001
010000
000100
100000
001000
100000
000001
,
000100
000010
001000
000001
010000
000000
010010
000000
,
100000
000000
000010
000000
000100
000010
000100
000000
000001
000000
001000
000000
000001
010000
000001
000000
,
100000
000000
000100
000000
001000
000001
001000
000000
000100
000000
010000
000000
000010
100000
000010
000000
,
000001
000000
001000
000000
000100
010000
000100
000000
001000
000000
000001
000000
000100
000010
000100
000000
,
001000
010000
001000
000000
100000
000010
100000
000000
000100
000000
000000
000000
001000
000001
100000
000000
,
000010
000000
100000
000000
000100
001000
000001
000000
100000
000000
001000
000000
000100
001000
000100
000000
,
000010
000000
100000
000000
000001
001000
000001
000000
010000
000000
000010
000000
100000
000010
100000
000000
,
001000
000000
100000
000000
000100
100000
000001
000000
001000
000000
000001
000000
000100
000001
000100
000000
,
001000
000100
001000
000000
010000
000010
010000
000000
100000
000000
000001
000000
100001
000000
000000
000000
,
001000
000001
100001
000100
001000
000010
010010
000000
,
100000
001000
010001
000000
000001
001000
100010
000000
,
001000
000000
000100
010000
000001
000000
100000
000000
000100
000000
001000
000000
000001
000000
010001
000000
,
000100
100000
001000
000100
000110
000000
100001
000000
,
001000
000000
000100
010000
000010
000000
100000
001000
100000
000000
000001
000000
001001
000000
000001
000000
,
000100
001000
101000
001000
000100
000010
100010
000010
,
001000
000001
100000
000010
010000
001000
100000
001000
,
000100
000001
100000
000100
020020
000000
030030
000000
,
000001
100000
001000
010000
000010
010000
000100
000000
,
001001
000100
010000
000000
101000
000100
000010
000000
,
100000
000010
001000
000100
010000
000001
001000
000001
,
100000
000100
001000
000001
000404
000000
000303
000000
,
100000
001000
000100
001000
100000
000010
010000
000000
,
000001
010000
000010
000000
001100
100000
000001
000000
,
001000
000000
000100
010000
000001
000000
100000
000000
001000
000000
100000
000000
000010
000000
000100
000000
,
001001
000100
001000
100000
400400
000000
300300
000000
,
010000
000010
100001
001000
000001
000100
000002
000003
,
100000
000010
000200
000300
001000
100000
000020
000030
,
010001
001000
000100
100000
001000
000100
000010
010000
,
000001
000000
001000
000100
100000
000000
000001
000000
200000
000000
000000
000000
000200
000000
300300
000000
,
000010
100000
001000
000100
100001
001000
000200
000300
,
010010
000100
000020
000030
101000
000100
020000
030000
,
000001
100000
000001
000000
000100
000000
001000
000000
000001
000000
000010
000000
000001
000000
100000
000000
,
000100
001000
000001
000000
100000
000000
000010
000000
004400
000000
000000
000000
003300
000000
000000
000000
,
000001
000000
100000
000100
001000
000000
000010
000000
010000
000000
000100
000000
001000
000001
001000
000000
,
000100
000000
100000
000000
001000
010000
001000
000000
100000
000000
000010
000000
001000
000001
001000
000000
,
000100
100000
001000
000100
000010
010000
000001
001000
,
001100
100000
000001
000001
400004
000000
300003
000000
,
000100
001000
000010
010000
000001
000000
100000
000000
101000
000000
000100
000000
001000
000001
001000
000000
,
000100
000000
100000
000000
000010
100000
000010
000000
001000
000000
000001
000000
000100
000010
000100
000000
,
101000
000001
010000
000100
100000
001000
010000
000010
,
001000
001000
000100
000000
400040
000000
300030
000000
,
002000
003002
020003
030020
,
200030
300200
002300
003020
,
020030
030002
000203
002300
,
103000
000001
001000
000010
200020
000000
300030
000000
,
020000
030002
000203
002300
,
203000
300200
020300
030020
,
002030
003200
020300
030002
,
001003
000100
100000
000001
200002
000000
300003
000000
,
001200
002300
003020
020030
,
030002
000000
001003
000100
200000
000000
302000
000000
,
023000
000000
030010
001000
000001
100000
000100
001000
,
000001
010000
000010
100000
000001
000000
100002
000000
,
200003
300002
000203
000320
,
020030
032000
203000
300002
,
002003
003020
020030
030100
,
400400
000000
000000
000300
000040
000000
000000
300030
,
001000
000001
010000
000100
100000
000001
100000
000000
,
000100
001000
000100
000000
010000
000010
010000
000000
,
100000
001000
000100
000001
010000
000010
010000
001000
,
000100
001000
100000
000001
200000
000100
000100
300000
,
001000
000001
100000
000001
000100
000001
000100
000000
,
001000
100000
000001
000100
000001
100000
000010
000000
,
010000
001000
100000
000001
000100
000010
010000
000001
,
100000
000100
001000
000100
004400
000000
003300
000000
,
010000
000100
001000
000001
100000
000100
002000
000000
,
003010
010000
000020
000000
000130
001000
000200
000000
,
100300
001000
100000
000001
000100
000001
000100
000000
,
001000
000100
001000
000000
200000
000000
300000
000000
,
000010
010000
000010
100000
001000
000100
001000
100000
,
000001
100000
000001
000000
000100
001000
000100
000000
,
010000
000001
100000
001000
000100
000010
010000
000000
,
000001
100000
000001
000000
004400
000000
003300
000000
,
100000
000001
100000
000100
001000
000100
010000
000000
,
000010
010000
000010
000000
001000
000100
001000
000000
,
000001
100000
001000
100000
000100
001000
000001
001000
,
000100
010000
000010
010000
000010
000000
010010
000000
,
100000
001000
000100
000001
010000
000010
010000
000000
,
000100
001000
000001
000000
100000
000100
010000
000000
,
000010
010000
001000
100000
000001
100000
000001
000100
,
000001
100000
001000
000000
004400
000000
003300
000000
,
100000
100001
001000
001000
,
000010
010010
000100
000100
,
100000
001000
100000
000001
001000
000001
000100
001000
,
100000
000010
010000
000001
000100
001000
000100
001000
,
100000
100010
001000
001000
,
000001
010001
000100
000100
,
100000
000001
100000
000100
001000
000001
010000
000010
,
100000
001000
000100
001000
000100
000001
100000
000001
,
100000
000100
001000
000001
010000
000000
010010
000000
,
000100
001000
000001
100000
000010
000000
100010
000000
,
001000
000001
100000
000100
001000
000000
001100
000000
,
100000
001000
000100
000001
100000
000000
100001
000000
,
002000
000000
003100
010000
000010
100000
000001
000000
,
200002
020020
330033
000000
000000
000000
000000
000000
;

//---------------dance-single - ----------------
#NOTES:
     dance-single:
     :
     Challenge:
     12:
     0.877234,0.902526,0.699901,0.336745,0.369759,930.000000,823.000000,106.000000,51.000000,16.000000,1.000000,0.877234,0.902526,0.699901,0.336745,0.369759,930.000000,823.000000,106.000000,51.000000,16.000000,1.000000:
0001
1000
0010
0100
0100
0001
0101
0000
,
1000
0010
1010
0000
0100
0010
0110
0000
,
0001
0100
0010
0100
0100
0001
1000
0100
,
0010
0000
1000
0001
1000
0000
0010
0000
0110
0000
0000
0000
1001
0000
0000
0000
,
0100
0001
1000
0001
0010
0010
0011
1000
,
0100
0100
1100
0010
0100
0100
0110
0000
,
0100
0000
0001
1000
0001
0000
0010
0000
0100
0000
1000
0100
1000
0000
0010
0000
,
0100
0000
0010
1000
0001
0000
0100
0000
0101
0000
0000
0000
1010
0000
0000
0000
,
0100
0000
0001
1000
0010
0100
0001
0000
1000
0000
0100
1000
0010
0100
0001
0000
,
1000
0000
0010
0100
0001
0010
0100
0000
0010
0000
0001
1000
0010
0100
0001
0000
,
0100
0000
0010
1000
0100
1000
0001
0000
0100
0010
0100
0000
0110
0000
0100
0000
,
0001
0000
1000
0001
0100
0010
0100
0001
1000
0000
0000
0000
0110
0100
0010
0000
,
1000
0000
0100
0000
1000
0000
0001
0000
0100
0010
0100
0000
0001
1000
0001
0000
,
0100
0010
1000
0100
0010
0100
1000
0000
0001
0000
0100
0001
0010
0100
1000
0000
,
0010
0000
0110
0000
1000
0100
0010
0000
0100
0000
0001
0010
0001
1000
0100
0000
,
0010
0000
0100
0001
0010
0000
0001
0000
1001
0000
0100
0000
0110
0000
0000
0000
,
0100
0000
0001
0100
0010
0000
1000
0100
0010
0000
0001
0000
1001
0000
0100
0000
,
0110
0000
1000
0000
1100
0000
0001
0000
0100
0010
1000
0100
0010
0000
0110
0000
,
0100
0000
0101
0000
0010
0000
0100
0001
0100
0000
0010
0000
1010
0000
0100
0000
,
0010
0000
0100
0001
1000
0010
0100
0000
0110
0000
1000
0000
1001
0000
0010
0100
,
0001
0000
1000
0000
0110
0000
0100
0001
0010
0000
1000
0000
1001
0000
1000
0000
,
0001
0000
0010
0000
0011
0000
0100
0010
1000
0000
0100
0000
0110
0000
0100
0000
,
1000
0002
0013
0002
0103
0020
1030
2000
,
3010
0000
0200
0000
0301
0000
1000
0000
1000
0010
0100
0001
1000
0010
0100
0001
,
0010
0001
1100
0010
0100
0101
0010
0000
,
1100
0000
0010
0000
0001
0000
0000
0000
0100
0010
1000
0000
0101
0000
0000
0000
,
0100
1010
0100
0001
0010
0100
1000
0010
,
0110
0000
0000
0001
0000
0000
1001
0000
0000
0100
0000
0000
M01M
0100
0010
M10M
0010
0100
M01M
0000
0000
0000
0000
0000
,
1000
0101
0010
1000
0101
0010
1100
0000
,
0010
0100
0001
0000
1100
0010
0100
0000
,
0001
1000
0001
0000
0010
0000
0110
0000
1000
0100
0010
0001
1000
0000
1001
0000
,
0001
0000
0000
1000
0000
0000
0100
0000
0000
1000
0000
0000
0MM1
1000
0001
1MM0
0001
1000
0MM1
0000
0000
0000
0000
0000
,
0100
0010
1100
0001
0110
1000
0002
0003
,
0100
0000
0010
1000
0002
0000
0003
0000
0100
0000
0010
1000
0200
0000
0300
0000
,
1000
0100
0000
0000
0000
0000
0000
0000
0010
0000
0000
0000
0000
0000
0000
0000
0001
0000
0000
0000
0000
0000
0000
0000
1000
0000
0000
0000
0000
0000
0000
0000
0010
0000
0000
0000
0000
0000
0000
0000
0100
0000
0000
0000
0000
0000
0000
0000
1001
0000
0000
0000
0000
0000
0000
0000
0000
0000
0000
0000
0000
0000
0000
0000
,
0010
0100
0001
1000
0010
0000
0100
0000
0201
0000
0001
0000
0301
0000
0000
0000
,
2000
0000
3010
0000
0101
0000
0100
0010
1000
0000
0001
0000
0002
0000
0003
0000
,
0100
0010
2000
3000
0100
0010
0002
0003
,
1000
0010
0100
0001
1000
0000
0010
0100
0010
0000
0110
0000
2002
0000
3003
0000
,
0100
0000
0000
0101
0000
0000
1100
0000
0000
0000
0000
0000
0010
0100
0010
0100
0001
1000
0001
1000
0001
0000
0000
0000
,
0100
0000
0010
0000
0110
0000
1000
0100
1000
0000
0001
0000
0100
0010
1000
0000
,
0010
0100
0001
0000
1000
0100
0010
0000
0100
0000
0101
0000
1000
0010
1000
0000
,
0100
0010
1000
0100
0010
0110
1000
1001
,
0010
0000
0100
0000
0001
0000
1000
0000
0010
0100
0001
1000
0100
0010
0001
1000
,
0010
0000
0100
0000
0101
0000
1000
0100
1000
0010
0100
0000
0001
1000
0010
0000
,
0100
0000
1001
0000
0010
1000
0100
0000
0010
0000
0101
0000
0010
0100
1000
0000
,
0100
0000
0101
0000
0010
0000
1010
0000
0100
0000
0001
1000
0010
0100
0010
0000
,
0001
0100
0001
1000
0010
0100
0010
0000
4004
0000
0000
0000
0000
0000
3003
0000
,
0120
0100
2030
0010
3002
1000
0023
0001
,
0230
0010
2300
0100
3002
1000
0203
0001
,
0320
0100
2030
0010
3200
1000
2300
0100
,
3010
0000
1000
0100
1000
0001
1000
0000
0110
0000
1001
0000
1001
0000
0000
0000
,
0012
0010
0203
0001
0320
0100
2030
0010
,
3200
1000
0320
0100
0032
0010
0203
0001
,
0320
0000
0100
0000
2030
0000
0010
0000
3000
0000
1000
0000
0010
0100
0001
0000
,
1100
0000
0010
0100
0001
0000
0100
0000
0101
0000
1100
0000
0010
0000
0010
0000
,
2000
0100
3020
0100
2030
0001
3002
1000
,
1003
0010
0100
0001
1001
0100
1001
0000
,
0100
0001
1100
0010
0100
0101
1100
0000
,
0010
0000
0100
0000
0110
0000
0100
0000
1001
0000
0000
0000
0010
0100
0001
1000
,
0002
1000
0203
0001
0320
0100
2030
0010
,
3002
1000
0023
0001
0230
0010
2300
0100
,
3010
0000
1000
0001
1000
0000
0010
0000
0100
0000
0010
0000
0110
0000
0000
0000
,
1000
0001
1000
0000
0100
0010
0001
0000
0100
0010
1000
0100
0010
0001
1000
0010
,
0100
1000
0101
0010
1100
0010
0110
0000
,
1000
0100
0101
0000
0001
0100
1100
0000
,
0010
0100
0001
1000
0100
1000
0010
0100
,
0001
1000
0001
0000
0010
0000
0000
0000
0440
0000
0000
0000
0000
0000
0330
0000
,
0001
0100
0010
1000
0100
1100
1100
0000
,
0010
0100
1001
0000
0001
0100
1010
0000
,
0100
0001
1000
0100
1000
0010
0100
0001
,
0010
0100
1000
0001
0044
0000
0000
0033
,
1000
0010
0100
0010
1000
0001
1000
0010
,
0100
0000
0001
0000
1000
0000
0000
0000
0010
0100
0001
0000
1000
0000
0000
0000
,
0010
0100
0011
0100
1000
0001
1001
0000
,
0010
1000
0001
0000
0100
0000
0000
0000
0440
0000
0000
0000
0000
0000
0330
0000
,
0001
1000
0110
1000
0101
0010
0101
0000
,
1000
0100
0011
0000
0100
0010
1100
0000
,
0010
0100
0010
1100
0001
0100
0001
0000
,
0100
0010
1001
0000
4004
0000
0000
3003
,
0010
0100
0010
1000
0100
1000
0001
0001
,
0010
0100
1001
0000
0100
0010
1001
0000
,
0100
0001
0010
0010
1000
0100
0010
0001
,
1000
0001
0010
0000
1001
0000
1001
0000
,
0100
0100
0010
1000
0001
0100
0001
0010
,
0100
1000
0010
0010
0100
0001
0010
0010
,
1000
0100
0010
0001
1000
0010
0100
0100
,
0010
1000
0001
1000
0004
0000
0000
0003
,
1000
0000
1001
0000
0010
0100
0010
0000
,
0001
0000
1001
0000
0010
0100
0010
0000
,
1000
0010
0100
0001
1000
0010
0100
0010
,
1000
0001
0100
0001
4000
0000
0000
0000
,
3010
0000
0101
0000
0010
1000
0001
0000
,
0010
0000
1100
0000
0010
0001
1000
0000
,
0001
1000
0001
0010
0100
1000
0001
1000
,
0010
0100
0010
0100
0001
0100
0010
1000
,
0001
0000
0100
0000
0010
0000
1000
0000
0001
0000
0000
1000
0000
0000
0001
0000
,
0010
0000
0100
0000
0001
0000
1000
0000
0010
0000
0000
0100
0000
0000
0001
0000
,
1000
0000
0010
0000
0100
0000
0010
0000
0100
0000
0000
0001
0000
0000
1000
0000
,
0010
0000
0100
0000
0001
0000
1000
0000
0001
0000
0000
0010
0000
0000
0100
0000
,
2000
0000
0000
0000
3001
0000
0100
0010
1000
0000
0010
0100
0002
0000
0000
0000
,
1003
1101
MMMM
0000
0000
0000
0000
0000
;

//---------------dance-single - ----------------
#NOTES:
     dance-single:
     :
     Easy:
     5:
     0.366929,0.466821,0.237702,0.224497,0.000000,389.000000,353.000000,36.000000,34.000000,0.000000,0.000000,0.366929,0.466821,0.237702,0.224497,0.000000,389.000000,353.000000,36.000000,34.000000,0.000000,0.000000:
0001
1000
0010
0010
,
0100
0100
0001
0001
,
1000
0100
0001
0100
,
1000
0010
0010
0000
,
0001
0100
0010
1000
,
0001
0001
1000
1000
,
0100
1000
0010
0100
,
0001
1000
0001
0000
,
0001
0100
0010
1000
,
0100
0000
0100
0000
1000
0000
0001
1000
,
0001
0010
0010
0100
,
0001
1000
0001
1001
,
0001
0000
0100
0000
0010
0000
0010
0100
,
0010
1000
0001
0001
,
0100
0001
0100
0010
,
1000
0010
0100
0110
,
0001
0100
1000
0100
,
0001
1000
0001
1000
,
0010
0010
0100
0001
,
1000
0010
0110
0000
,
0001
0001
1000
1000
,
0010
0100
0001
0100
,
0002
0003
2000
3000
,
0010
0010
1001
0000
,
0001
0100
0010
0010
,
1000
0001
1001
0000
,
0001
0100
1000
0100
,
0010
0010
0020
0030
,
0001
1000
0001
0001
,
1000
0100
0010
0010
,
0001
1000
0010
0110
,
1000
0100
0020
0030
,
0001
1000
0001
0002
,
1003
2000
3001
0002
,
0013
0100
1000
0010
,
0100
0110
1001
0000
,
0001
0100
1000
2000
,
3100
0200
0301
0002
,
0103
0010
0100
0010
,
0110
1001
2002
3003
,
0010
0000
0010
0000
0100
0000
0010
0100
,
0010
0000
0100
0010
0100
0000
0010
0000
,
1000
0001
0100
0100
,
0001
0000
1000
0000
0010
0010
0010
0010
,
1000
0100
0001
0100
,
0010
1001
0100
1001
,
0001
1000
0001
0000
1000
0001
1000
0000
,
0010
0100
0110
0110
,
0002
0003
2000
3000
,
0200
0300
0020
0030
,
0010
0100
0010
0100
,
0010
0010
0010
0000
,
0200
0300
2000
3000
,
0002
0003
0200
0300
,
0001
1000
0001
1000
,
0001
1000
1001
0000
,
0010
1000
0100
0000
,
0010
0001
0100
0000
,
1001
0000
0110
0000
,
1000
0100
0001
0000
,
0020
0030
0200
0300
,
0020
0030
0200
0300
,
0010
0100
0010
0100
,
0010
0100
0010
0100
0010
0100
0010
0000
,
0001
0101
1000
1100
,
0010
0010
0010
0000
,
1000
0001
1000
0001
,
0010
0100
0110
0000
,
1000
0001
0100
0010
,
1000
1000
0001
0001
,
1000
0010
0100
0001
,
0010
0100
2002
3003
,
1000
0001
1000
0001
,
1000
1000
1000
0000
,
0001
1000
0001
1000
,
0001
0001
0001
0000
,
0010
0100
0001
1000
,
0002
0003
2000
3000
,
0100
0010
0001
0100
,
0020
0030
0200
0300
,
0001
0001
0100
0000
,
1001
0000
1001
0000
,
1000
1000
0100
0000
,
0110
0000
0110
0000
,
0010
0100
0001
0000
,
0011
0000
0101
0000
,
0010
0100
1000
0000
,
1010
0000
1100
0000
,
0001
1001
0000
0000
,
1000
1001
0000
0000
,
0001
1000
0001
1000
,
0001
1000
0001
1000
,
0010
0110
0000
0000
,
0100
0110
0000
0000
,
0010
0100
0010
0100
,
0010
0100
0010
0100
,
0002
0000
0013
0100
,
2000
0000
3010
0100
,
0002
0000
1003
0100
,
2000
0000
3001
0100
,
0001
1000
0010
0110
,
1001
0000
0000
0000
;

//---------------dance-single - ----------------
#NOTES:
     dance-single:
     :
     Medium:
     8:
     0.482007,0.600941,0.112248,0.224497,0.006603,511.000000,494.000000,17.000000,34.000000,0.000000,0.000000,0.482007,0.600941,0.112248,0.224497,0.006603,511.000000,494.000000,17.000000,34.000000,0.000000,0.000000:
0010
0001
0010
0000
0100
0100
1000
0000
,
0001
1000
0001
0000
0100
0000
0001
0000
,
1000
0000
0100
0000
0010
0100
0010
0000
,
0001
1000
1001
0000
,
0010
0100
0001
0000
1000
0001
1000
0000
,
0100
0100
0010
0000
0100
1000
0001
0000
,
0001
1000
0001
0000
0100
0000
0100
0001
,
1000
0000
0010
0100
0010
0000
0000
0000
,
0100
0001
1000
0000
1000
0010
1000
0000
,
0100
1000
0010
0000
0100
0001
0010
0000
,
1000
0000
0100
0000
1000
0100
0010
0000
,
0001
0010
0010
0000
0001
0000
0001
0000
,
0100
0010
1000
0000
0001
0010
0001
0000
,
1000
0000
1000
0000
0010
0100
0010
0000
,
0100
0001
0001
0000
0010
0001
1000
0000
,
0100
1000
0101
0000
,
0001
0010
0001
0100
0001
0000
1000
0000
,
0010
0100
0001
0000
1000
0000
1000
0000
,
0100
1000
0010
0100
0001
0000
0001
0000
,
1000
0001
1000
0010
1000
0000
0100
0000
,
0010
0001
0010
0000
0100
0000
0100
0000
,
1000
0010
0100
0000
0001
0000
0001
0000
,
0020
0031
2000
3010
,
0100
0001
1000
0000
0002
0000
1003
0000
,
0010
0000
0101
0000
1000
0001
1000
0000
,
0010
0000
1100
0000
0001
1000
0001
0000
,
0100
0001
0010
0100
1000
0000
0001
0000
,
1000
0010
0100
0000
0002
0000
0003
0000
,
0100
0010
1000
0000
0001
0100
0001
0000
,
1000
0100
0000
0100
1000
0000
0001
0000
,
0010
0000
0100
0000
0010
1000
0010
0100
,
0001
1000
0000
1000
0020
0000
0030
0000
,
1000
0000
0001
0000
0100
0100
0002
0000
,
0103
0100
0020
0000
1030
1000
0020
0000
,
0130
0001
1000
0000
0010
0000
0010
0000
,
0100
0001
1000
0001
2000
0000
0100
0000
,
3100
0010
0100
1000
0001
0000
0002
0000
,
1003
2000
3010
0020
,
0130
0001
0100
0000
0001
0100
0001
0000
,
1000
0001
1000
0001
2000
0000
3001
0000
,
0010
0001
1000
0000
0100
1000
0001
0000
,
0010
0010
0010
0000
0100
0100
0100
0000
,
1000
0001
0010
0000
0001
0100
0001
0000
,
0010
0000
0001
0000
1000
0000
0100
0000
0010
0100
0010
0000
0100
0010
0100
0000
,
1000
0001
1000
0000
0001
0100
0010
0010
,
0100
0001
2000
0000
3100
0010
0100
0000
,
1000
0001
1100
0000
0010
0001
0100
0000
,
0001
0001
0100
0001
2000
0000
3000
0000
,
0020
0130
0200
0301
,
0002
1003
2000
3100
,
1000
0001
0100
0100
,
0010
0100
0010
0100
0010
0000
0000
0000
,
2000
3100
0200
0310
,
0020
0031
0002
1003
,
0001
1000
0100
0000
1000
0001
0100
0000
,
0001
1000
0001
1000
0001
0000
0000
0000
,
0020
0130
0200
1300
,
1000
0000
0001
1000
0001
0000
0100
0000
,
0010
0000
0100
0001
0010
0000
0100
0000
,
1000
0000
0001
0000
1000
0000
0001
0001
,
0002
0103
0200
0310
,
0020
1030
2000
3001
,
1000
0001
0100
0000
0010
0100
0001
0010
,
0100
0001
1001
0000
,
0010
0100
0001
0000
1000
0000
1100
0000
,
0010
0100
0001
0101
,
1000
0001
1000
0000
0010
0000
0010
0000
,
0100
0001
1000
0000
0002
0000
1003
0000
,
0010
0100
0001
0000
0010
0000
0020
0000
,
0130
1000
0001
0000
0001
0000
1000
0000
,
0010
0100
0001
0100
,
0010
1000
0100
0010
0002
0000
0003
0000
,
0010
0000
0010
0000
0100
0001
0010
0000
,
0100
1000
0001
0001
,
0100
0010
1000
0000
0001
0000
1000
0000
,
0001
1000
1001
0000
,
0010
0000
0100
0000
0010
0100
0001
0000
,
1000
0000
0100
0000
0010
0100
0010
0000
,
0001
0100
1000
0100
,
0001
1000
1001
0000
,
0010
0100
0001
0000
0010
0001
0010
0000
,
0100
1000
0001
0010
,
0100
1000
0100
0000
0010
0000
0010
0000
,
0001
1000
0001
1000
0001
0000
0000
0000
,
0010
0000
0100
0000
0001
0100
0001
0000
,
1000
0010
1000
0001
,
0100
0001
0100
0000
0010
0000
1000
0000
,
0001
1000
0001
1000
0001
0000
0000
0000
,
0001
0101
0000
0000
,
1000
1100
0000
0000
,
0010
0100
0001
0010
,
0100
1000
0001
1000
,
0001
0011
0000
0000
,
1000
1010
0000
0000
,
0100
0001
1000
0100
,
0010
0010
0100
1000
,
0002
0100
1003
0010
,
2000
0100
3001
0010
,
0100
1000
0001
0000
0100
0001
1000
0000
,
0010
0100
0110
0110
,
1001
0100
0001
1000
,
0010
0010
0000
0000
0000
0000
0000
0000
;

//---------------dance-double - ----------------
#NOTES:
     dance-double:
     :
     Easy:
     6:
     0.364099,0.466821,0.211291,0.231099,0.000000,386.000000,354.000000,32.000000,35.000000,0.000000,0.000000,0.364099,0.466821,0.211291,0.231099,0.000000,386.000000,354.000000,32.000000,35.000000,0.000000,0.000000:
// measure 0
00001000
00010000
00000100
00000100
,  // measure 1
00000010
00000010
00000001
00000001
,  // measure 2
00001000
00000100
00000001
00000100
,  // measure 3
00001000
00010000
00100000
00000000
,  // measure 4
00010000
00100000
00001000
00010000
,  // measure 5
00000100
00000100
00000010
00000010
,  // measure 6
00000100
00001000
00000001
00000100
,  // measure 7
00001000
00010000
00001000
00000000
,  // measure 8
00010000
01000000
00100000
00001000
,  // measure 9
00010000
00000000
00000100
00000000
00000010
00000000
00000001
00001000
,  // measure 10
00000001
00000100
00001000
00010000
,  // measure 11
00000100
00001000
00000001
00001001
,  // measure 12
00000100
00000000
00010000
00000000
00001000
00000000
00100000
01000000
,  // measure 13
00100000
00001000
00010000
00000100
,  // measure 14
00000010
00000001
00000010
00000100
,  // measure 15
00001000
00000010
00000100
00000110
,  // measure 16
00001000
00000100
00000001
00000100
,  // measure 17
00010000
00001000
00010000
00001000
,  // measure 18
00100000
00100000
00010000
10000000
,  // measure 19
01000000
00100000
01100000
00000000
,  // measure 20
00010000
00100000
00001000
00010000
,  // measure 21
00000100
00000010
00000001
00001000
,  // measure 22
00000200
00000300
00000020
00000030
,  // measure 23
00001000
00010000
00011000
00000000
,  // measure 24
00010000
01000000
10000000
00100000
,  // measure 25
01000000
00010000
00100000
00100000
,  // measure 26
00001000
00010000
00000100
00000010
,  // measure 27
00000100
00000100
00000220
00000330
,  // measure 28
00010000
00001000
00010000
00010000
,  // measure 29
00001000
00000100
00000010
00000010
,  // measure 30
00001000
00000001
00000010
00000110
,  // measure 31
00000100
00010000
00002000
00003000
,  // measure 32
00010000
00001000
00010000
00020000
,  // measure 33
00031000
00002000
00013000
00020000
,  // measure 34
01030000
10000000
00010000
00100000
,  // measure 35
01000000
01100000
10010000
00000000
,  // measure 36
00010000
00100000
00001000
00002000
,  // measure 37
00013000
00020000
00030100
00000200
,  // measure 38
00000310
00000100
00001000
00000010
,  // measure 39
00010000
00001000
00022000
00033000
,  // measure 40
00010000
00000000
01000000
00000000
10000000
00000000
00010000
10000000
,  // measure 41
00010000
00000000
10000000
00010000
10000000
00000000
01100000
00000000
,  // measure 42
01000000
00010000
00100000
00001000
,  // measure 43
00010000
00000000
00000100
00000000
00000010
00000010
00000010
00000010
,  // measure 44
00000001
00000100
00001000
00010000
,  // measure 45
00001000
00011000
00010000
00011000
,  // measure 46
00010000
00001000
00010000
00000000
00001000
00010000
00001000
00000000
,  // measure 47
00000100
00000001
00001000
00001001
,  // measure 48
00000200
00000300
00002000
00003000
,  // measure 49
00000002
00000003
00000020
00000030
,  // measure 50
00000100
00000010
00000100
00000010
,  // measure 51
00000100
00010000
00001000
00000000
,  // measure 52
00020000
00030000
02000000
03000000
,  // measure 53
20000000
30000000
00200000
00300000
,  // measure 54
10000000
00010000
10000000
00010000
,  // measure 55
10000000
00010000
01100000
00000000
,  // measure 56
00100000
00010000
00001000
00000000
,  // measure 57
00010000
00001000
00000100
00000000
,  // measure 58
00000110
00000000
00001001
00000000
,  // measure 59
00000001
00000100
00001000
00000000
,  // measure 60
00020000
00030000
00002000
00003000
,  // measure 61
00020000
00030000
00002000
00003000
,  // measure 62
00010000
00001000
00010000
00001000
,  // measure 63
00010000
00001000
00010000
00001000
00010000
00001000
00010000
00000000
,  // measure 64
00001000
01001000
00010000
00010100
,  // measure 65
00000010
00000010
00000010
00000000
,  // measure 66
00000001
00001000
00000001
00001000
,  // measure 67
00000100
00000010
00001001
00000000
,  // measure 68
00001000
00000100
00010000
00100000
,  // measure 69
10000000
00010000
00100000
00010000
,  // measure 70
10000000
00100000
01000000
00100000
,  // measure 71
00010000
00001000
00022000
00033000
,  // measure 72
00001000
00010000
00001000
00010000
,  // measure 73
00001000
00001000
00001000
00000000
,  // measure 74
00010000
00001000
00010000
00001000
,  // measure 75
00010000
00010000
00010000
00000000
,  // measure 76
00000100
00000010
00000001
00001000
,  // measure 77
00000002
00000003
00002000
00003000
,  // measure 78
00000100
00000010
00000100
00000010
,  // measure 79
00002000
00003000
00020000
00030000
,  // measure 80
00001000
00001000
01000000
00000000
,  // measure 81
00011000
00000000
00011000
00000000
,  // measure 82
00010000
00010000
00000100
00000000
,  // measure 83
00000110
00000000
00000110
00000000
,  // measure 84
00000010
00000100
00001000
00000000
,  // measure 85
00001010
00000000
00001100
00000000
,  // measure 86
00000010
00000100
00000001
00000000
,  // measure 87
00000010
00000000
00001000
00000000
,  // measure 88
00010000
00011000
00000000
00000000
,  // measure 89
00001000
00011000
00000000
00000000
,  // measure 90
00010000
00001000
00010000
00001000
,  // measure 91
00010000
00001000
00010000
00001000
,  // measure 92
00000100
00000110
00000000
00000000
,  // measure 93
00000010
00000110
00000000
00000000
,  // measure 94
00000010
00000100
00000010
00000100
,  // measure 95
00000010
00000100
00000010
00000100
,  // measure 96
00020000
00000000
00130000
00001000
,  // measure 97
00020000
00000000
00030100
00000010
,  // measure 98
00002000
00000000
00013000
00000100
,  // measure 99
00002000
00000000
00003001
00000010
,  // measure 100
00000001
00001000
00000010
00000110
,  // measure 101
00001001
00000000
00000000
00000000
;
