#TITLE:In the Hall of the Pixel King;
#SUBTITLE:(SM5-Special);
#ARTIST:Dancing Bros.;
#TITLETRANSLIT:;
#SUBTITLETRANSLIT:;
#ARTISTTRANSLIT:;
#GENRE:;
#CREDIT:;
#BANNER:In The Hall Of The Pixel King (SM5-Special).png;
#BACKGROUND:In The Hall Of The Pixel King (SM5-Special)-bg.png;
#LYRICSPATH:;
#CDTITLE:;
#MUSIC:In the Hall of the Pixel King.ogg;
#OFFSET:-0.3;
#SAMPLESTART:114.000000;
#SAMPLELENGTH:15.000000;
#SELECTABLE:YES;
#BPMS:0.000000=90.000000
,16.000000=100.000000
,32.000000=106.000000
,48.000000=110.000000
,64.000000=118.000000
,80.000000=124.999992
,96.000000=140.000000
,128.000000=150.000000
,160.000000=160.000000
,192.000000=180.000000
,256.000000=220.000000
,288.000000=240.000000
,320.000000=270.000000
,352.000000=290.000000
,400.000000=145.000000
;
#STOPS:
;
#BGCHANGES:;
#KEYSOUNDS:;
#ATTACKS:;

//---------------dance-single - ----------------
#NOTES:
     dance-single:
     :
     Challenge:
     12:
     0.834788,0.970576,0.475404,0.508419,0.415979,885.000000,813.000000,72.000000,77.000000,0.000000,0.000000,0.834788,0.970576,0.475404,0.508419,0.415979,885.000000,813.000000,72.000000,77.000000,0.000000,0.000000:
// measure 0
0001
0010
0100
0001
0100
1000
1001
0000
,  // measure 1
0100
0001
0011
0000
0100
1000
1010
0000
,  // measure 2
1000
0100
0010
0001
0010
0010
0100
0001
,  // measure 3
0100
0000
1000
0000
0010
0000
0100
0000
0002
0000
0000
0003
1010
0000
0000
0000
,  // measure 4
0100
0001
0010
0010
0100
1000
1100
0000
,  // measure 5
0001
1000
0010
0000
0100
0001
0101
0000
,  // measure 6
0001
0010
0100
1000
0001
0001
1000
0010
,  // measure 7
0100
0000
0001
0000
1000
0000
0100
0000
0020
0000
0000
0030
1001
0000
0000
0000
,  // measure 8
0001
0100
0010
1000
0100
1000
1100
0000
,  // measure 9
0001
0010
0011
0000
0010
0100
1001
0000
,  // measure 10
0100
0100
0001
0010
0001
1000
1100
0000
,  // measure 11
0011
0000
1000
0000
0010
0000
0100
0000
0110
0000
0000
0000
0100
0010
0100
0000
,  // measure 12
1010
1000
0100
0010
0001
0010
0011
0000
,  // measure 13
0100
1000
1100
0000
1001
0010
0110
0000
,  // measure 14
0100
0001
0010
0100
1000
0010
1010
0000
,  // measure 15
0011
0000
1000
0000
0010
0000
0100
0000
1001
0000
0000
0000
1001
1000
0001
0000
,  // measure 16
0100
0000
0001
0100
0001
0000
1000
0000
0010
0000
1000
0100
1000
0000
0100
0000
,  // measure 17
0010
0000
0001
1000
0001
0000
1000
0000
0010
0000
1000
0001
1000
0000
0100
0000
,  // measure 18
0010
0000
0001
0010
0100
0000
1000
0000
0001
0000
1000
0100
0010
0000
0010
0000
,  // measure 19
0100
0000
1000
0001
0100
0000
0001
0000
0010
0000
0001
1000
0001
0000
1000
0000
,  // measure 20
0100
0000
0010
0001
0010
0000
0100
1000
0100
0000
1000
0001
1000
0000
0010
0000
,  // measure 21
0010
0000
1000
0100
0010
0000
0001
0000
0001
0000
0100
0001
0010
0000
0001
0010
,  // measure 22
0100
2000
0100
3002
1000
0023
0001
0230
,  // measure 23
0010
0000
2300
0000
0010
0000
3002
0000
0100
0000
0103
0010
1000
0001
0100
0000
,  // measure 24
0101
0010
1010
1000
1100
0010
0011
0000
,  // measure 25
1001
1000
0010
0000
0110
0100
0001
0000
,  // measure 26
0011
0001
1000
0100
1100
0001
1000
0010
,  // measure 27
1010
0000
0101
0000
4004
0000
0000
3003
,  // measure 28
1100
0100
0010
0001
0011
1000
1001
0000
,  // measure 29
1010
0000
0100
0000
0001
0000
0000
0000
0101
0000
0010
0000
1001
0000
1000
0001
,  // measure 30
0100
0010
1000
1000
0100
0010
0001
0001
,  // measure 31
1000
0000
0100
0010
0001
0000
0010
0000
0440
0000
0000
0000
0000
0000
0330
0000
,  // measure 32
1100
0010
0001
0100
0101
0010
0220
0330
,  // measure 33
1000
0010
2020
3030
0001
0010
0022
0033
,  // measure 34
0001
0100
0000
0000
0000
0000
0000
0000
0010
0000
0000
0000
0000
0000
0000
0000
1000
0000
0000
0000
0000
0000
0000
0000
0100
0000
0000
0000
0000
0000
0000
0000
1000
0000
0000
0000
0000
0000
0000
0000
0010
0000
0000
0000
1000
0000
0000
0000
0010
0000
0000
0000
0000
0000
0000
0000
0100
0000
0000
0000
0000
0000
0000
0000
,  // measure 35
0001
0000
0010
0001
0010
0000
0100
0000
0020
0000
0001
0000
0100
0000
0031
0000
,  // measure 36
0011
0000
0010
0100
1000
0000
0100
1000
0001
0000
0100
0000
0202
0000
0303
0000
,  // measure 37
0010
1000
2200
3300
0100
0010
0220
0330
,  // measure 38
0010
0000
0001
0000
0100
0001
1000
0000
0100
0000
1000
0010
1000
0000
0100
0000
,  // measure 39
0010
0000
0001
0000
1000
0000
0100
0000
0020
0030
0004
4000
0000
0000
3003
0000
,  // measure 40
0100
0000
1000
0000
0010
0000
0100
0000
0001
0000
0001
0000
0100
0001
0100
0000
,  // measure 41
0010
0000
0010
0000
1000
0010
1000
0000
0100
0000
0010
0000
0100
1000
0100
0000
,  // measure 42
1000
0001
0100
0010
0110
0100
0001
1000
,  // measure 43
1001
0000
0010
0000
0100
0000
0001
0000
1000
0100
1000
0010
0100
0001
0010
0100
,  // measure 44
1000
0010
1000
0010
1000
0000
0001
0100
0001
0010
0100
0000
1000
0100
0010
0000
,  // measure 45
0001
0100
0001
0010
0100
0000
1000
0010
1000
0001
0100
0000
0010
0100
0010
0000
,  // measure 46
1000
0000
0100
0000
0110
0000
0010
0001
0010
0000
0001
0000
1001
0000
1000
0010
,  // measure 47
0100
0001
1000
0100
0020
0032
2003
3020
,  // measure 48
0130
0002
0000
0003
0001
2000
0000
3000
1000
0200
0000
0300
0100
0020
0000
0000
,  // measure 49
0130
1000
0100
1000
0001
1000
0001
1000
0001
0010
0001
0010
0001
0100
0001
0100
,  // measure 50
0010
2000
0000
3000
1000
0002
0000
0003
0001
0020
0000
0030
0010
0200
0000
0000
,  // measure 51
0310
0000
0100
1000
0001
0000
0100
0000
0110
0000
0010
0000
1000
0010
1000
0010
,  // measure 52
1000
0200
0000
0300
0100
2000
0000
3000
1000
0002
0000
0003
0001
0020
0000
0030
,  // measure 53
0100
0010
0100
1000
0001
0100
0001
1000
0010
0100
0001
0010
0100
1000
0010
1000
,  // measure 54
0100
2000
0000
3000
1000
0200
0000
0300
0100
0020
0000
0000
0032
0000
1000
0000
,  // measure 55
2003
0000
3010
1000
0010
0000
0100
0000
0002
0000
0023
0000
0230
0000
2300
0000
,  // measure 56
3010
1000
1010
0000
0100
0001
0200
0000
,  // measure 57
0301
0000
0010
0000
0001
0000
1000
0100
1000
0000
0010
0000
0200
0000
0000
0000
,  // measure 58
0310
1000
0001
1000
1001
0000
0200
0000
,  // measure 59
0310
0000
1000
0001
1000
0000
0010
0000
0200
0000
0000
0000
0302
0000
2003
0000
,  // measure 60
3001
0010
0001
0010
0100
0000
0100
0000
1000
0010
1000
0010
0100
0000
0100
0000
,  // measure 61
0010
1000
0001
1000
0100
0000
0010
0000
0010
0001
1000
0001
0100
0000
0010
0000
,  // measure 62
1000
0100
1000
0100
1000
0010
1000
0000
0001
0100
0001
0100
0001
0010
0001
0000
,  // measure 63
1000
0100
0010
0001
0100
0010
1000
0001
0400
0040
0000
0000
0000
0000
0000
0330
,  // measure 64
0100
0000
0001
0000
0010
0000
0100
1000
0100
0000
1000
0000
0040
0000
0000
0030
,  // measure 65
1000
0000
0100
0000
0040
0000
0000
0030
0001
0000
1000
0000
4004
0000
0000
3003
,  // measure 66
0001
0000
0100
0010
0100
0000
1000
0000
0100
0000
0010
0000
0010
0000
0001
0000
,  // measure 67
0010
0000
1000
0000
0100
0000
0010
0000
0001
1000
0001
1000
0001
1000
0001
1000
,  // measure 68
0002
0000
0000
0000
0103
0000
0001
1000
0001
0000
1000
0000
0004
0000
0000
0003
,  // measure 69
0100
0000
0001
0000
4000
0000
0000
3000
0010
0000
0100
0000
0440
0000
0000
0330
,  // measure 70
0010
0000
0100
0000
0001
0000
1000
0000
0100
1000
0100
0000
0010
0000
0001
0000
,  // measure 71
0010
0001
0010
0000
0001
0000
1000
0000
0010
0100
0010
0100
0010
0100
0010
0100
,  // measure 72
0010
1000
0100
0001
0100
1000
0002
0000
,  // measure 73
1003
0010
2000
0000
3100
0010
0200
0000
,  // measure 74
0310
0010
0001
0100
1000
0100
0002
0000
,  // measure 75
1003
0000
0010
0000
2000
0000
3000
0000
4400
0000
0000
0000
0000
0000
0000
3300
,  // measure 76
0010
0001
1000
1000
0100
1000
0020
0000
,  // measure 77
0130
0001
2000
0000
3100
0010
0002
0000
,  // measure 78
0103
0100
0001
1000
0010
0010
0200
0000
,  // measure 79
0310
0000
1000
0000
0020
0000
0030
0000
0404
0000
0000
0000
0000
0000
0000
0303
,  // measure 80
0100
0001
0010
1000
0010
0100
1000
1000
,  // measure 81
0100
1000
0020
0000
0130
0001
0020
0000
,  // measure 82
0130
1000
0001
0100
0010
0100
0001
0001
,  // measure 83
1000
0000
0100
0000
0010
0000
0001
0000
0100
0000
0010
1000
0010
0000
0100
0001
,  // measure 84
0100
0001
0010
0100
1000
0010
0100
0100
,  // measure 85
0001
0010
0200
0000
1300
0001
0020
0000
,  // measure 86
0130
1000
0010
0001
0010
1000
0010
0010
,  // measure 87
0100
0000
0000
0001
0000
0000
1000
0000
0000
0100
0000
0000
1000
0000
0100
0000
0010
0000
0100
0000
0010
0000
0001
0000
,  // measure 88
0100
0000
0101
0000
0010
1000
0100
1000
,  // measure 89
0100
0000
1100
0000
0010
0001
0100
0001
,  // measure 90
1000
1000
0100
0010
0100
0100
0010
0001
,  // measure 91
0010
0010
0001
1000
0010
0100
0001
1000
,  // measure 92
0010
0000
2002
0000
0000
0000
0000
3003
,  // measure 93
1100
0000
0202
0000
0000
0000
0000
0303
,  // measure 94
0001
0010
0001
0001
1000
0010
1000
1000
,  // measure 95
0100
0010
0001
0010
1000
0010
0001
0100
,  // measure 96
0001
0000
0000
0000
1001
0000
0000
0000
1000
0010
1000
0000
0100
0000
0000
0000
,  // measure 97
1000
0000
0000
0000
1001
0000
0000
0000
0001
0010
0001
0000
0100
0000
0000
0000
,  // measure 98
0010
0000
0000
0000
0110
0000
0000
0000
0100
0001
0100
0000
0010
0000
0000
0000
,  // measure 99
0100
0000
0000
0000
0110
0000
0000
0000
0010
1000
0010
0000
1000
0000
0001
0000
,  // measure 100
0020
0000
0000
0000
0001
0000
0031
0000
0011
0000
1000
0000
2020
0000
0000
0030
,  // measure 101
3001
0220
0000
0330
0000
0000
0000
0000
;
