#TITLE:In The End;
#SUBTITLE:;
#ARTIST:Green Day;
#TITLETRANSLIT:;
#SUBTITLETRANSLIT:;
#ARTISTTRANSLIT:;
#GENRE:Punk;
#CREDIT:8Chasey 2025;
#MUSIC:In The End.ogg;
#BANNER:;
#BACKGROUND:;
#CDTITLE:;
#SAMPLESTART:2.030;
#SAMPLELENGTH:12.000;
#SELECTABLE:YES;
#OFFSET:-0.510;
#BPMS:0.000=275.000
,2.000=278.000
,4.000=261.000
,5.000=284.000
,8.000=276.700
,12.000=272.700
,16.000=271.200
,20.000=273.200
,24.000=275.500
,28.000=281.200
,32.000=278.800
,36.000=281.400
,40.000=274.000
,44.000=266.300
,48.000=266.800
,52.000=270.000
,56.000=272.500
,60.000=286.300
,64.000=283.300
,68.000=291.000
,72.000=278.000
,80.000=276.300
,84.000=278.000
,88.000=268.400
,92.000=274.140
,96.000=285.000
,100.000=259.900
,102.000=270.000
,106.000=260.000
,110.000=281.000
,114.000=272.500
,118.000=272.000
,122.000=271.200
,126.000=283.500
,130.000=290.000
,134.000=270.000
,138.000=282.600
,142.000=272.750
,146.000=271.700
,150.000=272.800
,154.000=271.800
,158.000=278.700
,162.000=283.200
,166.000=276.000
,170.000=267.300
,174.000=276.500
,178.000=277.400
,182.000=280.000
,186.000=289.200
,190.000=297.000
,198.000=282.500
,202.000=285.500
,206.000=280.800
,210.000=271.300
,214.000=268.000
,218.000=268.800
,222.000=275.700
,226.000=258.200
,228.000=275.000
,232.000=284.200
,236.000=285.000
,240.000=298.200
,244.000=283.900
,248.000=274.000
,252.000=264.500
,256.000=275.100
,260.000=272.800
,264.000=284.800
,268.000=270.300
,272.000=279.500
,276.000=289.800
,280.000=282.800
,288.000=278.900
,296.000=280.000
,300.000=279.800
,312.000=279.400
,316.000=281.400
,324.000=282.800
,336.000=279.400
,344.000=280.200
,360.000=281.400
,388.000=271.600
,392.000=283.200
,396.000=289.500
,404.000=280.000
,408.000=275.800
,416.000=270.000
,420.000=265.000
,424.000=273.600
,428.000=275.100
,433.000=266.600
,438.000=281.400
,442.000=267.600
,446.000=278.300
,450.000=271.300
,458.000=278.700
,466.000=292.000
,474.000=290.000
;
#STOPS:100.000=0.462
,226.000=0.465
,432.000=0.436
;
#DISPLAYBPM:280.000;
#BGCHANGES:;
#FGCHANGES:;

//--------------- dance-single - 8Chasey ----------------
#NOTES:
     dance-single:
     8Chasey:
     Beginner:
     3:
     0,0,0,0,0:
0000
0000
0000
0000
,
0000
0000
0000
0000
,
0100
0000
0000
0000
,
0001
0000
0001
0000
,
0100
0000
0000
0000
,
1000
0000
1000
0000
,
0100
0000
0000
0000
,
0010
0000
0000
0000
,
0100
0000
0000
0000
,
0000
0000
0000
0000
,
0010
0000
0000
0000
,
1000
0000
1000
0000
,
0010
0000
0000
0000
,
0001
0000
0001
0000
,
0010
0000
0000
0000
,
0100
0000
0000
0000
,
0010
0000
0000
0000
,
0000
0000
0000
0000
,
1000
0000
0000
0000
,
1000
0000
0000
0000
,
0001
0000
0000
0000
,
0001
0000
0000
0000
,
0100
0000
0000
0000
,
0010
0000
0000
0000
,
0100
0000
0000
0000
,
0000
0000
0001
0000
,
0000
0000
1000
0000
,
0000
0000
0010
0000
,
0000
0000
0100
0000
,
0000
0000
0010
0000
,
0000
0000
0000
0000
,
0000
0000
0100
0000
,
0000
0000
0001
0000
,
1000
0000
0001
0000
,
0000
0000
0010
0000
,
0010
0000
0001
0000
,
0000
0000
0100
0000
,
0100
0000
0001
0000
,
0000
0000
1000
0000
,
0000
0000
0001
0000
,
0000
0000
1000
0000
,
0001
0000
1000
0000
,
0000
0000
0100
0000
,
0100
0000
1000
0000
,
0000
0000
0010
0000
,
0010
0000
1000
0000
,
0000
0000
0001
0000
,
0000
0000
1000
0000
,
0001
0000
1000
0000
,
0001
0000
0100
0000
,
0000
0000
0100
0000
,
0000
0000
0010
0000
,
0000
0000
0010
0000
,
0000
0000
1000
0000
,
0000
0000
0001
0000
,
0000
0000
0100
0000
,
0000
0000
0000
0000
,
0100
0000
0000
0000
,
0010
0000
0000
0000
,
1000
0000
0000
0000
,
0001
0000
0000
0000
,
0010
0000
0000
0000
,
0010
0000
0000
0000
,
0100
0000
0000
0000
,
0100
0000
0000
0000
,
1000
0000
0000
0000
,
0001
0000
0000
0000
,
0100
0000
0000
0000
,
0010
0000
0000
0000
,
1000
0000
0000
0000
,
0000
0000
0000
0000
,
1000
0000
0000
0000
,
0000
0000
0000
0000
,
0001
0000
0000
0000
,
0000
0000
0000
0000
,
0001
0000
0000
0000
,
0000
0000
0000
0000
,
1000
0000
0000
0000
,
0001
0000
0000
0000
,
1000
0000
0000
0000
,
0000
0000
0000
0000
,
0001
0000
0000
0000
,
1000
0000
0000
0000
,
0001
0000
0000
0000
,
0000
0000
0000
0000
,
1000
0000
0000
0000
,
1000
0000
0001
0000
,
1000
0000
0000
0000
,
1000
0000
0000
0000
,
0001
0000
0000
0000
,
0001
0000
1000
0000
,
0001
0000
0000
0000
,
0001
0000
0000
0000
,
1000
0000
0001
0000
,
1000
0000
0001
0000
,
1000
0000
0000
0000
,
1000
0000
0000
0000
,
0001
0000
1000
0000
,
0001
0000
1000
0000
,
0001
0000
0000
0000
,
0001
0000
0000
0000
,
0100
0000
0100
0000
,
0100
0000
0000
0000
,
0010
0000
0010
0000
,
0010
0000
0000
0000
,
1000
0000
0000
0000
,
0001
0000
0000
0000
,
1000
0000
0001
0000
,
1000
0000
1000
0000
,
0000
0000
0001
0000
,
0000
0000
0001
0000
,
0000
0000
1000
0000
,
0000
0000
0010
0000
,
0000
0000
0010
0000
,
0000
0000
0100
0000
,
0000
0000
0100
0000
,
0000
0000
1000
0000
,
0010
0000
0100
0000
,
0001
0000
1001
0000
;

//--------------- dance-single - 8Chasey ----------------
#NOTES:
     dance-single:
     8Chasey:
     Easy:
     5:
     0,0,0,0,0:
0000
0000
0000
0000
,
0000
0000
0000
0000
,
0001
0000
0100
0000
,
0001
1000
0001
0000
,
1000
0000
0100
0000
,
1000
0001
1000
0000
,
0020
0000
0030
0000
,
0100
0000
0010
0000
,
0200
0000
0300
0000
,
0010
0100
0010
0000
,
1000
0000
0100
0000
,
1000
0001
1000
0000
,
0001
0000
0100
0000
,
0001
1000
0001
0000
,
0010
0000
0100
0000
,
0010
0100
0010
0000
,
0002
0000
2003
0000
,
3010
0000
0100
0010
,
0100
0000
0001
0000
,
0100
0000
0000
0000
,
0010
0000
1000
0000
,
0100
0000
0000
0000
,
1000
0010
1000
0000
,
0001
0100
0001
0000
,
1000
0000
0001
0000
,
0020
0130
1000
0000
,
0010
0000
1000
0000
,
0000
0000
0001
0000
,
0100
0000
0001
0000
,
0000
0010
0100
0000
,
0000
0000
1000
0000
,
0000
0100
0010
0000
,
0000
0000
0001
0000
,
1000
0000
0010
0000
,
1000
0000
0010
0100
,
0010
0000
0100
0000
,
0001
0000
0100
0010
,
0100
0000
0002
0000
,
0003
0000
1000
0000
,
0001
0000
2000
0000
,
3000
0000
0001
0000
,
0100
0001
0100
0000
,
0010
0000
1000
0010
,
1000
0000
0100
0000
,
0010
0000
0001
0010
,
0001
0000
1000
0000
,
0010
0000
0100
0000
,
0001
0000
0100
0000
,
0010
0000
0100
0010
,
0100
0000
0002
0000
,
0003
0000
0010
0000
,
0001
0000
2000
0000
,
3000
0000
0100
0000
,
1000
0000
0010
0000
,
0010
0000
0100
0000
,
0100
0000
0001
0000
,
1000
0000
1020
0130
,
0010
0000
0100
0000
,
0001
0000
0001
0000
,
0010
0000
0100
0000
,
1000
0000
1000
0000
,
1001
0000
0000
0001
,
0100
0000
0001
0000
,
0001
0000
0000
1000
,
0100
0000
1000
0000
,
1000
0000
0000
0010
,
0100
0000
0010
0000
,
0010
0000
0000
0100
,
0010
0000
0100
0000
,
0002
0000
0000
0000
,
1003
0000
0001
0000
,
2000
0000
0000
0000
,
3001
0000
1000
0000
,
0020
0000
0000
0000
,
0130
0000
0010
0000
,
0200
0000
0000
0000
,
0310
0000
0100
0000
,
0002
0000
0000
0000
,
0010
0000
0013
0000
,
0001
0000
0100
0000
,
0001
0000
0000
0000
,
2000
0000
0000
0000
,
0010
0000
3010
0000
,
1000
0000
0001
0000
,
1000
0000
0000
0000
,
0200
0000
0010
0000
,
0310
0000
0100
0000
,
1000
0000
0010
0000
,
1000
0000
0001
0000
,
0020
0000
0100
0000
,
0130
0000
0010
0000
,
0001
0000
0100
0000
,
0001
0000
1000
0000
,
0100
1000
0000
1000
,
0010
0000
1000
0000
,
0001
1000
0001
0000
,
0010
0000
0001
0000
,
0100
0001
0000
0001
,
1000
0000
0100
0000
,
0010
0100
0010
0000
,
0100
0010
0100
0000
,
0110
0000
0010
0000
,
0001
0000
0000
0000
,
0100
0001
0100
0000
,
0010
0000
1000
0000
,
0001
0000
0000
0001
,
1000
0000
0000
1000
,
0010
0000
1000
0000
,
0200
1300
0001
0000
,
0100
0000
0001
0010
,
0001
0000
1000
0000
,
0100
0000
1000
0010
,
1000
0000
1001
0000
,
0000
0000
0001
0100
,
0001
0000
0010
0000
,
0001
0000
1000
0100
,
1000
0000
0010
0000
,
0100
0000
0001
0000
,
1000
0000
1001
0000
;

//--------------- dance-single - 8Chasey ----------------
#NOTES:
     dance-single:
     8Chasey:
     Medium:
     7:
     0,0,0,0,0:
0000
0000
0000
0000
,
0000
0000
0000
0000
,
0001
0100
0001
0000
,
1000
0000
0000
0001
0000
0000
0001
0000
,
1000
0010
1000
0000
,
0001
0000
0000
1000
0000
0000
1000
0000
,
0100
0010
0100
0000
,
0010
0000
0000
0001
0000
0000
0001
0000
,
0100
0010
0100
0000
,
0010
0000
0000
1000
0000
0000
1000
0000
,
0100
1000
0001
0100
,
0010
0000
0000
0010
0000
0000
0010
0000
,
0100
0001
1000
0100
,
0010
0000
0000
0010
0000
0000
0010
0000
,
0001
0100
0001
0000
,
1000
0100
1000
0000
,
0010
0100
0010
0000
,
0100
0001
0010
0001
,
0100
0000
0001
0010
,
0001
0000
1000
0000
,
0010
1000
0100
0000
,
1000
0000
0000
0001
0000
0000
1000
0000
,
0001
0000
0000
0100
0001
0000
0000
0000
,
1000
0000
0000
0010
1000
0000
0000
0000
,
0010
0100
0001
1000
,
0020
0000
0130
0000
0001
0000
0000
0010
,
0000
0000
0001
0000
1000
0000
0000
0100
,
0000
1000
0010
0100
,
0010
0100
0001
0010
,
0001
0000
1001
0000
,
1000
0000
0010
0000
1000
0000
0000
0100
,
0000
0100
1000
0000
,
0001
0000
0010
0000
0001
0000
0000
0100
,
0000
0100
0110
0000
,
0010
0000
1000
0000
0010
0000
0000
1000
,
0000
1000
0100
0000
,
0010
0000
0001
0000
0010
0000
0000
0001
,
0000
0001
0100
0000
,
0001
0100
0010
1000
,
0100
0000
0000
0000
1000
0000
0000
0010
,
1000
0000
1000
0000
0001
0000
0000
0100
,
0001
0001
1000
0100
,
0001
0000
0100
0000
1000
0000
0000
0010
,
0000
1000
0001
0100
,
1000
0000
0100
0000
0001
0000
0000
0010
,
0000
0001
0100
0010
,
0100
0000
0010
1000
,
0010
0000
1000
0100
,
1000
0001
0100
0001
,
0010
0000
0110
0000
,
0100
1000
0100
0000
,
1000
0010
0100
0000
,
0001
0000
0100
0000
0001
0000
0000
0010
,
0000
0000
0001
0000
1000
0000
0000
0100
,
0000
0000
1000
0000
0001
0000
0000
0100
,
0000
0001
0100
0010
,
1000
0000
1020
0130
,
0001
0000
0000
0001
1000
0000
0000
0000
,
0001
0000
0000
0010
0001
0000
0000
0000
,
0100
0010
0100
0001
,
1000
1000
0001
0000
,
1001
0000
0001
0100
,
0001
0000
0000
0010
0000
0000
0010
0000
,
0001
0000
1000
0100
,
1000
0000
0000
0010
0000
0000
0010
0000
,
1000
0000
0100
1000
,
0010
0000
0000
1000
0000
0000
1000
0000
,
0010
0000
0100
0001
,
0010
0000
0000
0001
0000
0000
0001
0000
,
2000
0000
0000
0100
0000
0000
3100
0000
,
1000
0000
0000
0001
0000
0000
0010
0000
,
0002
0000
0000
0100
0000
0000
0103
0000
,
0001
0000
0000
1000
0000
0000
0100
0000
,
0020
0000
0000
0001
0000
0000
0001
0000
,
0130
0000
0000
1000
0000
0000
1000
0000
,
0020
0000
0000
1000
0000
0000
1000
0000
,
0130
0000
0000
0001
0000
0000
2000
0000
,
0100
0000
0000
0100
0000
0000
3100
0000
,
1000
0000
0000
0010
0000
0000
1000
0000
,
0100
0000
0000
0100
0000
0000
1000
0000
,
0010
0000
0000
1000
0000
0000
0002
0000
,
0100
0000
0000
0100
0000
0000
0103
0000
,
0001
0000
0000
0010
0000
0000
0001
0000
,
0100
0000
0000
0100
0000
0000
0001
0000
,
1000
0100
0010
0002
,
0100
0000
0000
0103
0000
0000
1000
0000
,
0010
0000
0000
1000
0000
0000
0001
0000
,
2000
0000
0000
0010
0000
0000
3010
0000
,
1000
0000
0000
0001
0000
0000
2000
0000
,
0100
0000
0000
3100
0000
0000
0010
0000
,
0001
0100
0010
1000
,
0100
0000
0000
0100
0000
0000
0010
0000
,
0001
0100
0010
1000
,
1001
0000
0000
0001
0000
0000
0010
0000
,
0001
0100
0010
1000
,
0100
0000
0000
1000
0000
0000
0010
0000
,
1000
0100
0010
0001
,
0100
0000
0010
0100
0000
0010
0100
0000
,
0020
0000
0000
0100
0000
0000
0130
0000
,
0001
0100
0000
0001
0100
0000
0001
0000
,
1000
0100
0010
0001
,
1001
0000
0000
1000
0000
0000
0010
0000
,
1000
0100
0001
0000
,
0100
0010
0001
0010
,
0002
0000
0000
0100
0000
0000
0103
0000
,
0001
0000
0000
0010
0000
0000
0001
0000
,
1000
0000
0000
0100
0000
0000
1000
0000
,
0010
0100
0001
0010
,
0200
0000
1300
0000
1001
0000
0000
0001
,
0000
0000
0100
0000
0010
0000
0000
0100
,
0000
0000
0001
0000
0020
0000
0000
0100
,
0000
0130
1000
0001
,
1000
0000
1001
0000
,
0001
0000
0010
0000
0002
0000
0000
0100
,
0000
0103
0001
0000
,
1000
0000
0010
0000
2000
0000
0000
0100
,
0000
3100
1000
0000
,
0001
0000
0100
0000
0010
0000
0100
0001
,
0000
1000
1001
0000
;

//--------------- dance-single - 8Chasey ----------------
#NOTES:
     dance-single:
     8Chasey:
     Hard:
     10:
     0,0,0,0,0:
0000
0000
0000
0000
,
0000
0000
0000
0000
,
1001
0000
1000
0010
0000
1000
0001
0000
,
0010
0001
0010
0001
0000
0100
0001
0000
,
0100
0000
0010
1000
0100
0000
1000
0000
,
0001
0000
0010
0001
0100
0010
0100
0000
,
0110
0000
0010
1000
0010
0000
1000
0000
,
0100
0000
0010
0100
0000
0100
1000
0000
,
0001
0000
0100
0001
0100
0000
0010
0000
,
1000
0000
0100
1000
0000
0001
0100
0000
,
0101
0000
0100
0010
0000
0010
1000
0000
,
0100
1000
0100
1000
0000
0001
0010
0000
,
0001
0000
1000
0100
0000
0010
0100
0000
,
1000
0000
0001
0010
0001
0000
0100
0000
,
0010
0000
1000
0010
1000
0000
0100
0000
,
0010
0000
0001
1000
0000
1000
0100
0000
,
1100
0000
1000
0010
1000
0001
1000
0001
,
0100
0000
0001
0010
0001
1000
0001
1000
,
0100
0000
0010
0001
1000
0000
0100
0000
,
1000
0000
0010
0100
0010
0000
0100
0000
,
0001
0000
1000
0100
0010
0000
0001
0000
,
1000
0000
0001
0010
0000
0001
0010
0000
,
0011
0000
0001
1000
0010
0000
1000
0000
,
1010
0000
0010
1000
0100
0000
0010
0000
,
0110
0000
0100
1000
0001
0100
0010
1000
,
0020
0000
0130
0000
0101
0000
0001
0010
,
0000
0001
1000
0000
0100
1000
0010
1000
,
0000
0010
0100
0000
0001
0000
0010
0001
,
0000
0001
1000
0000
0100
0000
1000
0010
,
0000
0100
0001
0000
0110
0000
0010
1000
,
0000
1000
0010
0000
1100
0000
1000
0001
,
0000
1000
0001
0000
0011
0000
0001
0100
,
0000
0001
1000
0000
0010
1000
0100
1000
,
0001
0000
0101
0000
1010
0000
1000
0100
,
0000
1000
0001
0000
0010
0001
0100
0001
,
0000
0001
1000
0000
0010
1000
0100
0000
,
1000
0000
0100
0000
0010
0000
0001
0100
,
0000
0001
1000
0000
0100
0000
1000
0100
,
0010
0000
0100
0000
1000
0000
0001
1000
,
0000
0010
1000
0000
0010
0000
0100
0001
,
0010
0000
0001
0000
1000
0000
0100
0010
,
0000
0010
0100
0000
0110
0000
0100
1000
,
0000
0001
0100
0000
0010
1000
0010
0100
,
0000
0100
0010
0000
1000
0000
0100
1000
,
0001
0000
0010
0000
0001
0000
0100
0001
,
0000
0100
0001
0000
0100
0000
0010
1000
,
0100
0000
1000
0000
0001
0000
0010
0100
,
0000
0010
0100
0000
1100
0000
1000
0010
,
1000
0001
0010
0001
0100
0010
0100
0010
,
1000
0001
0010
0100
0010
0000
0100
0000
,
1000
0000
0010
1000
0010
0000
0100
0001
,
0000
0100
0001
0000
1000
0000
0100
0010
,
0001
0000
0010
0000
0001
0000
1000
0010
,
0000
1000
0010
0000
0100
0000
0001
1000
,
0000
0001
1000
0000
0100
0000
1000
0010
,
0000
1000
0001
0000
0010
0000
0001
0010
,
0000
0001
1000
0000
1020
0000
0130
0000
,
0101
0000
0001
0010
0100
0000
0010
0000
,
0100
0000
1000
0010
0000
1000
0001
0000
,
0011
0000
0001
0100
0010
0000
1000
0000
,
1100
0000
1000
0010
1000
0000
0001
0000
,
0101
0000
0100
0001
0100
0000
0010
0000
,
1000
0000
0100
1000
0000
1000
0001
0000
,
0011
0000
0010
0100
1000
0000
0100
0000
,
1000
0000
0001
0100
0000
0100
0001
0000
,
1001
0000
1000
0010
0100
0000
0001
0000
,
0010
0000
0001
1000
0000
1000
0100
0000
,
1100
0000
0100
0010
0000
0010
0100
0000
,
1000
0000
0001
0100
0010
0100
0001
0000
,
0010
0000
0010
0002
0000
0000
0100
0000
,
1003
0000
0100
2000
0000
0000
0010
0000
,
3100
0000
1000
0020
0000
0000
0100
0000
,
1030
0000
0001
0100
0010
0000
0110
0000
,
1001
0000
1000
0200
0000
0000
1000
0000
,
0010
0000
1300
0002
0000
0000
0010
0000
,
0100
0000
1003
0020
0000
0000
0100
0000
,
1030
0000
0100
0010
0001
0000
0011
0000
,
2010
0000
0000
0100
0000
0000
3001
0000
,
0100
0010
1000
0010
0100
0000
0101
0000
,
0012
0000
0000
0100
0000
0000
1003
0000
,
0100
1000
0001
0100
0010
0000
0110
0000
,
1200
0000
0000
0010
0000
0000
1300
0000
,
0001
0010
0001
1000
0100
0010
0100
0000
,
0120
0000
0000
0001
0000
0000
0130
0000
,
1000
0001
0100
1000
0100
0010
2000
0000
,
0100
0000
0000
0001
0000
0000
3010
0000
,
0100
0001
0010
0001
1000
0000
0100
0000
,
0110
0000
0011
0000
0010
0100
1000
0100
,
0010
0000
0001
1000
0001
0100
0002
0000
,
0010
0000
0000
1000
0000
0000
0103
0000
,
0010
1000
0100
1000
0001
0100
0010
0000
,
0110
0000
1010
0000
0100
0001
0010
0001
,
1000
0100
0000
0010
0001
0000
0010
0100
,
0010
0011
1000
1010
,
0010
0100
0001
0000
1000
0100
0010
0000
,
0100
1000
0100
0000
0010
0001
0010
0000
,
0001
0100
0000
0001
0100
0000
0010
1000
,
0020
0000
0130
0001
0100
0100
0001
0000
,
0011
0000
1000
0010
0000
1000
0100
0000
,
0010
0001
1000
0100
1000
0001
1000
0100
,
0010
0010
0100
0100
1000
0001
1000
0001
,
1001
0000
1000
0010
0000
1000
0001
0000
,
0010
0000
0001
0100
0000
0100
0010
0000
,
1000
0000
0100
0010
0001
0000
0010
0000
,
0001
0100
0001
1000
0000
1000
0010
0000
,
1010
0000
1000
0100
0000
0010
0001
0000
,
0011
0000
0010
0001
0000
1000
0010
0000
,
0110
0000
0100
0001
1000
0100
0010
0010
,
0200
0000
1300
0000
1001
0000
0001
0010
,
0000
0001
0100
0000
0010
0000
1000
0100
,
0001
0000
0100
0000
0110
0000
0010
0001
,
1000
0010
0100
0000
0001
0000
1000
0100
,
0000
0000
0110
0000
0011
0000
0010
0001
,
0100
0000
0010
0000
1000
0000
0010
1000
,
0000
1000
0100
0000
0110
0000
0010
0001
,
1000
0000
0010
0000
0101
0000
0100
0001
,
0000
0001
1000
0000
0100
0000
1000
0001
,
0100
0000
0010
0000
1000
0000
0100
1000
,
0000
1000
0001
0000
1001
0000
0000
0000
;
