#TITLE:I'm Sorry My Bro;
#SUBTITLE:from Musical Day;
#ARTIST:GroovyDominoes52;
#TITLETRANSLIT:;
#SUBTITLETRANSLIT:;
#ARTISTTRANSLIT:;
#GENRE:;
#CREDIT:;
#BANNER:I'm Sorry My Bro (FROM MUSICAL DAY).png;
#BACKGROUND:I'm Sorry My Bro (FROM MUSICAL DAY)-bg.png;
#LYRICSPATH:I'm Sorry My Bro (FROM MUSICAL DAY).lrc;
#CDTITLE:;
#MUSIC:I'm Sorry My Bro (FROM MUSICAL DAY).ogg;
#OFFSET:-0.040000;
#SAMPLESTART:67.230003;
#SAMPLELENGTH:15.000000;
#SELECTABLE:YES;
#BPMS:0.000000=100.000000
;
#STOPS:
;
#BGCHANGES:;
#KEYSOUNDS:;
#ATTACKS:;

//---------------dance-single - ----------------
#NOTES:
     dance-single:
     :
     Hard:
     7:
     0.369884,0.385065,0.129459,0.314401,0.188024,420.000000,399.000000,21.000000,51.000000,0.000000,0.000000,0.369884,0.385065,0.129459,0.314401,0.188024,420.000000,399.000000,21.000000,51.000000,0.000000,0.000000:
0000
0000
0000
0000
,
0000
0000
0000
0000
,
0001
0000
0000
0001
0000
0000
0002
0000
0000
0000
0000
0000
0013
0000
0000
0000
,
0100
0000
0000
1000
0000
0000
0100
0000
0000
0000
1000
0000
1000
0000
0100
1000
,
0010
0000
0100
0000
0001
0010
0001
0100
,
0010
0000
0000
0000
1000
0000
0002
0000
0000
0000
0100
0000
0103
0000
0010
1000
,
0010
0000
1000
0000
0100
1000
0001
0010
,
0100
0000
0000
0010
0000
0000
2002
0000
0000
0000
0000
0000
3003
0000
0000
0000
,
1000
0000
0010
0000
1000
0000
0000
0100
0000
1000
0000
0100
0010
0000
0001
0000
,
1000
0000
1000
0001
0000
0010
0001
0000
0000
0000
1000
0000
0010
0000
1000
0200
,
0000
0000
0310
0000
0000
0000
0001
0000
0100
0000
0010
1000
0000
0000
1000
0000
,
0200
0000
0310
0002
0000
0000
0103
0010
,
1000
0000
0100
0000
0010
0000
0000
0001
0000
0100
0000
0001
1000
0000
0100
0000
,
0020
0000
0130
2000
0000
0000
3001
1000
,
0010
0100
0000
0100
0120
0000
1030
0100
,
0010
0000
0001
1000
0000
0000
0020
0000
0000
0000
1030
0000
0100
0000
1000
0001
,
1000
0000
0000
0000
0100
0000
1000
0000
0010
0000
0010
0000
0001
0000
1000
0001
,
0000
0000
1000
0000
0010
0000
0000
0000
0100
0000
0001
0000
1000
0000
0000
1000
,
0100
0000
0010
0200
0000
0000
1300
0000
0100
0000
1000
0000
0001
0000
0100
0000
,
0010
0000
0001
0010
0000
0100
0000
0010
0000
0200
0000
0020
0000
0000
0330
0000
,
2000
0000
0200
0000
3000
0000
0310
0000
0001
0000
0000
0010
0000
0100
0000
1000
,
0002
0000
0000
0000
0103
0000
0000
0010
0000
0000
1000
0000
1001
0000
0000
0000
,
0100
1000
0010
0000
0100
0001
0010
0002
,
1000
0000
0000
0000
1003
0000
0010
0001
1000
0000
0100
0000
0010
0000
1001
0000
,
0000
0000
0001
0000
0000
0010
0001
0000
,
1000
0000
0000
1000
0000
0000
2000
0000
0000
0000
0000
0000
3100
0000
0000
0000
,
1000
0000
0010
0000
0000
0100
0010
0000
,
0100
0000
0000
0100
0000
0000
0002
0000
0000
0000
0000
0000
1003
0000
0000
0000
,
1000
0000
0100
0000
0010
0000
0000
0000
0100
0000
0000
1000
0000
0000
0100
0000
,
1000
0001
0100
0002
0000
0013
0001
1000
,
0100
0000
0000
0000
0010
0000
0010
0000
0001
0000
1000
0001
0000
1000
0001
0000
,
1000
0100
0010
0002
2000
0000
3003
0000
,
1001
0000
1000
0000
0100
0000
1000
0000
0020
0000
0000
1000
0000
0000
0130
0000
,
0001
0000
0100
0000
1000
0000
0100
0000
0010
0000
0000
0000
1010
0000
0000
1000
,
0100
1000
0001
0010
0001
0200
0010
0020
,
0000
0000
0330
0000
0000
0100
0001
0010
0100
0000
1000
0000
0010
0000
1001
0000
,
0000
0001
1000
0100
,
2000
0000
0000
0020
0000
0000
3030
0000
,
0101
0000
0100
0000
0001
0000
0000
0001
0000
0010
0000
0001
1000
0000
0100
0000
,
2000
0000
0000
3010
0000
0000
0011
0000
0000
0000
0000
0000
0001
0000
1000
0001
,
1000
0000
0100
0000
0000
0000
1000
0000
0012
0000
0000
0010
0000
0000
0023
0000
,
0200
0000
0330
0000
0010
0001
0100
1000
,
0200
0000
0000
0000
0310
0000
1000
0000
0100
0000
1000
0001
0100
0000
0001
0000
,
0020
0000
0000
0001
0000
0000
0032
0000
0000
0000
0000
0000
1003
0000
0100
1000
,
0100
0010
0000
0001
1001
0000
1000
0010
,
2000
0000
0000
0000
0000
3100
1000
0100
1000
0000
0001
0000
0100
0000
1001
0000
,
0000
0000
0020
0000
0000
0000
1030
0000
0100
0000
0100
1000
0001
0000
1000
0000
,
0020
0000
0000
0000
1000
0000
2030
0000
0000
0000
3100
0000
0010
0000
0001
0010
,
0001
0200
0000
0000
0310
1000
0100
1000
,
0001
0100
0010
1000
0100
0010
0001
1000
,
0100
0000
1000
0000
0010
0000
0100
0000
1001
0000
0000
0000
0001
0000
1000
0001
,
0200
0000
0000
0000
0310
0000
1000
0100
1000
0000
0100
0000
0010
0000
0001
0000
,
2000
0000
0000
0000
3100
0000
0000
0010
0001
0000
0100
0000
0101
0000
0000
0001
,
0010
0001
1000
0010
1010
1000
0100
0010
,
0002
0000
0000
0000
0103
0000
0010
1000
0010
0000
0100
0000
0010
0000
1001
0000
,
0000
0000
0000
0000
0001
0000
0010
0001
0000
0000
0000
0000
1000
0000
0010
1000
,
0000
0000
0100
0010
0001
1000
0010
1001
,
0000
0000
0000
0000
1000
0000
0100
1000
0000
0000
0000
0000
0001
0000
0100
0001
,
0000
0000
1000
0010
0100
0010
1000
1001
,
0000
0000
0100
0010
0002
0000
0103
0010
,
2000
0000
3100
0010
0001
1000
0010
1001
,
0000
0000
1000
0100
0020
0000
0031
0010
,
0200
0000
0310
0001
1000
0010
0100
1001
,
0000
0000
0010
0100
2000
0000
3010
0100
,
0002
0000
1003
0100
1000
0001
0100
2002
,
0000
0000
0000
3003
;

//---------------dance-single - ----------------
#NOTES:
     dance-single:
     :
     Medium:
     5:
     0.256277,0.263465,0.055483,0.258919,0.058565,291.000000,282.000000,9.000000,42.000000,0.000000,0.000000,0.256277,0.263465,0.055483,0.258919,0.058565,291.000000,282.000000,9.000000,42.000000,0.000000,0.000000:
0000
0000
0000
0000
,
0000
0000
0000
0000
,
1000
0000
0000
1000
0000
0000
0010
0000
0000
0000
0000
0000
0010
0000
0000
0000
,
0100
0000
0000
0100
0000
0000
0001
0000
0000
0000
1000
0000
0001
0000
0000
0000
,
1000
0000
0100
0000
1000
0001
0100
0000
,
0001
0000
0000
1000
0000
0000
0020
0000
0000
0000
0000
0000
1030
0000
0000
0000
,
0100
1000
0001
0000
0100
0000
0001
0000
,
0010
0000
0100
0000
1000
0001
1000
0001
,
0200
0000
0310
0000
1000
0100
1000
0000
,
0001
0000
0000
0010
0000
0000
1001
0000
0000
0000
0000
0000
0100
0000
1000
0000
,
0002
0000
1000
0000
0000
0000
1003
0000
0100
0000
0000
1000
0000
0000
0010
0000
,
0100
0000
0000
0001
0000
0000
0002
0000
0000
0000
0000
0000
0013
0000
0000
0000
,
0001
0100
0010
0000
1000
0010
1000
0000
,
0100
0000
0000
1000
0000
0000
0002
0000
0000
0000
0000
0000
0103
0000
0000
0000
,
0010
1000
0000
0001
0100
0000
0010
1000
,
0100
0000
0000
2000
0000
0000
3001
0000
0000
0000
0010
0000
0001
0000
1000
0000
,
0200
0000
1300
0000
0001
0100
0010
0000
,
0010
1000
0200
0000
0010
0000
1300
0000
,
0001
0010
0200
0000
1300
0001
1000
0000
,
0010
0000
0100
0000
0010
0000
1000
0001
,
2002
0000
0000
0000
3003
0000
0000
0000
0001
0000
0000
0010
0000
0000
0001
0000
,
1000
0000
0000
0000
0010
0000
0000
1000
0000
0000
0100
0000
0001
0000
0000
0000
,
2000
3100
0002
0103
,
0020
0000
0030
0000
1000
0001
0010
0010
,
0000
0000
0100
1000
,
0002
0000
0000
0103
0000
0000
0000
0000
,
0010
0100
0001
1000
,
0100
0000
0000
0010
0000
0000
0020
0000
0000
0000
0000
0000
0030
0000
0000
0000
,
0000
0000
0001
0000
0100
0000
0000
0000
1000
0000
0000
1000
0000
0000
1000
0000
,
0010
0000
0000
0010
0000
0000
0010
0000
0000
0000
0000
0000
1001
0000
0000
0000
,
0100
0000
0001
0000
0100
0000
0000
0000
1000
0000
0000
0100
0000
0000
1000
0000
,
0010
0000
0100
0020
0000
0000
1030
0000
,
0001
0000
2000
0000
0000
0000
3100
0000
0010
0000
0000
0001
0000
0000
1000
0000
,
0100
0000
0010
0010
0020
0000
0130
0000
,
2000
3010
0002
0013
,
1001
0000
0000
0000
1000
0001
0010
0100
,
0020
0000
0030
0000
,
0200
0000
0300
0000
,
0000
1000
1100
0000
0001
0000
0010
0000
,
0001
0000
0000
1000
0000
0000
0200
0000
0000
0000
0000
0000
0300
0000
0000
0000
,
0010
0000
0001
0000
0000
0000
0100
0000
0001
0000
0000
1000
0000
0000
1000
0000
,
0020
0000
0130
0000
0000
0100
0001
1000
,
0200
0010
0000
1300
,
0001
0000
0000
0001
0000
0000
2000
0000
0000
0000
0000
0000
3100
0000
1000
0000
,
0001
0001
0000
0000
0100
0010
1000
0000
,
0001
0000
0000
0100
0000
0000
1000
0000
0010
0000
1000
0000
0001
0000
0100
0000
,
0000
1001
0000
0000
1000
0000
0100
0000
,
0001
0100
0010
0020
0000
0000
1030
0000
,
0100
1000
0010
0000
0100
0001
0010
0000
,
0002
0013
2000
3100
,
0001
1000
0001
0000
1001
0000
0000
0000
,
0200
0000
0000
1300
0100
0000
1000
0001
,
0020
0000
0001
0000
0130
1000
0001
0000
,
0102
0013
2100
3010
,
0200
0000
0000
0310
1000
0100
0010
0001
,
0000
0000
0000
1000
0100
0000
0000
0001
,
0100
0000
0000
0000
0010
1000
0001
0100
,
0000
0000
0000
0001
0010
0000
0000
1000
,
0010
0000
0000
0000
1000
0001
0010
0100
,
0000
0002
0013
2000
,
3010
0000
0000
0000
0010
1000
0001
0100
,
0000
2000
3100
0002
,
0103
0000
0000
0000
0010
0100
0010
0100
,
0000
2000
3001
0002
,
1003
0000
0000
0000
0001
1000
0010
0020
,
0000
0000
0000
0030
;

//---------------dance-single - ----------------
#NOTES:
     dance-single:
     :
     Easy:
     2:
     0.151476,0.202666,0.061647,0.197271,0.000000,172.000000,162.000000,10.000000,32.000000,0.000000,0.000000,0.151476,0.202666,0.061647,0.197271,0.000000,172.000000,162.000000,10.000000,32.000000,0.000000,0.000000:
// measure 0
0000
0000
0000
0000
,  // measure 1
0000
0000
0000
0000
,  // measure 2
0001
0000
0000
0002
0000
0000
0003
0000
,  // measure 3
1000
0000
0000
2000
0000
0000
3010
0000
,  // measure 4
0100
0001
0001
1000
,  // measure 5
1000
0000
0000
0020
0000
0000
0030
0000
,  // measure 6
0010
0100
0100
0001
,  // measure 7
1000
0000
1000
0001
,  // measure 8
0200
0000
0310
0100
,  // measure 9
0001
0000
0000
1001
0000
0000
0000
0000
,  // measure 10
1000
0100
1000
1000
,  // measure 11
0010
0000
0000
2000
0000
0000
3000
0000
,  // measure 12
0100
1000
0001
0000
,  // measure 13
1000
0000
0000
0010
0000
0000
0001
0000
,  // measure 14
0100
0000
0100
0001
,  // measure 15
2000
0000
0000
0000
3000
0000
0010
0100
,  // measure 16
0010
0000
0000
0001
,  // measure 17
2000
0100
0000
3100
,  // measure 18
0010
0000
0001
0000
,  // measure 19
0100
0010
1000
0000
,  // measure 20
0020
0000
0030
0000
,  // measure 21
1000
0100
0100
0000
,  // measure 22
0001
0000
0100
0010
,  // measure 23
1000
0000
0001
1000
,  // measure 24
1001
0000
0000
1000
,  // measure 25
0000
0001
0000
0010
,  // measure 26
0100
0000
0000
0000
,  // measure 27
0010
0001
1000
0000
,  // measure 28
0000
0100
1000
1000
,  // measure 29
0001
0000
0000
0011
0000
0000
1010
0000
,  // measure 30
2000
3000
0002
0003
,  // measure 31
0020
0000
0000
0200
0000
0000
0330
0000
,  // measure 32
0100
1000
0100
0001
,  // measure 33
0010
0000
0001
1000
,  // measure 34
0200
0300
0020
0030
,  // measure 35
1001
0000
1000
0001
,  // measure 36
0010
0000
0000
0000
,  // measure 37
0000
0000
0000
1001
,  // measure 38
1000
0000
0010
1000
,  // measure 39
0002
0000
0000
0013
0000
0000
0000
0000
,  // measure 40
1000
0100
0000
0010
,  // measure 41
0002
0000
0000
1003
0000
0000
1000
0000
,  // measure 42
2000
0000
3100
0000
,  // measure 43
0020
0000
0000
0130
0000
0000
0000
0000
,  // measure 44
0001
0010
0001
0010
,  // measure 45
1000
0000
0010
0001
,  // measure 46
1000
0000
1001
0000
,  // measure 47
0001
0000
0000
0100
0000
0000
0000
0000
,  // measure 48
0100
0010
1000
0100
,  // measure 49
0002
1003
2000
3001
,  // measure 50
2002
0000
3003
0000
,  // measure 51
0002
0000
0103
0010
,  // measure 52
1000
0000
0000
0100
,  // measure 53
2000
0000
3010
0000
,  // measure 54
0002
0000
0013
0000
,  // measure 55
0000
0000
0000
0001
0001
0000
0000
1000
,  // measure 56
1000
0000
0010
0010
,  // measure 57
0010
0000
0000
1000
1000
0000
0000
0001
,  // measure 58
0001
0000
0100
0110
,  // measure 59
0000
0002
0003
2000
,  // measure 60
3000
0000
0010
0100
,  // measure 61
0000
2000
3000
0002
,  // measure 62
0003
0000
1000
1001
,  // measure 63
0000
0020
0030
0200
,  // measure 64
0300
0000
0100
0020
,  // measure 65
0000
0000
0000
0030
;

//---------------dance-single - ----------------
#NOTES:
     dance-single:
     :
     Beginner:
     1:
     0.104800,0.159667,0.086306,0.000000,0.000000,119.000000,105.000000,14.000000,0.000000,0.000000,0.000000,0.104800,0.159667,0.086306,0.000000,0.000000,119.000000,105.000000,14.000000,0.000000,0.000000,0.000000:
// measure 0
0000
0000
0000
0000
,  // measure 1
0000
0000
0000
0000
,  // measure 2
0000
0000
0000
0000
,  // measure 3
0000
0000
0000
0000
,  // measure 4
0001
0000
0001
0000
,  // measure 5
1000
0000
1000
0000
,  // measure 6
0001
0000
0001
0000
,  // measure 7
1000
0000
1000
0000
,  // measure 8
0010
0010
0000
0000
,  // measure 9
0100
0000
0100
0000
,  // measure 10
0100
0100
0000
0000
,  // measure 11
1001
0000
0001
0001
,  // measure 12
0001
0000
1000
1000
,  // measure 13
1000
0000
0000
0000
,  // measure 14
0010
0000
0100
0000
,  // measure 15
0010
0000
0000
0100
,  // measure 16
0100
0000
0000
0000
,  // measure 17
0001
0001
0000
0000
,  // measure 18
1000
1000
0000
0000
,  // measure 19
1001
0000
0000
0000
,  // measure 20
0000
0010
0010
0000
,  // measure 21
0010
0000
0000
0000
,  // measure 22
1000
0000
0001
0000
,  // measure 23
1000
0000
1001
0000
,  // measure 24
0010
0000
0000
0000
,  // measure 25
0000
0000
0000
0000
,  // measure 26
0100
0000
0000
0000
,  // measure 27
0000
0000
0000
0000
,  // measure 28
0000
0001
0001
0000
,  // measure 29
1000
1000
0000
0010
,  // measure 30
0010
0000
0100
0000
,  // measure 31
0110
0000
0000
0000
,  // measure 32
0001
0000
0001
0000
,  // measure 33
0001
0000
0000
0000
,  // measure 34
1000
0000
1000
0000
,  // measure 35
1000
0000
0110
0000
,  // measure 36
0000
0000
0000
0000
,  // measure 37
0000
0000
0000
0000
,  // measure 38
0000
0001
0000
1000
,  // measure 39
0000
0001
0000
1000
,  // measure 40
0000
0000
0010
0010
,  // measure 41
0010
0000
0100
0100
,  // measure 42
0100
0000
0000
0000
,  // measure 43
0001
0000
1000
0000
,  // measure 44
0010
0000
0000
0000
,  // measure 45
0110
0000
0010
0010
,  // measure 46
0010
0000
0000
0000
,  // measure 47
1000
0000
0001
0000
,  // measure 48
1000
0000
0010
0000
,  // measure 49
0001
0000
1000
0000
,  // measure 50
1001
0000
0000
0000
,  // measure 51
0100
0000
0000
0000
,  // measure 52
0010
0000
0010
0000
,  // measure 53
1000
0000
0001
0000
,  // measure 54
1001
0000
0000
0000
,  // measure 55
0000
0000
0010
0000
,  // measure 56
0010
0000
1001
1001
,  // measure 57
0000
0000
0100
0000
,  // measure 58
0100
0000
1001
1001
,  // measure 59
0000
0001
0000
1000
,  // measure 60
0000
0000
0010
0010
,  // measure 61
0000
1000
0000
0001
,  // measure 62
0000
0000
0010
0010
,  // measure 63
0000
0100
0000
0010
,  // measure 64
0000
0000
1001
1001
;
