#TITLE:I'm Sorry My Bro;
#SUBTITLE:from Musical Day (2025 Remaster);
#ARTIST:GroovyDominoes52;
#TITLETRANSLIT:;
#SUBTITLETRANSLIT:;
#ARTISTTRANSLIT:;
#GENRE:;
#CREDIT:8Chasey 2025;
#MUSIC:I'm Sorry My Bro (2025 Remaster).ogg;
#BANNER:;
#BACKGROUND:;
#CDTITLE:;
#SAMPLESTART:67.365;
#SAMPLELENGTH:12.000;
#SELECTABLE:YES;
#OFFSET:-0.165;
#BPMS:0.000=100.000;
#STOPS:;
#BGCHANGES:;
#FGCHANGES:;

//--------------- dance-single - 8Chasey ----------------
#NOTES:
     dance-single:
     8Chasey:
     Beginner:
     1:
     0,0,0,0,0:
0000
0000
0000
0000
,
0000
0000
0000
0000
,
0000
0000
0000
0000
,
0000
0000
0000
0000
,
0001
0000
0001
0000
,
1000
0000
1000
0000
,
0001
0000
0001
0000
,
1000
0000
1000
0000
,
0010
0010
0000
0000
,
0100
0000
0100
0000
,
0100
0100
0000
0000
,
1001
0000
0001
0001
,
0001
0000
1000
1000
,
1000
0000
0000
0000
,
0010
0000
0100
0000
,
0010
0000
0000
0100
,
0100
0000
0000
0000
,
0001
0001
0000
0000
,
1000
1000
0000
0000
,
1001
0000
0000
0000
,
0000
0010
0010
0000
,
0010
0000
0000
0000
,
1000
0000
0001
0000
,
1000
0000
1001
0000
,
0010
0000
0000
0000
,
0000
0000
0000
0000
,
0100
0000
0000
0000
,
0000
0000
0000
0000
,
0000
0001
0001
0000
,
1000
1000
0000
0010
,
0010
0000
0100
0000
,
0110
0000
0000
0000
,
0001
0000
0001
0000
,
0001
0000
0000
0000
,
1000
0000
1000
0000
,
1000
0000
0110
0000
,
0000
0000
0000
0000
,
0000
0000
0000
0000
,
0000
0001
0000
1000
,
0000
0001
0000
1000
,
0000
0000
0010
0010
,
0010
0000
0100
0100
,
0100
0000
0000
0000
,
0001
0000
1000
0000
,
0010
0000
0000
0000
,
0110
0000
0010
0010
,
0010
0000
0000
0000
,
1000
0000
0001
0000
,
1000
0000
0010
0000
,
0001
0000
1000
0000
,
1001
0000
0000
0000
,
0100
0000
0000
0000
,
0010
0000
0010
0000
,
1000
0000
0001
0000
,
1001
0000
0000
0000
,
0000
0000
0010
0000
,
0010
0000
1001
1001
,
0000
0000
0100
0000
,
0100
0000
1001
1001
,
0000
0001
0000
1000
,
0000
0000
0010
0010
,
0000
1000
0000
0001
,
0000
0000
0010
0010
,
0000
0100
0000
0010
,
0000
0000
1001
1001
;

//--------------- dance-single - 8Chasey ----------------
#NOTES:
     dance-single:
     8Chasey:
     Easy:
     3:
     0,0,0,0,0:
0000
0000
0000
0000
,
0000
0000
0000
0000
,
0000
0000
0000
0000
,
0000
0000
0000
1001
,
1000
0001
0001
1000
,
0010
0100
0010
0100
,
0001
1000
1000
0001
,
0100
0010
0100
0010
,
0200
0000
0310
0100
,
0001
0010
0100
0000
,
2000
0000
3001
0000
,
1000
0010
0100
0000
,
0001
0100
0001
0000
,
0020
0000
0130
0000
,
1000
0100
1000
0000
,
0200
0000
0310
0100
,
0110
0000
0010
0001
,
2000
0100
0000
3100
,
1000
0010
1000
0000
,
0001
0100
0001
0000
,
0020
0000
0130
0000
,
1000
0100
0100
0000
,
0010
0000
0002
0000
,
1003
0000
0001
1000
,
1001
0000
0000
1000
,
0000
0001
0000
0010
,
0100
0000
0100
0000
,
0010
0001
1000
1001
,
0000
0100
1000
1000
,
0001
1000
0010
0000
,
2000
3000
0002
0003
,
0010
0100
0020
0030
,
0100
1000
0100
0000
,
0010
0001
0010
0000
,
0200
0300
0020
0030
,
1001
0000
1000
0001
,
0020
0000
0000
0000
,
0130
0000
0000
1001
,
1000
0000
0010
1000
,
0002
0000
0103
0000
,
0001
0000
0010
0001
,
2000
0000
3001
0100
,
0002
0000
0013
0000
,
0100
0010
0100
0000
,
1000
0000
0001
0010
,
0001
0000
0100
0001
,
1000
0000
0010
0000
,
0100
0001
0100
0000
,
0010
0000
1000
1000
,
0002
1003
2000
3001
,
2002
0000
3003
0000
,
0002
0000
0013
0000
,
1100
0000
0000
0100
,
2000
0000
3010
0000
,
0101
0000
0001
0010
,
0000
0001
0100
1000
,
0100
0010
0100
0010
,
0010
1000
0100
0001
,
0100
0010
0100
0110
,
0000
0010
0001
0100
,
1000
0000
0100
0010
,
0000
0010
1000
0100
,
0001
0000
0100
0010
,
0000
0001
0010
0100
,
1000
0000
0100
0020
,
0000
0000
0000
0030
;

//--------------- dance-single - 8Chasey ----------------
#NOTES:
     dance-single:
     8Chasey:
     Medium:
     5:
     0,0,0,0,0:
0000
0000
0000
0000
,
0000
0000
0000
0000
,
1000
0000
0000
0010
0000
0000
1000
0000
,
0001
0000
0000
0100
0000
0100
0001
0000
,
1000
0000
0100
0000
1000
0001
0100
0000
,
0001
0000
0100
0010
0000
0010
1000
0000
,
0100
1000
0001
0000
0100
0000
0001
0000
,
0010
0000
0100
0000
1000
0001
1000
0001
,
0200
0000
0310
0000
1000
0100
1000
0000
,
0001
0000
0000
0001
0000
0000
0001
0000
0000
0000
0010
0000
0100
0000
1000
0000
,
0002
1000
0000
1003
0100
0000
1000
0000
,
0010
0000
0100
0002
0000
0000
0013
0000
,
0001
0100
0010
0000
1000
0010
1000
0000
,
0100
0000
0000
0100
0000
0000
0100
0000
0000
0000
1000
0000
0100
0000
0000
0000
,
0010
0001
0000
0001
0100
0000
0001
1000
,
0100
0000
0000
1000
0000
0000
0100
0000
0000
0000
0010
0000
0001
0000
0000
0000
,
0101
0000
0000
0100
0001
0100
0010
0000
,
0010
1000
0100
1000
0000
0001
1000
0000
,
0001
0010
0100
0000
1000
0001
1000
0000
,
0010
0000
0100
0000
0001
0010
0100
1000
,
0000
1001
0000
0001
0010
0000
0001
0100
,
0010
0000
1000
0001
0000
0100
0001
0000
,
1000
0100
1000
0000
0001
0010
0001
0100
,
0000
0010
0000
0100
0001
1000
0100
0010
,
0000
0000
0100
1000
,
0001
0000
0010
0001
0000
0100
0010
0000
,
0100
0000
0001
0010
0000
0001
1000
0000
,
0100
0000
0000
0100
0000
0000
0100
0000
0010
0000
0100
0000
0010
0000
0100
0000
,
0000
0000
0001
0000
0100
0000
0000
0000
1000
0000
0000
1000
0000
0000
1000
0000
,
0010
0000
0000
0010
0000
0000
0010
0000
0000
0000
0100
0000
0001
0000
0010
0000
,
0001
0000
0000
0000
0100
0000
0000
0000
0010
0000
0000
0010
0000
0000
1000
0000
,
0010
0000
0100
0020
0000
0000
1030
0000
,
0001
2000
0000
3100
0010
0000
0011
0000
,
0001
0000
0100
0010
0200
0000
0301
0000
,
0010
0001
0100
0000
0010
1000
0100
0010
,
0000
0010
0100
0000
1000
0001
0010
0100
,
0010
0000
0001
0100
0001
1000
0010
0000
,
0200
0000
0000
0310
1000
0001
0010
0001
,
0000
1000
0100
0000
0010
0001
0010
0000
,
0001
0000
0000
0100
0000
0000
0020
0000
0000
0000
0000
0000
0130
0000
0000
0000
,
0001
0010
0000
0001
0100
0000
0010
1000
,
0020
0000
0130
0000
0001
0100
0001
0010
,
0200
0000
0010
0000
1300
0010
1000
0000
,
0001
0000
0000
0001
0000
0000
0001
0000
0000
0000
0000
0000
0100
0000
0010
0000
,
0100
0001
0000
0010
0001
0010
0100
0000
,
1000
0100
0000
1000
0010
1000
0001
0100
,
0000
0010
0000
0100
0001
0000
0100
0000
,
0001
0010
0100
0020
0000
0000
0031
0000
,
0010
0001
0100
0000
0010
1000
0100
0000
,
2000
0000
0100
0000
3010
0000
0100
0001
,
0020
0130
1001
0000
,
0000
0002
0000
1003
0100
0000
1000
0001
,
0020
0000
0031
0000
0100
0010
1000
0000
,
0102
0000
0013
0100
2000
0000
3010
0100
,
0002
0000
0000
0013
0001
0100
0010
1000
,
0000
0000
0001
1000
0100
0000
1000
0001
,
0100
0000
0010
0000
0100
0001
1000
0010
,
0000
0000
1000
0001
0010
0000
0001
1000
,
0010
0000
1000
0100
1000
0001
0010
0100
,
0000
0000
0010
0001
0010
0000
0100
1000
,
0100
0000
1000
0000
0010
1000
0001
0100
,
0000
0000
0010
1000
0010
0000
0100
0001
,
0100
0000
0000
0010
0100
0010
0100
0010
,
0000
0000
1000
0100
0010
0000
0001
0100
,
0010
0000
1000
0000
0001
1000
0010
0200
,
0000
0000
0000
0300
;

//--------------- dance-single - 8Chasey ----------------
#NOTES:
     dance-single:
     8Chasey:
     Hard:
     8:
     0,0,0,0,0:
0000
0000
0000
0000
,
0000
0000
0000
0000
,
1000
0000
0000
1000
0000
0000
2000
0000
0000
0000
3010
0000
1000
0001
0000
0000
,
1000
0000
0000
0001
0000
0000
0200
0000
0000
0000
0310
0000
0110
0000
0100
0001
,
0100
0000
0000
0001
1000
0000
0010
0000
1000
0000
0001
0000
0010
0000
0000
0000
,
0100
0000
0000
0010
0001
0000
0020
0000
0000
0000
0031
0000
1000
0000
0010
1000
,
0010
0000
0000
0100
0010
0000
0100
0000
0001
0000
1000
0000
0100
0000
0000
0000
,
1000
0000
0000
0100
0010
0000
0001
0000
1000
0000
0001
0000
1001
0000
1000
0010
,
1000
0000
0010
0000
0010
0000
0000
0100
0000
0001
0000
0100
0010
0000
1000
0000
,
0001
0000
1000
0001
0000
0000
2000
0000
0000
0000
3100
0000
1000
0000
0010
1000
,
0010
0000
0100
0000
0001
0000
0010
0001
0010
0000
0100
0000
0010
0000
0001
0000
,
1000
0000
0100
0000
1000
0000
0020
0000
0000
0000
0130
0000
0001
0000
0100
0010
,
0100
0000
0010
0000
1000
0000
0000
0010
0000
0100
0000
0010
1000
0000
0001
0000
,
0010
0000
0001
0010
0000
0000
0001
0000
0100
0000
0010
0000
1000
0000
0100
1000
,
0100
0000
1000
0000
0001
0000
0010
0000
0001
0000
0100
0010
0100
0000
0001
0000
,
0100
0000
0000
0001
0000
0000
1000
0000
0000
0000
0010
0000
1000
0000
0001
0000
,
1001
0000
0000
0000
1000
0000
0100
1000
0100
0000
1000
0000
0001
0000
0000
0010
,
0001
0000
0100
0010
0000
0000
0100
0000
0000
0000
0010
0000
1010
0000
0000
0000
,
1000
0100
1000
0000
0001
0000
0010
0000
0001
0000
1000
0000
1001
0000
0000
0000
,
0100
0000
1000
0010
0000
1000
0000
0001
0000
0010
0000
0002
0100
0000
0103
0000
,
0010
0000
0110
0000
0000
0000
0100
0001
0100
0000
0001
0010
0000
0001
0000
2000
,
0010
0000
0000
0010
0000
0000
3001
0000
1000
0000
0100
0000
0110
0000
0000
0010
,
0002
0100
0103
0001
2000
0010
3010
0100
,
0001
0000
0010
0001
0010
0000
0100
1000
0100
0000
1000
0000
0010
0000
0220
0000
,
0000
0000
0330
0000
0100
0000
0002
0000
0000
0000
0013
0000
0001
1000
0000
0000
,
0100
0000
1000
0100
0000
0000
2000
0000
0000
0000
3010
0000
0100
0010
0000
0000
,
0100
0000
0000
0001
0000
0000
0200
0000
0000
0000
0310
0000
1000
0010
1000
0000
,
0100
0000
0000
1000
0000
0000
0001
1000
0001
0000
0100
0000
0001
0000
1001
0000
,
0000
0000
1000
0000
0100
0000
1000
0000
0100
0000
0010
0100
0000
0000
0010
0001
,
0010
0000
0001
0100
0000
0001
0200
0000
0000
0000
0010
0000
0301
0000
1000
0000
,
0100
0000
1000
0000
0001
0000
0000
0000
0100
0000
0001
0000
0100
0000
0010
0100
,
0010
0000
1000
0000
0100
1000
0200
0000
0000
0000
2300
0000
0010
0000
3010
0000
,
1000
0000
0002
0000
0000
0000
0013
0000
0001
0000
0100
0010
0000
0010
0000
1000
,
0000
0001
0000
0100
0000
0010
0000
0100
0000
0001
1000
0000
1001
0000
1000
0100
,
1000
0000
0001
0000
0010
0000
0001
0000
0100
0000
0010
0000
1000
0010
2000
0000
,
0100
0000
0000
0001
0000
0000
3001
0000
0010
0000
0001
0000
0100
0000
0110
0000
,
0000
0000
0010
1000
0010
0000
0100
0001
0100
0000
0001
0000
1000
0100
0000
0010
,
0200
0000
0000
1300
0000
0100
1000
0100
0010
0001
0010
0000
0100
1000
0100
0000
,
1000
0000
0001
0000
1001
0000
0000
1000
0000
0010
0000
1000
0001
0000
0010
0000
,
0001
0000
0100
0001
0100
0000
0020
0000
0000
0000
0100
0000
0130
0000
0010
1000
,
0010
0000
1000
0000
0100
0000
1000
0000
0001
0000
0010
0001
0010
0000
0001
0000
,
0100
0000
0010
0100
0000
0000
0020
0000
0000
0000
1030
0000
0100
0000
1000
0001
,
2000
0000
0010
0000
3010
0000
0000
0100
0000
0002
0000
0000
0100
0000
1003
0000
,
0010
0000
1000
0010
0000
0000
0200
0000
0000
0000
0301
0000
0100
0000
0001
1000
,
0001
0000
1000
0000
0000
0000
0100
1000
0100
0000
1000
0000
0001
0000
0010
0000
,
0001
0000
0100
0001
0000
0000
0100
0010
0100
0000
0010
0000
1000
0000
1001
0000
,
0000
0000
0002
0000
0000
0000
0010
0000
0013
0000
0001
0000
1000
0100
1000
0000
,
0100
0000
2000
0000
0001
0000
0002
0000
0000
0000
3003
0000
0001
0000
0100
0010
,
0100
0000
0010
0000
1000
0000
0100
1000
0001
0000
0100
0010
0000
1000
0010
0000
,
0200
0000
0001
0000
0001
0000
0301
0000
0020
0000
0001
0000
0130
1000
0100
0000
,
1000
0000
0010
0000
1000
0000
0001
0000
1001
0000
0000
0000
0100
0000
0001
0100
,
0001
0000
2000
0000
0000
0000
3010
0100
0010
0000
0100
0001
0000
0100
0001
0000
,
2000
0000
0000
0000
0100
0000
3100
0000
1000
0001
0000
1000
0001
0000
0010
0001
,
0010
0000
0001
0000
0100
0000
0001
0000
1000
0001
1000
0000
0100
1000
0100
0000
,
0020
0000
0000
0031
0000
0010
0001
0000
1000
0000
0010
0000
0100
0000
0110
0000
,
0010
0000
0000
0010
0000
1000
0100
1000
0100
0000
0000
0100
0000
0010
0001
0010
,
0001
0000
0000
1000
0000
0000
0100
1000
0100
0000
1000
0000
0001
0000
1001
0000
,
1000
0000
0000
0010
0000
1000
0001
1000
0001
0000
0000
0010
0000
0001
0100
0001
,
0100
0000
0000
0010
0000
0000
0100
0001
0100
0000
0001
0000
1000
0000
1001
0000
,
0010
0000
0000
0000
0001
0100
0001
0000
2000
0000
0000
0000
3100
1000
0100
0000
,
0020
0000
0000
0000
0130
0000
1000
0100
1000
0000
0010
0000
0100
0000
0001
0000
,
1001
0000
0000
0000
1000
0010
1000
0000
0200
0000
0000
0000
1300
0001
1000
0000
,
0020
0000
0000
0000
0130
0000
0001
0100
0001
0000
0010
0000
0100
0000
1000
0000
,
0100
0000
1000
0000
0010
1000
0010
0000
0100
0000
0001
0000
0010
0001
0010
0000
,
0001
0000
0100
0001
0000
0100
0010
1000
0010
0000
0100
0000
0101
0000
2002
0000
,
0000
0000
0000
3003
;
