#TITLE:I'M BLUE (COVER);
#SUBTITLE:;
#ARTIST:Max Raabe;
#TITLETRANSLIT:;
#SUBTITLETRANSLIT:;
#ARTISTTRANSLIT:;
#GENRE:;
#CREDIT:;
#MUSIC:I'm Blue (Cover).ogg;
#BANNER:;
#BACKGROUND:;
#CDTITLE:;
#SAMPLESTART:62.21;
#SAMPLELENGTH:12;
#SELECTABLE:YES;
#OFFSET:-0.805;
#BPMS:0.000=128.000
,292.000=90.000
,295.000=128.000
;
#STOPS:126.500=1.875;
#DISPLAYBPM:128.000;
#BGCHANGES:;
#FGCHANGES:;

//--------------- dance-single - ----------------
#NOTES:
     dance-single:
     :
     Beginner:
     1:
     0,0,0,0,0:
0000
0000
0000
0000
,
0000
0000
0000
0000
,
0000
0000
0000
0000
,
0000
0000
0000
0000
,
0000
0000
0000
0000
,
0000
0000
0000
0000
,
0000
0000
0000
0000
,
0000
0000
0000
0000
,
1000
0000
0000
0000
,
1000
0000
0000
0000
,
1000
0000
0000
0000
,
1001
0000
0000
0000
,
0001
0000
0000
0000
,
0001
0000
0000
0000
,
0001
0000
0000
0000
,
1001
0000
0000
0000
,
0100
0000
0100
0000
,
0100
0000
0000
0000
,
0100
0000
0100
0000
,
0100
0000
0000
0000
,
0010
0000
0010
0000
,
0010
0000
0000
0000
,
0010
0000
0010
0000
,
0010
0000
0000
0000
,
1000
0000
0100
0000
,
1000
0000
0000
0000
,
0001
0000
0100
0000
,
0001
0000
0000
0000
,
0010
0010
0010
0000
,
0010
0000
0100
0000
,
0100
0100
0100
0000
,
0010
0000
1001
0000
,
1001
0000
0000
0000
,
1000
0000
0000
0000
,
0100
0000
1000
0000
,
1000
0000
0000
0000
,
0110
0000
0000
0000
,
0001
0000
0000
0000
,
0100
0000
0001
0000
,
0001
0000
0000
0000
,
0110
0000
0000
0000
,
0000
0000
0000
0000
,
1000
1000
1000
0000
,
0100
0100
0000
0000
,
0001
0001
0001
0000
,
0010
0010
0000
0000
,
1000
0000
0001
0000
,
1001
1001
0000
0000
,
0001
0000
1000
0000
,
1001
1001
0000
0000
,
0010
0000
1000
0000
,
0100
0100
0000
0000
,
0010
0000
0001
0000
,
0100
0100
0000
0000
,
0001
0000
1000
0000
,
0001
0000
1000
0000
,
0001
0000
1000
0000
,
1001
0000
0000
0000
,
1000
1000
1000
1000
,
1000
0000
0100
0000
,
0001
0001
0001
0001
,
0001
0000
0010
0000
,
1000
1000
0000
0100
,
0000
0001
0001
0000
,
0010
0000
0100
0000
,
0110
0000
1001
0000
,
1000
0000
0000
0000
,
0000
0000
0000
0000
,
0001
0000
0000
0000
,
0000
0000
0000
0000
,
0100
0000
0000
0000
,
0010
0000
0000
0000
,
0100
0000
0010
0000
,
1001
0000
0000
0000
;

//--------------- dance-single - ----------------
#NOTES:
     dance-single:
     :
     Easy:
     3:
     0,0,0,0,0:
0000
0000
0000
0000
,
0000
0000
0000
0000
,
0000
0000
0000
0000
,
0000
0000
0000
0000
,
0000
0000
0000
0000
,
0000
0000
0000
0000
,
0000
0000
0000
0000
,
0000
0000
0000
0000
,
0001
0000
1000
0000
,
0002
0000
0003
0000
,
1000
0000
0001
0000
,
2000
0000
3000
0000
,
0001
1000
0001
0000
,
1000
0001
1000
0000
,
0010
0010
0100
0100
,
2002
0000
3003
0000
,
0011
0000
0000
0000
,
0001
0100
0000
0000
,
1010
0000
0000
0000
,
1000
0100
0000
0000
,
2000
0000
3002
0000
,
0023
0000
0030
0000
,
0002
0000
2003
0000
,
3200
0000
0300
0000
,
1000
1000
1000
0000
,
0100
0000
1000
0000
,
0001
0001
0001
0000
,
0100
0000
0001
0000
,
0010
1000
0010
0000
,
0100
0001
0100
0000
,
0101
0000
1100
0000
,
2002
0000
3003
0000
,
0100
0001
0100
0001
,
0020
0000
0000
0030
,
0100
1000
0100
1000
,
0020
0000
0000
0030
,
1000
0010
1000
0010
,
0100
0000
1001
0000
,
0001
0010
0001
0010
,
0100
0000
0110
0000
,
2002
0000
0000
0000
,
0000
0000
3003
0000
,
1000
0000
1000
0000
,
0100
2000
0000
3000
,
0001
0000
0001
0000
,
0100
0001
1001
0000
,
0001
0000
0001
0000
,
0100
0002
0000
0003
,
1000
0000
1000
0000
,
0100
1000
1001
0000
,
0010
0000
1000
0000
,
0001
0000
0100
0000
,
0001
0010
0011
0000
,
1000
0010
1010
0000
,
1000
0100
0001
0000
,
1000
0010
0001
0000
,
0001
0100
1000
0000
,
0001
0010
1000
0000
,
0001
1000
0001
1000
,
0001
0000
1001
0000
,
1000
0001
1000
0001
,
1000
0000
1001
0000
,
0010
0000
0010
0000
,
0100
0000
0110
0000
,
0100
0000
0100
0000
,
0010
0000
0110
0000
,
2000
0000
0000
0000
,
3100
0000
0000
0000
,
0002
0000
0000
0000
,
0103
0000
0000
0000
,
0010
0000
1000
0000
,
0001
0000
0000
0000
,
0010
0000
0001
0000
,
1000
0000
0000
1001
,
1001
0000
0000
0000
;

//--------------- dance-single - ----------------
#NOTES:
     dance-single:
     :
     Medium:
     5:
     0,0,0,0,0:
0000
0000
0000
0000
,
0000
0000
0000
0000
,
0000
0000
0000
0000
,
0000
0000
0000
0000
,
0000
0000
0000
0000
,
0000
0000
0000
0000
,
0000
0000
0000
0000
,
0000
0000
0000
0000
,
0001
0100
0001
1000
,
0100
0010
0110
0110
,
1000
0100
1000
0001
,
0100
0001
0010
0010
,
0001
0001
0010
0010
,
0100
0100
1000
1000
,
0010
1000
0001
0100
,
0220
0000
0330
0000
,
1000
0000
1000
0000
,
0100
1000
0010
0000
,
0001
0000
1000
0001
,
0010
0020
0000
0030
,
0001
0100
0001
0000
,
1000
0010
1000
0000
,
0110
0100
0200
0000
,
0302
0000
2003
0000
,
3010
0010
1010
0000
,
0101
0001
1000
0100
,
0010
0001
0010
0000
0100
0000
0100
0000
,
1000
0001
0100
1001
,
1000
0010
0001
0000
0100
0000
0001
1000
,
0000
0010
0010
0010
,
1000
1000
0001
0001
,
0100
0001
1000
0000
0100
0010
0010
0000
,
1001
2000
3020
0230
,
0301
1000
0000
0010
,
1001
0002
0023
0230
,
1300
0001
0000
0110
,
1000
0100
1000
0100
,
0001
0100
0001
0100
,
0010
0001
1000
0010
,
2002
0000
0000
3003
,
0000
0001
0000
1000
,
0000
0000
0001
0000
1000
0001
1000
0000
,
0000
0010
1000
0001
,
0100
0000
0100
0000
0000
0001
1000
0001
,
0000
1000
1000
0000
,
0010
0000
0000
0110
0000
1000
0001
1000
,
0000
0001
0010
1000
,
0100
0000
0100
0000
0000
0010
0100
0010
,
0000
0001
1001
0000
,
1000
0000
0001
0000
0000
0100
0010
0100
,
0002
1000
0000
1003
,
0010
0100
0000
1001
,
2000
0001
0000
3001
,
0100
0001
1000
0010
,
0020
0100
0000
0130
,
0001
1000
0100
0100
,
0200
0010
0000
0310
,
2002
0000
3003
1001
,
0010
0000
0000
0000
0010
0000
1000
0001
,
0000
0000
1000
0001
1000
0000
0001
1000
,
0001
0000
0000
0000
0100
0000
0001
1000
,
0000
0000
0001
1000
0001
0000
1000
0001
,
1000
0000
0001
0010
,
1000
0100
0010
0010
,
0010
0000
0000
0000
0001
0010
0001
0000
,
1000
0010
1000
0000
0100
0000
0100
0000
,
1000
0001
1000
0001
,
0100
0010
0100
0010
,
0001
0001
0100
0100
,
2000
0000
0000
3000
,
1000
1000
0100
0100
,
0002
0000
0000
0003
,
0020
0030
0200
0300
,
0020
0000
0000
0130
,
0110
0000
0000
0000
;

//--------------- dance-single - ----------------
#NOTES:
     dance-single:
     :
     Hard:
     7:
     0,0,0,0,0:
0000
0000
0000
0000
,
0000
0000
0000
0000
,
0000
0000
0000
0000
,
0000
0000
0000
0000
,
0000
0000
0000
0000
,
0000
0000
0000
0000
,
0000
0000
0000
0000
,
0000
0000
0000
0000
,
0002
0000
0013
0001
1000
0100
0020
0002
,
0000
0030
0100
0100
0103
0000
1001
0000
,
2000
0000
3010
1000
0001
0100
0020
2000
,
0000
0030
0100
0100
3100
0000
0110
0000
,
1000
0010
0100
0001
0010
0100
0010
0020
,
0000
0001
1000
0130
,
1000
0100
0010
0001
1000
0010
0200
0002
,
0000
0000
0000
0000
0000
0000
0000
0000
0303
0000
0000
0000
0010
0000
0000
1000
,
0010
2000
0000
3200
0000
0310
0100
1000
,
0010
0010
0000
1000
0002
0000
0100
0000
,
2003
0000
3100
0010
0000
0001
1000
0010
,
0020
0000
0200
0000
0030
1300
0100
0001
,
0010
0000
0002
0000
0013
0001
2000
0000
,
3100
0000
1100
0000
0101
0000
0010
0010
,
0020
0000
2030
0000
0002
0000
3003
1000
,
0000
0010
0000
0001
0100
0000
0100
0000
,
1000
1010
0011
1010
,
0101
0000
1000
0010
0200
0000
0001
0001
,
0320
0000
1000
0000
0130
0000
1100
0001
,
0000
0010
0001
1000
0100
0000
1000
1000
,
0001
0010
0001
0000
0200
0000
0301
1000
,
0010
0100
0001
1000
0100
0000
1100
0000
,
0020
0100
0032
1000
,
0103
0010
1000
0100
0100
0200
0310
0000
,
1001
0000
2000
0000
3002
0000
0020
0003
,
0230
1000
1000
0000
0010
0000
1300
0000
,
0010
1000
0002
0000
0203
0000
2300
0000
,
3200
0000
0010
0000
0301
0001
1000
0100
,
2000
0010
3002
0010
,
0023
0000
1000
0000
0001
0001
0031
0000
,
1000
0020
0001
0000
2030
0000
3100
0001
,
0200
0000
1000
1000
0000
0010
0000
1300
,
0002
2003
3002
2003
,
3002
0000
0000
0000
2003
0000
0000
0000
3010
0000
0110
0000
0100
0010
0100
0010
,
1000
0000
0010
0000
0100
0100
0001
0000
,
1000
0010
0020
0000
0000
0100
0100
0130
,
0000
0001
0010
0001
1000
0100
0000
1100
,
1000
0001
0100
0002
0000
0010
0010
0013
,
0000
1000
0001
1000
0100
0010
0100
0010
,
0001
1000
2000
0000
0000
0100
0100
3100
,
0000
1000
0010
0010
0100
0000
0001
0001
,
1000
0010
0100
0200
0000
0010
0010
0310
,
1100
1000
0001
0010
,
0001
1000
0020
0000
1000
0000
0001
0000
,
0130
0000
0101
0000
1100
0000
0000
1000
,
0001
1000
0010
0020
0000
1000
0130
0001
,
1000
1100
0110
0011
,
0001
1000
0020
0000
0001
0000
1030
0000
,
0100
0010
0001
0000
1000
0010
0100
0000
,
2002
0000
0000
0000
0000
0000
0000
0000
3003
0000
0000
1000
0001
0000
0010
0000
,
0110
0100
1000
0010
0001
0010
0100
0001
,
0000
1000
0100
0000
0110
0000
0110
0000
,
1001
1000
0001
0010
0100
0100
0010
0001
,
0000
1000
0010
0000
0110
0000
0110
0000
,
1000
0010
0001
0000
1000
0100
0001
0000
,
1100
0000
0101
0000
1000
0010
0001
0000
,
0200
1000
0302
0023
,
0230
2000
3000
0310
,
1001
0000
0000
0000
1000
0001
1000
0002
,
0000
0010
1000
1003
,
1001
0000
0000
0000
0001
1000
0001
2000
,
0000
0010
0001
3001
,
0100
0100
0001
0001
,
1000
0000
1001
0000
0010
0010
0010
0000
,
0001
0000
1000
0100
0010
0000
0001
0020
,
0000
0000
0000
0130
,
2002
3003
0000
0000
;

//--------------- dance-single - ----------------
#NOTES:
     dance-single:
     :
     Challenge:
     9:
     0,0,0,0,0:
0000
0000
0000
0000
,
0000
0000
0000
0000
,
0000
0000
0000
0000
,
0000
0000
0000
0000
,
0000
0000
0000
0000
,
0000
0000
0000
0000
,
0000
0000
0000
0000
,
0000
0000
0000
0000
,
0001
0010
0001
0010
0100
1000
0100
1000
,
0000
1001
1000
0001
0010
0000
0010
0010
,
0001
1000
0001
1000
0010
0100
0010
0100
,
0000
0110
1000
0100
0001
0000
0010
0001
,
1000
0010
0100
0001
1000
0010
0100
0001
,
0000
1001
1000
0001
0010
0000
0010
0100
,
0100
0010
0100
1000
0010
0100
0001
0010
,
0000
0000
1000
0000
0001
0000
0010
0000
0100
0000
0010
0100
1000
0000
0001
0000
,
0100
0000
0100
0000
0000
0000
0101
0000
0000
0000
1000
0010
0000
0000
0010
0000
,
1000
0001
0010
0000
0000
0000
0100
0000
0110
0000
0010
0000
0001
0000
1000
0000
,
0010
0000
0000
0000
1000
0001
1000
0000
0000
0000
0100
0000
0100
0000
0010
0000
,
0100
0000
1001
0000
0000
1000
1000
0001
,
0001
0000
0010
0000
0100
0000
0000
0000
1000
0100
0000
0000
0001
0000
0001
0100
,
0000
0000
0010
0000
0010
0000
0100
0000
0010
0000
0000
0000
0100
0010
0000
0000
,
0100
0010
0000
0000
0110
0000
0000
0000
1001
0000
0000
0000
0000
0000
0100
0000
,
0000
0010
0000
0000
0100
0000
0001
0000
1001
0000
1001
0000
1010
0000
0000
0000
,
1000
0100
0000
0000
1100
0000
0000
0000
1000
0100
0010
0000
0100
0010
0000
0000
,
0001
0100
0000
0000
0101
0000
0000
0000
0001
0100
0010
0000
0100
0010
0000
0000
,
1000
0000
0000
0001
0010
0000
0010
0000
0110
0000
0100
0000
0010
0001
0000
1001
,
0000
1000
1000
0000
0110
0010
0100
0010
,
0100
0001
0010
1000
0010
0100
1000
0010
,
0100
0001
1000
0100
1000
0001
0100
0010
,
0010
0000
1000
0000
0001
1000
0000
0000
0001
1000
0000
0000
0010
1000
0000
0000
,
0100
0000
0010
0000
0010
0000
0010
0000
0010
0000
0110
0000
1000
0001
0000
0000
,
0011
0000
0010
0000
0001
0000
1000
0000
0010
0000
0010
0000
0010
0100
0000
0000
,
1100
0000
0001
0101
0000
0110
0110
1000
,
0010
0000
0100
0000
0001
0000
0010
0000
0010
0000
0001
0000
1000
0010
0000
0000
,
0110
0000
0001
0000
1000
0000
0000
0000
0000
0000
0000
0000
0000
0011
0000
0000
,
1010
0000
0000
0000
1000
0010
0000
0000
0001
0010
0000
0000
1000
0100
0000
0000
,
0001
0100
0000
0000
0010
0000
1000
0000
0100
0000
0001
0000
0010
0000
0010
0000
,
0010
0010
0011
0010
1010
0010
0110
0000
,
1001
0000
0000
0000
0001
0000
1000
0000
0001
1000
0001
1000
0001
1000
0001
1000
,
0010
0100
0000
0000
0010
0100
0000
0000
0010
0100
0000
0000
0010
0100
0000
0000
,
0010
0100
0000
0010
0100
0000
0010
0100
0000
0010
0100
0000
0010
0100
0010
0100
,
0001
0000
0011
0000
0010
0000
0000
0000
0001
0000
0001
0000
1000
0001
0000
0000
,
1000
0010
0000
0000
0010
0000
0000
0000
0000
0000
0110
0000
0100
0000
0100
0000
,
0000
1000
0001
0000
0001
0000
0100
0000
0100
0000
0100
0000
0000
0000
0110
0000
,
0000
0000
0010
1000
0001
0000
0100
0000
0000
0000
1001
0000
1000
0000
1000
0000
,
0000
0000
0000
0100
0000
0000
0100
0000
0100
0000
0010
0001
1000
0000
0000
0000
,
0010
0110
0100
0000
0000
0110
0010
0010
,
0000
0000
1000
0001
1000
0000
0100
0000
0100
0000
0100
0000
0000
0000
0100
0000
,
0100
0100
1000
0001
0000
1001
0001
0001
,
0000
0000
0100
0001
0000
0000
1000
0010
1000
0000
0100
0000
0100
0000
0000
0000
,
0110
0010
0100
0010
0000
0001
1000
0001
,
0000
0000
0101
0000
0000
0000
1010
0000
0000
0000
0110
0000
0110
0000
1000
0010
,
1000
0000
0010
0000
0010
0000
0100
0001
0010
0001
1000
0000
0100
0000
0100
0000
,
0000
1000
1000
0000
0001
0001
0010
0000
,
0110
0000
0100
0000
1000
0000
0000
0000
0000
0000
0010
0001
0010
0000
0010
0000
,
1001
0000
0101
0000
1010
0000
0100
0010
,
0010
0000
1000
0000
0001
0000
1000
0000
0000
0000
0000
0001
0001
0000
1000
0000
,
0100
0000
0000
0000
0000
0001
0000
1000
0000
0010
0000
0010
0000
0010
0000
0000
,
0000
0000
1001
0001
1000
0000
0010
0100
,
0001
0000
1000
0010
0010
0100
0001
0001
,
0000
0000
0101
0100
1000
0000
0101
1100
,
0110
0010
0001
1000
1100
0101
0001
0011
,
0000
0000
1000
0000
0010
0000
0010
0000
0010
0000
0000
0000
0100
0001
0000
0000
,
0001
0010
0000
0000
0001
0000
1000
0000
1010
0000
0100
0000
0100
0000
0100
0000
,
0000
0000
0001
0000
1000
0000
0001
0000
1000
0000
0000
0000
0101
0000
0000
0001
,
0010
0000
0000
0000
1000
0100
0000
0100
0010
0100
0010
0000
0001
0000
1000
0000
,
1010
0000
0000
0000
0110
0100
0100
0000
,
0001
0010
0000
0000
0000
0100
0010
0100
0010
0000
0001
0000
1000
0000
0010
0000
,
0000
0000
0000
0000
1010
0000
0000
0000
0011
0000
0000
0000
0000
1001
0000
0000
,
1000
0010
1000
0010
0100
0001
0001
0010
,
0000
0100
0010
0001
1000
0010
0010
0000
,
1010
0000
0011
0000
1000
0010
0001
0100
,
0000
0000
0000
0000
0000
0000
0000
0000
0000
0000
0000
0000
0001
1000
0000
0000
,
0110
0000
0000
0000
;
