#TITLE:I Will Look For Love;
#SUBTITLE:~愛を探そう~;
#ARTIST:Ma-You;
#TITLETRANSLIT:;
#SUBTITLETRANSLIT:~AI WO SAGASOU~;
#ARTISTTRANSLIT:;
#GENRE:Rhythm and Blues;
#CREDIT:Vivaldi Amuro (Battoken) Originals;
#MUSIC:AI WO SAGASOU.mp3;
#BANNER:I WILL LOOK FOR LOVE-bn.png;
#BACKGROUND:I WILL LOOK FOR LOVE-bg.png;
#CDTITLE:VivaldiCD.png;
#SAMPLESTART:54.630;
#SAMPLELENGTH:12.000;
#SELECTABLE:YES;
#OFFSET:-1.970;
#BPMS:0.000=90.000;
#STOPS:;
#MUSICBYTES:0;
#MUSICLENGTH:89.757;
#BGCHANGES:;
#FGCHANGES:;

//--------------- dance-single - 8Chasey ----------------
#NOTES:
     dance-single:
     8Chasey:
     Beginner:
     1:
     0,0,0,0,0:
0000
0000
0001
0001
,
0001
0000
0000
0000
,
0100
0000
0000
0000
,
0010
0000
0000
0000
,
0100
0100
0100
0000
,
0100
0000
0100
0000
,
0010
0000
1000
0000
,
0010
0000
0000
0000
,
1000
0000
0001
0000
,
1000
0000
0001
0000
,
0010
0000
0001
0000
,
0010
0000
0000
0000
,
0001
0000
1000
0000
,
0001
0000
1000
0000
,
1001
0000
0001
0000
,
0001
0000
0000
0000
,
0010
0000
1000
0000
,
1000
0000
0000
0100
,
0100
0000
0010
0000
,
0100
0100
0100
0000
,
0110
0000
0000
0000
,
0100
0000
0000
0000
,
0001
0000
1000
0000
,
0001
0000
0000
0000
,
0110
0000
0000
0000
,
0010
0000
0000
0000
,
1000
0000
0001
0000
,
1000
0000
0000
0000
,
0001
0000
1000
1000
,
1000
0000
0000
0000
;

//--------------- dance-single - 8Chasey ----------------
#NOTES:
     dance-single:
     8Chasey:
     Easy:
     2:
     0,0,0,0,0:
0000
0000
0002
2003
,
3001
0100
0000
0100
,
0010
0100
0000
0010
,
1000
0001
1000
0001
,
0200
0000
0310
0100
,
0020
0000
0130
0100
,
0001
0000
0010
0001
,
1000
0000
0010
1000
,
0100
0000
0100
0010
,
0100
0000
0010
0020
,
0100
0000
0130
0000
,
0200
0000
0310
0000
,
0001
0100
0001
0000
,
1000
0100
1000
0000
,
1001
0000
0010
0010
,
0002
0000
1003
0000
,
0100
0000
0010
0010
,
2000
0000
3001
0000
,
0100
0000
0010
0000
,
1000
0001
1001
0000
,
0002
0000
0103
0000
,
2000
0000
3010
0000
,
0100
0100
0010
0000
,
1000
0001
1000
0001
,
2000
0000
3100
0000
,
0002
0000
0013
0000
,
0001
1000
1001
0000
,
0020
0000
0030
0000
,
0100
0000
2000
3002
,
1003
0000
0000
0000
;

//--------------- dance-single - 8Chasey ----------------
#NOTES:
     dance-single:
     8Chasey:
     Medium:
     4:
     0,0,0,0,0:
0000
0000
0000
0000
0000
0000
0001
1000
0001
1000
0001
1000
,
0001
0000
0100
0000
0100
0000
0010
0100
,
0010
0110
0010
1001
,
1000
0000
0001
1000
0001
0000
0001
1000
,
0200
0000
0010
0000
0310
0001
1000
0000
,
0020
0000
0100
0000
0130
0001
0010
0000
,
0001
0000
1000
1000
0001
0010
0000
0001
,
1000
0000
0001
0001
1000
0010
0000
1000
,
0100
1001
0100
0010
,
0100
0000
0001
1000
0100
0000
0020
0000
,
0100
0000
0100
0000
0130
0000
0100
0010
,
0002
0000
1003
0000
0100
1000
0010
0000
,
0200
0000
0010
0000
0310
0000
0100
0001
,
1000
0010
1000
0000
0001
0000
1001
0000
,
0110
0000
0100
0001
1000
0000
0100
0020
,
0000
0000
0031
0000
1000
0001
0100
0100
,
0001
0000
1000
0001
0100
0010
1000
0020
,
0000
0000
0030
1001
0000
0000
0100
0000
,
0001
1000
0001
0000
1000
0001
1000
0000
,
0010
0010
0010
0000
0100
0100
0000
0000
,
0001
0010
0010
0001
,
1000
0100
0100
1000
,
0010
1000
0001
0010
,
0100
0010
0100
0000
0010
0000
1001
0000
,
0100
0001
0001
0100
,
0010
1000
1000
0010
,
0100
0001
1000
0000
0110
0000
0010
0000
,
0200
0000
1300
0000
0010
1000
0001
0000
,
0200
0000
0000
0301
0000
0000
1000
0001
1000
0001
1000
0001
,
1000
0000
0000
0000
;

//--------------- dance-single - Vivaldi (12th arrows fixed by yours truly) ----------------
#NOTES:
     dance-single:
     Vivaldi (12th arrows fixed by yours truly):
     Hard:
     6:
     0.253,0.204,0.279,0,0:
0000
0000
0000
0000
0000
0000
0001
1000
0010
1000
0100
0010
,
0001
0110
0100
0110
0100
0000
0100
0000
,
0100
1001
0100
1001
0100
1000
0010
1000
,
0010
1010
0010
1010
0100
0001
0100
0001
,
0100
0000
0100
0000
0100
0000
0100
0001
0100
0001
0100
0000
0020
0000
0100
0000
,
1030
0000
1000
0000
1000
0000
1000
0100
1000
0100
1000
0000
0100
0000
0100
0000
,
0001
0000
0100
0000
0001
0000
0001
0100
0000
0000
1000
0000
0010
0000
0010
0000
,
0010
0000
1000
0000
0010
0000
0010
0001
0000
0000
0100
0000
0100
0000
0100
0000
,
0101
0000
0101
0000
0100
1000
0010
0001
,
0010
0000
0001
0010
0001
0001
0002
0000
,
0100
0000
0000
0000
0100
0000
0000
0000
0100
0000
0100
0000
0103
0000
0100
0001
,
0100
0000
1000
0010
1000
0100
0100
0000
,
2000
0000
0100
0000
0100
0000
0100
3000
,
0100
0000
0000
0001
0000
0000
0100
0000
0000
1000
0000
0000
0010
0000
0000
0000
0000
0000
0010
0000
1000
0000
0100
0000
,
0001
0100
1000
0010
1000
0100
0001
0200
,
0000
0000
0000
0000
0000
0000
0000
0000
0000
0000
0300
0000
0100
0000
0100
1000
,
0010
0000
0010
1000
0010
1000
0100
0002
,
0000
0000
0003
0101
0000
0100
1000
0010
,
0010
0000
1000
0100
0001
0000
0100
0100
,
0001
0100
1000
0000
1100
1100
1000
0010
,
2000
3100
0002
0103
,
0020
1030
0200
0301
,
0100
1000
0010
0001
0000
0001
0001
0010
,
1000
0020
0001
0031
0000
0100
1000
0000
,
1000
0010
0001
0000
0001
0010
0100
0100
,
0010
0001
0010
0000
0001
0010
0100
0000
,
1000
0010
0100
0000
1000
1000
0100
0001
,
0002
0000
0100
0003
0100
0000
1000
0010
1000
0000
0100
0000
0001
0100
0001
0000
,
1000
0000
0000
0010
0000
0000
1000
0000
0000
0010
0000
0000
0010
0000
1000
0000
0100
0000
0010
0000
0100
0000
1000
0000
,
0200
0000
0000
0000
,
0000
0300
0000
0000
0000
0000
0000
0000
;

//--------------- dance-single - 8Chasey ----------------
#NOTES:
     dance-single:
     8Chasey:
     Challenge:
     9:
     0,0,0,0,0:
0000
0000
0000
0000
0000
0000
0101
0011
0101
1010
1100
1010
,
1001
0000
0001
0100
1000
0000
0001
0010
1000
0000
0010
0000
1100
0000
1000
0000
,
0001
0000
1000
0100
0001
0000
1000
0010
0001
0000
0100
0000
0101
0000
1001
0000
,
1000
0000
0010
1000
0100
0000
0010
0001
0100
0000
0010
0000
1001
0000
0100
0000
,
0102
0000
1000
0000
1003
0000
0010
1000
0010
0010
1000
0000
0100
1000
0100
0000
,
2100
0000
0001
0000
0001
0000
3001
0000
0010
0100
1000
0000
1010
0000
0100
0000
,
0110
0000
0100
0000
0001
0000
0001
0010
0000
0001
0100
0000
0010
1000
0010
0000
,
1100
0000
1000
0000
0010
0000
1000
0010
0000
1000
0100
0000
0010
0001
0010
0000
,
0011
0000
0001
0000
1000
0000
0100
1000
0000
1000
0010
0000
1010
0000
0001
0000
,
0010
0000
0001
0001
0010
0000
1001
0000
1000
0100
1000
0000
2020
0000
3000
0000
,
0130
0001
0100
0000
0010
0000
0010
1000
0000
1000
0010
0000
1100
0000
0010
0000
,
0102
0000
0000
0000
1003
0000
0100
0010
0000
0010
0100
0000
1000
0010
0100
0000
,
0101
0000
0001
0010
0001
0000
0010
0100
0000
0100
1000
0000
0010
0000
1001
0000
,
1000
0000
0000
0100
0000
0000
1000
0000
0000
0000
0000
0000
0110
0000
0000
0000
0000
0000
0001
0000
0000
0000
0000
0000
0100
0000
0000
0000
0000
0000
0001
0000
0000
0000
0000
0000
1100
0000
0000
0000
1010
0000
0000
0000
0101
0000
0000
0000
,
0012
0000
0010
0000
0013
0000
0001
1000
0001
0000
1000
0000
1100
0000
1200
0000
,
0000
0000
0010
0000
1000
0000
1300
0000
0001
0100
0001
0000
0110
0000
1000
0000
,
2010
0000
0010
0000
3010
0000
1000
0001
1000
0000
0001
0000
0101
0000
0201
0000
,
0000
0000
0000
0010
0000
0000
0301
0000
0000
1001
0000
0000
0000
0000
0000
1000
0000
0000
0100
0000
0100
1000
0000
0000
,
1001
0000
0000
0000
0000
0000
0001
0000
0000
0000
0000
0000
0010
0000
0000
0000
0000
0000
0001
0000
0000
0100
0000
0000
0001
0000
0000
0000
0000
0000
0001
0000
0000
0000
0000
0000
1000
0000
0000
0000
0100
0000
0010
0000
0000
0000
0000
0000
,
1100
0110
0101
0100
1001
2002
0000
3003
,
1001
0000
0010
0001
0010
0000
0001
1000
0001
0000
1000
0000
1100
0000
0100
0000
,
1000
0000
0010
1000
0010
0000
0200
0000
0001
0000
0010
0000
0301
0000
0010
0000
,
0011
0000
0010
0001
1000
0000
0200
0000
0000
0000
1000
0000
1300
0000
0010
0000
,
1010
0000
0000
0000
0000
0000
0010
0000
0000
1000
0000
0000
0001
0000
0000
0000
0000
0000
0020
0000
0000
0000
0000
0000
0000
0000
0000
0000
0000
0000
0130
0000
0000
0000
0000
0000
0011
0000
0000
0000
0101
0000
0000
0000
1010
0000
0000
0000
,
2100
0000
0001
0000
3010
0000
0100
0001
0100
0000
0001
0000
0011
0000
0010
0001
,
0100
0000
0010
0000
1100
0000
1002
0000
0000
0000
0100
0000
1003
0000
0010
1000
,
0100
0000
0000
1000
0000
0000
0010
0000
0000
1000
0000
0000
2001
0000
0000
0000
0000
0000
3010
0000
0010
1000
0000
0000
,
0101
0000
0010
0001
2000
0000
0100
0000
0100
0000
0010
0000
3100
0000
0010
0010
,
0002
0000
0000
0100
0000
0000
1003
0000
0000
0100
0000
0000
1100
0000
1010
0000
1100
0000
0011
0000
0101
0000
0011
0000
,
2002
0000
0000
0000
,
0000
0000
0000
0000
0000
0000
0000
3003
;

//--------------- dance-double - 8Chasey ----------------
#NOTES:
     dance-double:
     8Chasey:
     Easy:
     4:
     0,0,0,0,0:
00000000
00000000
00000000
00000000
00000000
00000000
00001000
00010000
00001000
00010000
00001000
00010000
,
00002000
00010000
00000000
00013000
,
00001000
00020000
00000000
00031000
,
00200000
01000000
00000000
01300000
,
20020000
00000000
00000000
00000000
30030000
00000000
01000000
00100000
,
02000000
00000000
03100000
01000000
,
00010000
00100000
00001000
00010000
,
00000100
00010000
00001000
01000000
,
00010000
10000000
00010000
00000000
20000000
00000000
31000000
00000000
,
00010000
00001000
00000100
00000020
,
00001000
00001000
00001030
00000010
,
00000200
00000001
00000001
00000301
,
00001000
00000100
00010000
00001000
,
00100000
00001000
00100000
00000000
00010000
00000000
10010000
00000000
,
20000000
01000000
00000000
00010000
,
30020000
00000000
00000000
00000000
00130000
00000000
00001000
00010000
,
00002000
00003100
00000002
00001000
,
00000023
00000000
00000000
00000130
00000000
00001000
00000100
00001000
,
00000100
00010000
00001000
00100000
,
00010000
00010000
00010000
00000000
10000000
10000000
00000000
00000000
,
20020000
30030000
00010000
00000000
,
10000000
00010000
20000000
30000000
,
01000000
00010000
00001000
00000000
,
00000100
00000010
00000100
00000200
,
00000310
00000000
00000110
00000000
,
00000010
00001000
00000002
00000000
,
00001003
00000100
00010000
00000000
,
00022000
00000000
00000000
00000000
00033000
00000000
00100000
00100000
,
00200000
00000000
00000000
00300000
00000000
00000000
00010000
10000000
00010000
10000000
00010000
10000000
,
00010000
00000000
00000000
00000000
;

//--------------- dance-double - 8Chasey ----------------
#NOTES:
     dance-double:
     8Chasey:
     Medium:
     5:
     0,0,0,0,0:
00000000
00000000
00000000
00000000
00000000
00000000
00010000
00001000
00010000
00000100
00000010
00000100
,
00000010
00000001
00001000
00001001
00000000
00000000
00000100
00000100
,
00000000
00000010
00001000
00000001
00000000
00000100
00000020
00000000
,
00000130
00001000
00010000
00011000
00000000
00000000
00001000
00010000
,
00200000
01000000
01000000
00000000
10000000
00000000
01300000
00010000
,
02000000
00010000
00010000
00000000
03010000
00000000
10010000
00000000
,
20000000
00000000
31000000
00000000
10000000
01000000
00010000
00000000
,
00002000
00000000
00013000
00000000
00000100
00001000
00000001
00000000
,
00000100
00000100
00000001
00000000
00000100
00000010
00001000
00000000
,
00000100
00010000
00001000
00100000
00001000
00000000
00201000
00000000
,
01000000
00000000
01000000
00000000
00310000
00100000
00000000
00010000
,
02000000
00000000
03100000
00000000
10000000
01000000
00010000
00000000
,
00001000
00010000
00001000
00000000
00010000
00000000
00000100
00000000
,
00001000
00000000
00000000
00000001
00000000
00000000
00001000
00000000
00000000
00000000
00000000
00000000
00000001
00000000
00000000
00000000
00000000
00000000
00000100
00000000
00001000
00000000
00010000
00000000
,
00001000
00000000
00010000
00010000
00001000
00000000
00100000
00020000
,
00000000
00000000
10000000
00000000
00000000
00000000
01030000
00010000
,
01010000
00000000
10000000
00000000
01000000
00010000
00001000
00020000
,
00000100
00000000
00000000
00000000
00030100
00000000
00001000
00000000
00000000
00000000
00000010
00000000
00001000
00000010
00001000
00000000
,
00000010
00000000
00001000
00000001
00001000
00000000
00000001
00000000
,
00000100
00001000
00010000
00000000
00011000
00022000
00000000
00033000
,
00011000
00000000
00100000
00020000
00000000
00000000
00130000
00000000
,
00001000
00000000
00010000
00000200
00000000
00000000
00000310
00000100
,
00000010
00000000
00000001
00000010
00000000
00000001
00001000
00000100
,
00001000
00000000
00000000
00000000
00000000
00000000
00000010
00000000
00000000
00001000
00000000
00000000
00000100
00000000
00000000
00000000
00000000
00000000
00010000
00000000
00001000
00000000
00100000
00000000
,
01000000
00000000
10000000
02000000
00000000
10000000
13000000
00000000
,
01000000
00100000
00010000
02000000
00000000
00010000
03010000
00100000
,
00110000
00000000
00000000
00000000
10000000
00000000
00100000
00000000
10100000
00000000
00000000
00000000
00100000
01000000
00100000
00000000
,
01000000
00000000
00020000
00000000
01000000
01030000
00010000
00100000
,
00001000
00000000
00000000
00010000
00000000
00000000
00001000
00000000
00000000
00000000
00000000
00000000
00100000
00000000
00010000
00000000
01000000
00000000
00100000
00000000
10000000
00000000
01000000
00000000
,
00200000
00000000
00000000
00000000
,
00300000
00000000
00000000
00000000
;

//--------------- dance-double - 8Chasey (based on Single HEAVY) ----------------
#NOTES:
     dance-double:
     8Chasey (based on Single HEAVY):
     Hard:
     6:
     0,0,0,0,0:
00000000
00000000
00000000
00000000
00000000
00000000
00100000
00001000
00010000
00000100
00001000
00000010
,
00000100
00000110
00000010
00000110
00000010
00001000
00000200
00000000
,
00010300
00000000
00011000
00000000
00001000
00000000
00011000
00000000
00001000
00000000
00100000
00000000
00010000
00100000
00010000
00000000
,
10000000
10010000
00010000
01010000
10000000
01000000
11000000
00000000
,
00110000
00000000
00010000
00000000
00010000
00000000
00100000
00001000
00100000
00001000
00010000
00000000
00000200
00000000
00010000
00000000
,
00001300
00000000
00001000
00000000
00001000
00000000
00001000
00000100
00001000
00000100
00001000
00000000
00000010
00000000
00000010
00000000
,
00000100
00000000
00000001
00000000
00001000
00000000
00001000
00000100
00000000
00000000
00010000
00000000
00001000
00000000
00001000
00000000
,
00100000
00000000
00010000
00000000
00100000
00000000
00100000
01000000
00000000
00000000
10000000
00000000
00010000
00000000
01000000
00000000
,
01010000
00000000
11000000
00000000
00010000
00100000
00001000
00010000
,
00000100
00000000
00001000
00000010
00001000
00000100
00020000
00000000
,
00000010
00000000
00000000
00000000
00000100
00000000
00000000
00000000
00000010
00000000
00000010
00000000
00030010
00000000
00010000
00001000
,
00010000
00000000
00001000
00100000
00010000
01000000
01000000
00010000
,
00200000
00000000
00001000
00000000
00010000
00000000
00301000
00010000
,
00000100
00000000
00000000
00001000
00000000
00000000
00000001
00000000
00000000
00000010
00000000
00000000
00000100
00000000
00000000
00000000
00000000
00000000
00000010
00000000
00001000
00000000
00010000
00000000
,
00000100
00010000
00001000
00010000
00100000
01000000
00010000
00200000
,
00010000
00000000
00000000
00000000
01000000
00000000
00000000
00000000
00310000
00000000
00000000
00000000
00100000
00000000
00001000
00010000
,
00001000
00000000
00010000
00000100
00001000
00000001
00001000
00002000
,
00000000
00000000
00000000
00000000
00003000
00000000
00001100
00000000
00000000
00000000
00000010
00000000
00000100
00000010
00000100
00000000
,
00000010
00000000
00000001
00000100
00001000
00000000
00010000
00001000
,
00010000
01000000
10000000
00000000
10010000
20020000
00000000
30030000
,
00200000
00301000
00020000
00030010
,
00000020
00001030
00000002
00000103
,
00000010
00000001
00000100
00001000
00000000
00010000
00010000
00001000
,
00100000
00000000
00000000
02000000
00000000
00000000
10000000
00000000
00000000
13000000
00000000
00000000
00000000
00000000
00000000
00010000
00000000
00000000
10000000
00000000
00010000
00000000
10000000
00000000
,
00010000
00100000
00001000
00000000
00010000
00000100
00010000
00010000
,
00001000
00000100
00000001
00000000
00000010
00000001
00001000
00000000
,
00000010
00000100
00001000
00010000
00001000
00001000
00010000
00100000
,
20000000
00000000
00100000
00000000
30100000
00000000
01000000
00010000
01000000
00000000
00001000
00000000
00011000
00000000
00010000
00000000
,
00000100
00000000
00000000
00000000
00000000
00000000
00001000
00000000
00000000
00000010
00000000
00000000
00001000
00000000
00000000
00000000
00000000
00000000
00000001
00000000
00000000
00000000
00000000
00000000
00000100
00000000
00000000
00000000
00001000
00000000
00000000
00000000
00010000
00000000
00000000
00000000
00100000
00000000
00000000
00000000
00010000
00000000
00000000
00000000
00001000
00000000
00000000
00000000
,
02000000
00000000
00000000
00000000
,
00000000
03000000
00000000
00000000
;

//--------------- dance-double - 8Chasey ----------------
#NOTES:
     dance-double:
     8Chasey:
     Challenge:
     9:
     0,0,0,0,0:
00000000
00000000
00000000
00000000
00000000
00000000
01001000
00011000
00101000
00010100
00011000
00010010
,
00000110
00000000
00000001
00000010
00001000
00000000
00010000
00001000
00100000
00000000
00010000
00000000
10010000
00000000
11000000
00000000
,
01000000
00000000
10000000
00100000
00010000
00000000
00001000
00010000
00000100
00000000
00000010
00000000
00001001
00000000
00001000
00000000
,
00000100
00000000
00000010
00000100
00010000
00000000
00001000
00100000
01000000
00000000
00100000
00000000
00101000
00000000
00010000
00000000
,
00010200
00000000
00000010
00000000
00000310
00000000
00000100
00001000
00000100
00000100
00010000
00000000
00001000
00100000
00010000
00000000
,
00210000
00000000
01000000
00000000
00010000
00000000
01300000
00000000
10000000
00100000
01000000
00000000
01020000
00000000
00130000
00000000
,
00011000
00000000
00010000
00000000
00000100
00000000
00001000
00000010
00000000
00000010
00000100
00000000
00000001
00000100
00000001
00000000
,
00001100
00000000
00001000
00000000
00000010
00000000
00000100
00001000
00000000
00010000
00001000
00000000
00100000
00001000
00100000
00000000
,
01010000
00000000
00010000
00000000
00100000
00000000
00001000
00010000
00000000
00000000
00010100
00000000
00001100
00000000
00001000
00000000
,
00000010
00000000
00001000
00001000
00000001
00000000
00000101
00000000
00000010
00000001
00000100
00000000
00002020
00000000
00000030
00000000
,
00003100
00010000
00000100
00000000
00010000
00000000
00010000
00001000
00000000
00100000
00001000
00000000
00100000
00010000
01000000
00000000
,
01200000
00000000
00000000
00000000
10300000
00000000
00010000
00100000
00000000
00100000
00001000
00000000
00010000
00000100
00001000
00000000
,
00001100
00000000
00001000
00000000
00000001
00000000
00000100
00000010
00000000
00000000
00001010
00000000
00001000
00000000
00000100
00000000
,
00010000
00000000
00000000
00001000
00000000
00000000
00100000
00000000
00000000
00000000
00000000
00000000
00101000
00000000
00000000
00000000
00000000
00000000
00100000
00000000
00000000
00000000
00000000
00000000
00010000
00000000
00000000
00000000
00000000
00000000
01000000
00000000
00000000
00000000
00000000
00000000
00110000
00000000
00000000
00000000
00011000
00000000
00000000
00000000
00001010
00000000
00000000
00000000
,
00000012
00000000
00000000
00000000
00001003
00000000
00000100
00010000
00000100
00000000
00010000
00000000
00001000
00000000
00201000
00000000
,
00000000
00000000
01000000
00000000
00310000
00000000
00100000
00100000
00010000
00000000
10000000
00000000
10100000
00000000
00110000
00000000
,
00201000
00010000
00302000
00013000
00000100
00000010
00000001
00000021
,
00000000
00000000
00000000
00000100
00000000
00000000
00000031
00000000
00000000
00000102
00000000
00000000
00000000
00000000
00000000
00001003
00000000
00000000
00000100
00000000
00010000
00000100
00000000
00000000
,
00001001
00000010
00000001
00000000
00001000
00000100
00010000
00001000
,
00110000
00011000
00001100
00000000
00000110
00001001
00000010
00000100
,
00001010
00000000
00001000
00000100
00010000
00000000
00012000
00000000
00000000
00000000
00103000
00000000
00110000
00000000
00100000
00000000
,
01000000
00000000
10000000
00010000
10000000
00000000
01020000
00000000
00000000
00000000
00100000
00000000
01030000
00000000
00010000
00000000
,
00110000
00000000
00100000
00001000
00010000
00000000
00010200
00000000
00000000
00000000
00001000
00000000
00001300
00000000
00000010
00000000
,
00001001
00000000
00000000
00000000
00000000
00000000
00000010
00000000
00000000
00000001
00000000
00000000
00000100
00000000
00000000
00000000
00000000
00000000
00000020
00000000
00000000
00000000
00000000
00000000
00001000
00000000
00000000
00000000
00000000
00000000
00000130
00000000
00000000
00000000
00000000
00000000
00001010
00000000
00000000
00000000
00011000
00000000
00000000
00000000
00110000
00000000
00000000
00000000
,
20100000
00000000
01000000
00000000
30010000
00000000
00200000
00000000
00301000
00000000
00010000
00001000
00000100
00000000
00000010
00000000
,
00002000
00000000
00000100
00000000
00003001
00000000
00000021
00000000
00000000
00000000
00000100
00000000
00000031
00000000
00000100
00000001
,
00000100
00000000
00000000
00001000
00000000
00000000
00010000
00000000
00000000
00001000
00000000
00000000
00201000
00000000
00000000
00000000
00000000
00000000
00310000
00000000
00010000
10000000
00000000
00000000
,
11000000
00000000
00100000
00000000
00200000
00000000
00001000
00000000
00000000
00000000
00010000
00000000
00301000
00000000
00010000
00010000
,
00000200
00000000
00000000
00001000
00000000
00000000
00000310
00000000
00000000
00000100
00000000
00000000
00001100
00000000
00011000
00000000
00001100
00000000
00011000
00000000
01010000
00000000
11000000
00000000
,
20020000
00000000
00000000
00000000
,
00000000
00000000
00000000
30030000
;
