#TITLE:I REALLY WANT TO HURT YOU;
#SUBTITLE:;
#ARTIST:SUGI & REO;
#TITLETRANSLIT:;
#SUBTITLETRANSLIT:;
#ARTISTTRANSLIT:;
#GENRE:Pop;
#CREDIT:;
#MUSIC:I REALLY WANT TO HURT YOU.mp3;
#BANNER:I REALLY WANT TO HURT YOU.png;
#BACKGROUND:I REALLY WANT TO HURT YOU-bg.png;
#CDTITLE:;
#SAMPLESTART:14.580;
#SAMPLELENGTH:12.000;
#SELECTABLE:NO;
#OFFSET:-1.046;
#BPMS:0.000=142.000;
#STOPS:;
#BGCHANGES:;
#FGCHANGES:;

//--------------- dance-single - ----------------
#NOTES:
     dance-single:
     :
     Beginner:
     1:
     0,0,0,0,0:
0000
0000
0000
0000
,
0000
0000
0000
0000
,
0000
0000
0000
0000
,
0000
0000
0000
0000
,
0000
0000
0000
0000
,
0000
0000
0000
0000
,
0000
0000
0000
0000
,
0000
0000
0000
0000
,
0001
0000
0000
0000
,
0001
0000
0000
0000
,
1000
0000
0000
0000
,
1000
0000
0000
0000
,
0010
0000
0000
0000
,
0000
0000
0000
0000
,
0010
0000
0000
0000
,
0100
0000
0000
0000
,
1000
0000
0000
0000
,
1000
0000
0000
0000
,
0001
0000
0000
0000
,
0001
0000
0000
0000
,
0100
0000
0000
0000
,
0000
0000
0000
0000
,
0100
0000
0000
0000
,
0010
0000
0000
0000
,
1001
0000
0000
0000
,
0000
0000
0000
0000
,
1000
0000
0000
0000
,
0001
0000
0000
0000
,
0110
0000
0000
0000
,
0000
0000
0000
0000
,
0100
0000
0100
0000
,
0100
0000
0000
0000
,
0001
0000
0000
0000
,
1000
0000
0000
0000
,
0010
0000
0000
0000
,
0010
0010
0010
0010
,
0010
0000
0000
0000
,
0000
0000
0100
0000
,
0100
0000
0100
0000
,
0000
0000
0100
0000
,
0100
0000
0100
0000
,
0000
0000
0001
0000
,
0000
0000
0100
0000
,
0000
0000
1000
0000
,
0000
0000
0000
0000
,
0000
0000
0010
0000
;

//--------------- dance-single - ----------------
#NOTES:
     dance-single:
     :
     Easy:
     2:
     0,0,0,0,0:
0000
0000
0000
0000
,
0000
0000
0000
0000
,
0000
0000
0000
0000
,
0000
0000
0000
0000
,
0000
0000
0000
0000
,
0000
0000
0000
0000
,
0000
0000
0000
0000
,
0000
0000
0000
0000
,
0001
0000
0010
0000
,
0001
0000
0000
0000
,
1000
0000
0100
0000
,
1000
0000
0000
0000
,
1001
0000
0001
0000
,
0001
0000
0000
0000
,
0010
0000
0000
0000
,
1000
0100
1000
0100
,
0010
0000
0000
0000
,
0001
0000
0010
0000
,
1000
0000
0000
0000
,
0100
0000
0000
0000
,
1000
0010
1000
0000
,
0001
0010
0001
0000
,
0100
0000
0100
0000
,
0001
0000
1000
0000
,
1001
0000
0000
0000
,
0000
0000
0000
0000
,
1000
0000
0000
0000
,
0001
1000
0001
1000
,
0001
0000
0000
0000
,
0010
0000
0000
0000
,
0001
0000
0001
0000
,
1000
0000
1000
0000
,
0001
0000
0000
0000
,
1000
0000
0000
0000
,
0100
0000
0010
0000
,
1001
1001
1001
1001
,
0000
0000
0001
0000
,
0001
0001
0010
0000
,
0000
0000
1000
0000
,
1000
1000
0100
0000
,
0000
0000
1000
0000
,
0001
0000
1000
0000
,
0000
0000
0001
0000
,
1000
0000
0001
0000
,
0000
0000
0100
0000
,
0000
0000
0010
0000
,
0000
0000
0100
0100
0000
0000
0000
0000
;

//--------------- dance-single - ----------------
#NOTES:
     dance-single:
     :
     Medium:
     4:
     0,0,0,0,0:
0000
0000
0000
0000
,
0000
0000
0000
0000
,
0000
0000
0000
0000
,
0000
0000
0000
0000
,
0000
0000
0000
0000
,
0000
0000
0000
0000
,
0000
0000
0000
0000
,
0000
0000
0000
0000
,
0001
0000
0010
0001
,
1000
0000
0000
0100
,
1000
0000
0010
1000
,
0001
0000
0000
0000
,
1001
0000
0001
0001
,
0010
0000
0001
1000
,
0100
0000
1000
1000
,
0010
0000
0100
0000
0010
0100
0010
0000
,
1000
0000
1000
0000
0010
1000
0001
0000
,
0100
0000
1001
0000
,
0001
0000
0001
0000
0010
0001
1000
0000
,
0100
0000
1001
0000
,
1000
0000
0000
0000
0100
1000
0100
0000
,
0010
0000
0001
0000
0100
0001
0100
0000
,
1001
0000
1000
0000
,
0001
0001
0100
0000
,
0110
0000
0000
0000
,
0000
0000
0000
0000
,
0010
1000
0001
0010
,
0100
0000
0000
1000
0000
0001
0000
0100
,
0000
0000
0001
0000
,
0010
0000
1000
0000
,
0001
0000
0010
0000
,
0100
0000
1000
0000
,
1001
0000
0000
0000
,
1000
0010
0000
1000
0000
0001
0010
0000
,
0100
0000
0000
0000
,
1001
1001
0110
0110
,
0000
0000
0001
0010
,
0001
1000
0100
0000
1000
0000
0010
0000
,
1000
0001
0100
0000
0010
0000
1000
0000
,
0100
0010
0001
0000
0010
0000
0001
0000
,
0100
0010
1000
0000
1010
0000
0000
0000
,
1100
0000
1010
0000
,
1000
0001
0011
0000
,
0101
0000
0011
0000
,
1000
0001
0110
0000
,
0000
0000
0010
0000
,
0000
0000
0100
0100
0000
0000
0000
0000
;

//--------------- dance-single - ----------------
#NOTES:
     dance-single:
     :
     Hard:
     6:
     0,0,0,0,0:
0000
0000
0000
0000
,
0000
0000
0000
0000
,
0000
0000
0000
0000
,
0000
0000
0000
0000
,
0000
0000
0000
0000
,
0000
0000
0000
0000
,
0000
0000
0000
0000
,
0000
0000
0000
0000
,
0001
0000
1000
0000
0010
1000
0001
0010
,
0100
0000
0100
0000
0010
0001
1000
0000
,
0100
0000
1000
0000
0010
1000
0010
0100
,
0001
0000
1000
0000
0001
1000
0100
0000
,
0010
0000
0100
0000
1000
0010
1000
0010
,
0000
1000
0001
0000
0010
0001
0100
0000
,
0010
0000
1000
0000
0010
1000
0100
0000
,
0110
0000
0110
0000
0001
1000
0010
0010
,
1000
0000
0100
0000
1000
0001
0100
0010
,
1000
0000
0100
0000
0010
0001
0010
0000
,
0001
0000
1000
0000
0100
1000
0010
1000
,
0001
0000
0100
0000
0001
1000
0100
0000
,
1000
0001
1000
0000
0010
1000
0001
0000
,
0010
0000
0001
0000
0100
0001
1000
0000
,
0001
0101
1000
1100
,
1010
0000
0011
0000
0010
0001
0100
0000
,
0110
0000
1000
0000
0010
0000
1000
0001
,
1000
0000
0001
0000
0100
0001
0100
0000
,
0001
0000
0010
0000
0010
0001
1000
0000
,
0100
1000
0000
0001
0000
1000
0000
0010
,
0010
0100
0100
0001
,
1000
0000
0100
1000
0010
0000
1000
0000
,
0001
0010
0001
0000
0010
0001
1000
0000
,
0100
1000
0100
0000
1000
0001
1000
0000
,
1001
0000
0000
1001
0000
1000
0010
0000
,
0100
0001
0000
1000
0000
0010
1000
0000
,
0100
1000
0100
0000
0010
0001
0100
0000
,
1010
1001
0101
0110
,
0010
0100
1001
0000
0010
0000
0001
0000
,
0100
0001
1000
0100
0010
0000
0100
0000
,
0010
1100
1000
0001
,
1000
0010
0100
0001
0010
0000
0100
0000
,
1000
0001
0010
0000
1001
0000
0010
0000
,
1010
1000
0011
0001
,
1000
0001
1000
0000
1100
0000
1000
0000
,
0101
0001
1000
0001
,
1000
0100
1000
0000
0110
0000
0000
0000
,
0000
0000
1001
0000
,
0000
0000
0100
0100
0000
0000
0000
0000
;

//--------------- dance-single - ----------------
#NOTES:
     dance-single:
     :
     Challenge:
     9:
     0,0,0,0,0:
0000
0000
0000
0000
,
0000
0000
0000
0000
,
0000
0000
0000
0000
,
0000
0000
0000
0000
,
0000
0000
0000
0000
,
0000
0000
0000
0000
,
0000
0000
0000
0000
,
0000
0000
0000
0000
,
0001
0000
0010
0000
1000
0000
0010
0000
0001
0000
0010
0000
0100
0010
0100
0000
,
1000
0000
0010
0000
0100
0000
0010
0000
0001
0000
0010
0000
0100
0010
0100
0000
,
0001
0000
0100
0000
1000
0000
0100
0000
0001
0000
0100
0000
0010
0100
0010
0000
,
1000
0000
0100
0000
0001
0000
0100
0000
1000
0000
0100
0000
0010
0100
0010
0000
,
0001
1000
0100
0010
0001
1000
0001
0100
,
0010
0001
0010
1000
0001
0100
0010
1000
,
0001
0001
0011
0000
1000
1000
1010
0000
,
0001
0000
1000
0000
0001
0000
1000
0000
0010
0100
0010
0100
0010
0100
0010
0000
,
1000
0000
0100
0000
0001
0000
0100
0000
1000
0000
0010
0000
0100
0001
0100
0000
,
0010
0000
1000
0000
0001
0000
0010
0000
0001
0000
0010
0000
0100
1000
0100
0000
,
1000
0000
0010
0000
1000
0000
0001
0000
0100
0000
0001
0000
0010
0001
0010
0000
,
0001
0000
0010
0000
0001
0000
1000
0000
0100
0000
1000
0000
0010
1000
0010
0000
,
0100
0001
1000
0010
0001
0010
1000
0100
,
0010
0001
1000
0010
1000
0001
0100
0001
,
1000
1000
1100
0000
0001
0001
0101
0000
,
1000
0000
0001
0000
1000
0000
0001
0000
0010
0100
0010
0100
0010
0100
0010
0000
,
0200
0000
0001
0000
0301
0000
1000
0100
0000
1000
0100
0000
0010
0000
0001
0000
,
2000
0000
0010
0000
3010
0000
1000
0001
0000
1000
0100
0000
0010
0000
0100
0000
,
2000
0000
0001
0000
3001
0000
0010
0001
0000
0001
0100
0000
0010
0000
1000
0000
,
0200
0010
0310
0100
0010
0001
0000
1001
,
2000
0000
0010
0000
3010
0000
1000
0010
0000
1000
0100
0000
0010
0000
0010
0000
,
0002
0000
0010
0000
0013
0000
0001
1000
0000
1000
0100
0000
0010
0000
0100
0000
,
2000
0010
3010
0100
0002
0010
0013
0001
,
0200
0010
0310
1000
0020
0100
0130
0001
,
1001
0000
1000
0100
0001
0100
1000
0010
,
1000
0100
1000
0000
0010
0000
1000
0000
0001
0100
0001
0000
0010
0000
0001
0000
,
1000
0000
0100
0000
0010
0000
0001
1000
0000
0100
0010
0000
0001
1000
0001
0000
,
1000
0100
0000
1000
0001
0100
0000
0001
1000
0100
0000
1000
0001
0100
0000
0001
,
0010
0100
0010
0100
0010
0000
0000
0000
1001
0000
0001
0000
0010
0000
0001
0000
,
1000
0000
0010
0000
0100
0010
0100
0000
0001
0000
1000
0000
0010
0000
1000
0000
,
0001
0000
0010
0000
0100
0010
0100
0000
1000
0000
0010
0000
1000
0000
0001
0000
,
0100
0000
0010
0000
1000
0001
1000
0000
0001
0000
0100
0000
0001
0000
1000
0000
,
0100
0000
0010
0000
0001
1000
0001
0000
1100
0000
1000
0000
0010
0000
1000
0000
,
0001
0010
0001
1000
0101
0001
0010
0001
,
1000
0010
1000
0001
0010
0010
0011
0000
,
0100
0100
1100
0000
1000
0100
0010
0001
,
0100
0010
0100
0010
0100
0000
0010
0100
0020
0000
0000
0000
1000
0000
0000
0000
,
0001
0130
2002
0000
,
3003
0000
0001
1000
0000
0000
0000
0000
;

//--------------- dance-single - Failsafe Maniac ----------------
#NOTES:
     dance-single:
     Failsafe Maniac:
     Edit:
     6:
     0,0,0,0,0:
0000
0000
0000
0000
,
0000
0000
0000
0000
,
0000
0000
0000
0000
,
0000
0000
0000
0000
,
0000
0000
0000
0000
,
0000
0000
0000
0000
,
0000
0000
0000
0000
,
0000
0000
0000
0000
,
0001
0000
1000
0000
0010
1000
0001
0010
,
0100
0000
0100
0000
0010
0001
1000
0000
,
0100
0000
1000
0000
0010
1000
0010
0100
,
0001
0000
1000
0000
0001
1000
0100
0000
,
0010
0000
0100
0000
1000
0010
0000
0010
,
0000
1000
0001
0000
0010
0001
0100
0000
,
0010
0000
1000
0000
0010
1000
0100
0000
,
0110
0000
0110
0000
0001
1000
0010
0010
,
1000
0000
0100
0000
1000
0001
0100
0010
,
1000
0000
0100
0000
0010
0001
0010
0000
,
0001
0000
1000
0000
0100
1000
0010
1000
,
0001
0000
0100
0000
0001
1000
0100
0000
,
1000
0000
1000
0000
0010
1000
0001
0000
,
0010
0000
0001
0000
0100
0001
1000
0000
,
0001
0101
1000
1100
,
1010
0000
0011
0000
0010
0001
0100
0000
,
0010
0000
0000
0000
,
0000
0000
0000
0000
,
0001
0000
0010
0000
0010
0001
1000
0000
,
0100
1000
0000
0001
0000
1000
0000
0010
,
0010
0000
0100
0001
,
1000
0000
0100
1000
0010
0000
1000
0000
,
0001
0010
0000
0000
0001
0010
0000
0000
,
0100
1000
0000
0000
0100
1000
0000
0000
,
1001
0000
0000
1001
0000
0000
0000
0000
,
0100
0001
0000
1000
0000
0010
1000
0000
,
0100
1000
0100
0000
0010
0001
0100
0000
,
1010
1001
0101
0110
,
1001
1001
0010
0001
,
0100
0001
1000
0100
0010
0000
0100
0000
,
0010
1100
1000
0001
,
1000
0010
0100
0001
0010
0000
0100
0000
,
0101
0001
1001
0000
,
1010
0000
0011
0000
,
1000
0001
1000
0000
1100
0000
0000
0000
,
0101
0000
0001
1000
,
1000
0100
1000
0000
0110
0000
0000
0000
,
0000
0000
1001
0000
,
0000
0000
0001
1000
0000
0000
0000
0000
;

//--------------- dance-double - ----------------
#NOTES:
     dance-double:
     :
     Easy:
     3:
     0,0,0,0,0:
00000000
00000000
00000000
00000000
,
00000000
00000000
00000000
00000000
,
00000000
00000000
00000000
00000000
,
00000000
00000000
00000000
00000000
,
00000000
00000000
00000000
00000000
,
00000000
00000000
00000000
00000000
,
00000000
00000000
00000000
00000000
,
00000000
00000000
00000000
00000000
,
00010000
00000000
00100000
00000000
,
00010000
00100000
00010000
00000000
,
00001000
00000000
00000100
00000000
,
00001000
00000100
00001000
00000000
,
00011000
00000000
00001000
00010000
,
00001000
00000000
00001000
00000000
,
00100000
00000000
00010000
00000000
,
00001000
00000100
00001000
00000100
,
00010000
00000000
00001000
00000000
,
00100000
00000000
00001000
00000000
,
00000100
00000000
00000001
00000000
,
00000100
00000000
00001000
00000000
,
00000001
00000010
00000001
00000000
,
00001000
00000100
00001000
00000000
,
01000000
00100000
01000000
00000000
,
10000000
00000000
00010000
00000000
,
00011000
00000000
00000000
00000000
,
00000000
00000000
00000000
00000000
,
00000001
00000000
00001000
00000000
,
00010000
00001000
00010000
00001000
,
00010000
00000000
00100000
00000000
,
10000000
00000000
00010000
00000000
,
10000000
00000000
10000000
00000000
,
00010000
00000000
00010000
00000000
,
01000000
00000000
00000000
00000000
,
00001000
00000000
00000000
00000000
,
00000100
00000000
00100000
00000000
,
00011000
00011000
00011000
00011000
,
00000000
00000000
01000000
00000000
,
01000000
01000000
00001000
00000000
,
00001000
00000000
00000010
00000000
,
00000010
00000010
00010000
00000000
,
00010000
00000000
00001000
00000000
,
00010000
00000000
10000000
00000000
,
00000000
00000000
00010000
00000000
,
00001000
00000000
00000001
00000000
,
00000000
00000000
00011000
00000000
,
00000000
00000000
00000010
00000000
,
00000000
00000000
01000000
01000000
00000000
00000000
00000000
00000000
;

//--------------- dance-double - ----------------
#NOTES:
     dance-double:
     :
     Medium:
     5:
     0,0,0,0,0:
00000000
00000000
00000000
00000000
,
00000000
00000000
00000000
00000000
,
00000000
00000000
00000000
00000000
,
00000000
00000000
00000000
00000000
,
00000000
00000000
00000000
00000000
,
00000000
00000000
00000000
00000000
,
00000000
00000000
00000000
00000000
,
00000000
00000000
00000000
00000000
,
00000001
00000000
00001000
00000100
,
00010000
00000000
00000000
10000000
,
00010000
00000000
00001000
00000001
,
00000010
00000000
00000000
00000000
,
00011000
00000000
00100000
00001000
,
00000100
00000000
00000001
00001000
,
00000100
00000000
00000010
00000010
,
00001000
00000000
00010000
00000000
00001000
00010000
00001000
00000000
,
00100000
00000000
00010000
10000000
01000000
00000000
00100000
00000000
,
00001000
00000000
00001100
00000101
,
00000010
00000000
00000100
00000001
00001000
00000000
00000100
00000000
,
00010000
00000000
00110000
10100000
,
00100000
00000000
00000000
00000000
00010000
10000000
00010000
00000000
,
00000100
00000000
00000010
00000000
00001000
00000001
00001000
00000000
,
00001001
00000100
00011000
00000000
,
10010000
00000000
01000000
00000000
00100000
10000000
00010000
00000000
,
00011000
00000000
00000000
00000000
,
00000000
00000000
00000000
00000000
,
00000100
00000010
00001000
00100000
,
00010000
10000000
00000000
00100000
00000000
00001000
00000000
00000010
,
00000000
00000000
00000100
00000001
,
00001000
00000100
00000010
00000000
,
00000001
00001000
00000000
00000000
00000010
00000100
00000000
00000000
,
00010000
10000000
00000000
00000000
00100000
01000000
00000000
00000000
,
10010000
00000000
00000000
00011000
00000000
00000000
00000000
00000000
,
00000100
00010000
00000000
00001000
00000000
00100000
00001000
00000000
,
00000100
00000000
00000010
00000000
,
00010100
00011000
01001000
00011000
,
00000000
00000000
00100000
01000000
,
00010000
00001000
00000100
00000000
00000001
00000000
00001000
00000000
,
00000100
00010000
00001000
00000000
01000000
00000000
10000000
00000000
,
00010000
00100000
00001000
00000000
00000100
00000000
00000001
00000000
,
00000010
00000100
00001000
00000000
00001001
00000000
00000000
00000000
,
00011000
00000000
10010000
00000000
,
00100000
10000000
00010000
00000000
10010000
00000000
00000000
00000000
,
00011000
00000000
00001001
00000000
,
00000010
00001000
00000001
00000000
00000110
00000000
00000000
00000000
,
00000000
00000000
00000010
00000000
,
00000000
00000000
01000000
01000000
00000000
00000000
00000000
00000000
;

//--------------- dance-double - ----------------
#NOTES:
     dance-double:
     :
     Hard:
     7:
     0,0,0,0,0:
00000000
00000000
00000000
00000000
,
00000000
00000000
00000000
00000000
,
00000000
00000000
00000000
00000000
,
00000000
00000000
00000000
00000000
,
00000000
00000000
00000000
00000000
,
00000000
00000000
00000000
00000000
,
00000000
00000000
00000000
00000000
,
00000000
00000000
00000000
00000000
,
00100000
00010000
10000000
00000000
00100000
01000000
00001000
00010000
,
00000100
00000010
00000101
00000010
,
00001100
00000000
00001001
00000000
00000001
00000100
00001000
00010000
,
00000010
00010000
00001000
00100000
00000000
00010000
10000000
00000000
,
11000000
00000000
00110000
00000000
01000000
00100000
01000000
00001000
,
00010000
00000000
00000100
00000010
00000100
00000000
00001100
00000000
,
00010000
00001000
01000000
01010000
,
00100000
10000000
00010000
00000000
00100000
01000000
00010000
00000000
,
00001000
00010000
00001000
00000000
00000010
00000001
00000100
00000010
,
00001000
00001001
00000001
00000101
,
00001010
00000000
00000010
00000000
00000100
00001000
00010000
00000100
,
00010000
00000000
00001000
00000000
00100000
00010000
00100000
00000000
,
01000000
00000000
11000000
00000000
10000000
00010000
01000000
00100000
,
00000000
01000000
00010000
00000000
00100000
00000000
00011000
00000000
,
00000100
00000000
00000010
00000001
00000100
00000000
00000010
00000000
,
00001000
00000001
00000000
00000100
00000000
00001000
00010000
00000000
,
00011000
00100000
00000000
00000100
,
00000010
00000000
00001000
00000000
,
00000001
00000000
00000000
00000101
00000000
00000000
00001100
00000000
,
00010000
00001000
00000000
00100000
00000000
01000000
00000000
10000000
,
00100000
01001000
00000000
00001000
,
00000100
00000000
00000001
00000000
,
00000010
00000100
00000010
00000000
00010000
00001000
00010000
00000000
,
00100000
01000000
00100000
00000000
10000000
01000000
00010000
00000000
,
00011000
00000000
00010000
00000100
00000000
00000000
00000010
00000000
,
00000001
00000010
00000000
00000001
00000000
00000100
00001000
00000000
,
00010000
00001000
00100000
01000000
,
10000000
00010000
00000000
10000000
00010000
10000000
00000000
00010000
10000000
00010000
00000000
10000000
00010000
10000000
00000000
00001000
,
00010000
00011000
00000100
00001000
,
00000010
00000100
00000001
00000010
00000100
00000000
00001100
00000000
,
00000110
00000000
00010100
00000000
00010000
00001000
00100000
00000000
,
00010000
00100000
01000000
10000000
00100000
10000000
00010000
00000000
,
01100000
00000000
00001000
00000000
00010000
00010000
00000100
00000000
,
00000010
00000010
00000001
00000000
00000100
00001000
00010000
00000000
,
00001000
00000000
00100000
00000000
00010000
00100000
10000000
00100000
,
00010000
00000000
01000000
00000000
00010000
10000000
01000000
00100000
,
00000000
00001000
00010000
00000000
00010100
00000000
00000000
00000000
,
00000000
00000000
00000110
00000000
,
00000000
00000000
00010000
00001000
00000000
00000000
00000000
00000000
;

//--------------- dance-couple - ----------------
#NOTES:
     dance-couple:
     :
     Easy:
     2:
     0,0,0,0,0:
00000000
00000000
00000000
00000000
,
00000000
00000000
00000000
00000000
,
00000000
00000000
00000000
00000000
,
00000000
00000000
00000000
00000000
,
00000000
00000000
00000000
00000000
,
00000000
00000000
00000000
00000000
,
00000000
00000000
00000000
00000000
,
00000000
00000000
00000000
00000000
,
00010000
00000000
00100000
00000000
,
00010000
00000000
00000000
00000000
,
00000001
00000000
00000010
00000000
,
00000001
00000000
00000000
00000000
,
10011001
00000000
00011000
00000000
,
00011000
00000000
00000000
00000000
,
10000001
00000000
00000000
00000000
,
00011000
01000100
00011000
01000100
,
00000010
00000000
00000000
00000000
,
00001000
00000000
00000001
00000000
,
00100000
00000000
00000000
00000000
,
00010000
00000000
10000000
00000000
,
00011000
01000100
00011000
00000000
,
10000001
00100010
10000001
00000000
,
01000010
00000000
00100100
00000000
,
00011000
00000000
10000001
00000000
,
10011001
00000000
00000000
00000000
,
00000000
00000000
00000000
00000000
,
10000000
00000000
00000000
00000000
,
00011000
10000001
00011000
10000001
,
00011000
00000000
00000000
00000000
,
00001000
00000000
00000000
00000000
,
00010000
00000000
00000001
00000000
,
10000000
00000000
00001000
00000000
,
00010000
00000000
00000000
00000000
,
00000001
00000000
00000000
00000000
,
01000000
00000100
00100000
00000010
,
10010000
00001001
10010000
00001001
,
00000000
00000000
10000001
00000000
,
10000001
10000001
01000010
00000000
,
00000000
00000000
00011000
00000000
,
00011000
00011000
00100100
00000000
,
00000000
00000000
10001001
00000000
,
00010000
00000000
10000000
00000000
,
00000000
00000000
10011000
00000000
,
00000001
00000000
00001000
00000000
,
00000000
00000000
00100000
00000000
,
00000010
00000000
00100100
00000000
,
00000000
00000000
01000010
01000010
00000000
00000000
00000000
00000000
;

//--------------- dance-couple - ----------------
#NOTES:
     dance-couple:
     :
     Medium:
     4:
     0,0,0,0,0:
00000000
00000000
00000000
00000000
,
00000000
00000000
00000000
00000000
,
00000000
00000000
00000000
00000000
,
00000000
00000000
00000000
00000000
,
00000000
00000000
00000000
00000000
,
00000000
00000000
00000000
00000000
,
00000000
00000000
00000000
00000000
,
00000000
00000000
00000000
00000000
,
00011000
00000000
00100010
00011000
,
10000001
00000000
00000000
01000100
,
10000001
00000000
00100010
10000001
,
00011000
00000000
00000000
00000000
,
10010000
00000000
00010000
00010000
,
00100000
00000000
00010000
10000000
,
00001001
00000000
00000001
00000001
,
00000010
00000000
00000001
00001000
,
10000001
00000000
10000001
00000000
00100010
10000001
00011000
00000000
,
01000100
00000000
10010110
00000000
,
00011000
00000000
00011000
00000000
00100010
00011000
10000001
00000000
,
01000100
00000000
01101001
00000000
,
00100000
00000000
10000000
00000000
01000000
10000000
01000000
00000000
,
00000010
00000000
00000001
00000000
00000100
00000001
00000100
00000000
,
10010001
00000000
10001001
00000000
,
10000001
10000001
01000100
00000000
,
01100110
00000000
00000000
00000000
,
00000000
00000000
00000000
00000000
,
00100010
10001000
00010001
00100010
,
01000100
00000000
00000000
00100000
00000000
00000010
00000000
01000100
,
00000000
00000000
10000001
00000000
,
00100010
00000000
00011000
00000000
,
10000001
00000000
01000010
00000000
,
00100100
00000000
00011000
00000000
,
10011001
00000000
00000000
00000000
,
10000001
00100010
00000000
10000001
00000000
00011000
00100010
00000000
,
01000000
00000000
00000100
00000000
,
10010000
00001001
01100000
00000110
,
00000000
00000000
00010000
00100000
,
00010000
10000000
01000000
00000000
00001000
00000000
00000010
00000000
,
00001000
00000001
00000100
00000000
00000010
00000000
00001000
00000000
,
00000100
00000010
00000001
00000000
00100000
00000000
00010000
00000000
,
01000000
00100000
10000000
00000000
00001010
00000000
00000000
00000000
,
00001100
00000000
00001010
00000000
,
10001000
00010001
00110000
00000000
,
10010000
00000000
00110000
00000000
,
00011000
10000001
10010110
00000000
,
00000000
00000000
00100100
00000000
,
00000000
00000000
01000010
01000010
00000000
00000000
00000000
00000000
;

//--------------- dance-couple - ----------------
#NOTES:
     dance-couple:
     :
     Hard:
     6:
     0,0,0,0,0:
00000000
00000000
00000000
00000000
,
00000000
00000000
00000000
00000000
,
00000000
00000000
00000000
00000000
,
00000000
00000000
00000000
00000000
,
00000000
00000000
00000000
00000000
,
00000000
00000000
00000000
00000000
,
00000000
00000000
00000000
00000000
,
00000000
00000000
00000000
00000000
,
00010001
00000000
10001000
00000000
00100010
10001000
00010001
00100010
,
01000100
00000000
01000100
00000000
00100010
00010001
10001000
00000000
,
01000100
00000000
10001000
00000000
00100010
10001000
00100010
01000100
,
00010001
00000000
10001000
00000000
00010001
10001000
01000100
00000000
,
00100100
00000000
01000010
00000000
10000001
00100010
00000000
00100010
,
00000000
10000001
00011000
00000000
00100010
00011000
01000100
00000000
,
00100010
00000000
10000001
00000000
00100010
10000001
01000100
00000000
,
01100000
00000000
00000110
00000000
00010001
10001000
00100010
00100010
,
10001000
00000000
01000100
00000000
10001000
00010001
01000100
00100010
,
10001000
00000000
01000100
00000000
00100010
00010001
00100010
00000000
,
00010001
00000000
10001000
00000000
01000100
10001000
00100010
10001000
,
00010001
00000000
01000100
00000000
00010001
10001000
01000100
00000000
,
10001000
00010001
10001000
00000000
00100010
10001000
00010001
00000000
,
00100010
00000000
00010001
00000000
01000100
00010001
10001000
00000000
,
00010001
01010100
10001000
01001100
,
10010000
00000000
00001001
00000000
00100010
00010001
01000100
00000000
,
00100010
00000000
01100110
00000000
00000000
00000000
10000000
00010000
,
10000000
00000000
00000001
00001000
00000001
00000000
10001000
00000000
,
00010001
00000000
00100010
00000000
00100001
00011000
10000001
00000000
,
01000100
10000001
00000000
00011000
00000000
10000001
00000000
00100010
,
00000000
00100010
01000100
00010001
,
10001000
00000000
01000100
10001000
00100010
00000000
10001000
00000000
,
00010000
00100000
00010000
00000000
00000001
00000010
00000001
00000000
,
10000000
01000000
10000000
00000000
00001000
00000100
00001000
00000000
,
00001001
00000000
00000000
10010000
00000000
00000000
00100010
00000000
,
01000100
00010001
00000000
10001000
00000000
00100010
10001000
00000000
,
01000100
10001000
01000100
00000000
00100010
00010001
01000100
00000000
,
10101000
10100001
00011010
10001010
,
10010000
00001001
00100010
00010001
,
01000100
00010001
10001000
01000100
00100010
00000000
01000100
00000000
,
00100010
11001100
10001000
00010001
,
10001000
00100010
01000100
00010001
00100010
00000000
00100010
00000000
,
00010001
01010101
10011000
00000000
,
00011001
00000000
10100011
00000000
,
00011000
10000001
00011000
00000000
00111010
00000000
00000000
00000000
,
10000001
00011000
10000001
00000000
01000100
00000000
00100010
00000000
,
01000100
00100010
01000100
00000000
01101001
00000000
00000000
00000000
,
00000000
00000000
10010110
00000000
,
00000000
00000000
01000010
01000010
00000000
00000000
00000000
00000000
;

//--------------- dance-routine - Filler chart ----------------
#NOTES:
     dance-routine:
     Filler chart:
     Beginner:
     6:
     0,0,0,0,0:
00000000
00000000
00000000
00000000
,
00000000
00000000
00000000
00000000
,
00000000
00000000
00000000
00000000
,
00000000
00000000
00000000
00000000
,
00000000
00000000
10000000
00000000
,
00000000
00000000
10000000
00000000
,
00000000
00000000
10000000
00000000
,
00000000
00000000
10000000
00000000
,
00000000
00000000
10000000
00000000
,
00000000
00000000
10000000
00000000
,
00000000
00000000
10000000
00000000
,
00000000
00000000
10000000
00000000
,
00000000
00000000
10000000
00000000
,
00000000
00000000
10000000
00000000
,
00000000
00000000
10000000
00000000
,
00000000
00000000
10000000
00000000
,
00000000
00000000
10000000
00000000
,
00000000
00000000
10000000
00000000
,
00000000
00000000
10000000
00000000
,
00000000
00000000
10000000
00000000
,
00000000
00000000
10000000
00000000
,
00000000
00000000
10000000
00000000
,
00000000
00000000
10000000
00000000
,
00000000
00000000
10000000
00000000
,
00000000
00000000
10000000
00000000
,
00000000
00000000
10000000
00000000
,
00000000
00000000
10000000
00000000
,
00000000
00000000
10000000
00000000
,
00000000
00000000
10000000
00000000
,
00000000
00000000
10000000
00000000
,
00000000
00000000
10000000
00000000
,
00000000
00000000
10000000
00000000
,
00000000
00000000
10000000
00000000
,
00000000
00000000
10000000
00000000
,
00000000
00000000
10000000
00000000
,
00000000
00000000
10000000
00000000
,
00000000
00000000
10000000
00000000
,
00000000
00000000
10000000
00000000
,
00000000
00000000
10000000
00000000
,
00000000
00000000
10000000
00000000
,
00000000
00000000
10000000
00000000
,
00000000
00000000
10000000
00000000
,
00000000
00000000
10000000
00000000
,
00000000
00000000
10000000
00000000
,
00000000
00000000
10000000
00000000
,
00000000
00000000
10000000
00000000
&
00000000
00000000
00000000
00000000
,
00000000
00000000
00000000
00000000
,
00000000
00000000
00000000
00000000
,
00000000
00000000
00000000
00000000
,
00000000
00000000
00000000
00000000
,
00000000
00000000
00000000
00000000
,
00000000
00000000
00000000
00000000
,
00000000
00000000
00000000
00000000
,
00000000
00000000
00000000
00000000
,
00000000
00000000
00000000
00000000
,
00000000
00000000
00000000
00000000
,
00000000
00000000
00000000
00000000
,
00000000
00000000
00000000
00000000
,
00000000
00000000
00000000
00000000
,
00000000
00000000
00000000
00000000
,
00000000
00000000
00000000
00000000
,
00000000
00000000
00000000
00000000
,
00000000
00000000
00000000
00000000
,
00000000
00000000
00000000
00000000
,
00000000
00000000
00000000
00000000
,
00000000
00000000
00000000
00000000
,
00000000
00000000
00000000
00000000
,
00000000
00000000
00000000
00000000
,
00000000
00000000
00000000
00000000
,
00000000
00000000
00000000
00000000
,
00000000
00000000
00000000
00000000
,
00000000
00000000
00000000
00000000
,
00000000
00000000
00000000
00000000
,
00000000
00000000
00000000
00000000
,
00000000
00000000
00000000
00000000
,
00000000
00000000
00000000
00000000
,
00000000
00000000
00000000
00000000
,
00000000
00000000
00000000
00000000
,
00000000
00000000
00000000
00000000
,
00000000
00000000
00000000
00000000
,
00000000
00000000
00000000
00000000
,
00000000
00000000
00000000
00000000
,
00000000
00000000
00000000
00000000
,
00000000
00000000
00000000
00000000
,
00000000
00000000
00000000
00000000
,
00000000
00000000
00000000
00000000
,
00000000
00000000
00000000
00000000
,
00000000
00000000
00000000
00000000
,
00000000
00000000
00000000
00000000
,
00000000
00000000
00000000
00000000
,
00000000
00000000
00000000
00000000
;
