#TITLE:Hot Potato;
#SUBTITLE:;
#ARTIST:The Wiggles;
#TITLETRANSLIT:;
#SUBTITLETRANSLIT:;
#ARTISTTRANSLIT:;
#GENRE:;
#CREDIT:8Chasey 2025;
#MUSIC:Hot Potato.ogg;
#BANNER:;
#BACKGROUND:;
#CDTITLE:cdtitle.png;
#SAMPLESTART:60.750;
#SAMPLELENGTH:12.000;
#SELECTABLE:YES;
#OFFSET:1.182;
#BPMS:0.000=85.560;
#STOPS:;
#DISPLAYBPM:86.000;
#BGCHANGES:;
#FGCHANGES:;

//--------------- dance-single - 8Chasey ----------------
#NOTES:
     dance-single:
     8Chasey:
     Beginner:
     1:
     0,0,0,0,0:
0000
0000
0000
0000
,
0001
0000
0000
0000
,
1000
0000
0000
0000
,
0001
0000
1000
0000
,
0001
0001
0001
0000
,
0000
0000
1000
0000
,
0000
0000
0001
0000
,
0000
0000
1000
0000
,
0001
0000
1000
1000
,
1000
0000
0000
0000
,
1001
0000
1001
0000
,
0001
0001
0001
0000
,
1001
0000
1001
0000
,
1000
1000
1000
0000
,
0010
0000
0000
0000
,
0100
0000
0000
0000
,
0010
0000
0100
0000
,
0010
0010
0010
0000
,
0000
0000
1001
0000
,
1001
0000
0001
0001
,
0001
0000
1001
0000
,
1001
0000
1000
1000
,
1000
0000
0100
0000
,
0000
0000
0010
0000
,
0000
0000
0100
0000
,
0010
0000
0100
0100
,
0100
0000
0000
1001
;

//--------------- dance-single - 8Chasey ----------------
#NOTES:
     dance-single:
     8Chasey:
     Easy:
     2:
     0,0,0,0,0:
0000
0000
0000
0000
,
0001
1000
0001
0001
,
1000
0001
1000
1000
,
0010
0010
0100
0100
,
0001
1000
0001
1000
,
1001
0000
1000
0001
,
1000
1000
0001
1000
,
0001
0001
0010
0010
,
0100
0100
1000
0001
,
1000
0001
1001
0000
,
0011
0000
1010
0000
,
1000
1000
0010
1000
,
0101
0000
1100
0000
,
1000
0001
1001
0000
,
0010
0100
0010
0010
,
0100
0010
0100
0100
,
0001
0001
1000
1000
,
0010
0100
0001
1000
,
1001
0000
1010
0000
,
0011
0000
0001
0001
,
0010
0001
1100
0000
,
0101
0000
0001
1000
,
1001
0000
0100
0010
,
0100
0100
0010
0100
,
0010
0010
1000
1000
,
0001
0001
0010
0100
,
1000
0001
0100
1001
;

//--------------- dance-single - 8Chasey ----------------
#NOTES:
     dance-single:
     8Chasey:
     Medium:
     3:
     0,0,0,0,0:
0000
0000
0000
0000
,
0001
0000
0001
0000
0100
0100
0001
0000
,
1000
0000
1000
0000
0100
0100
1000
0000
,
0010
1000
0010
0000
0100
0000
0001
0000
,
0010
0001
0010
0000
0100
0000
1000
0000
,
1001
0000
0000
0000
0001
0001
0010
0000
,
0001
0000
0100
0000
1000
1000
0010
0000
,
1000
0000
0100
0000
0010
0100
0010
0000
,
0100
0010
0100
0000
1000
0001
1000
0000
,
0001
1000
0001
0000
1001
0000
0000
0000
,
0011
0001
1010
1000
,
0001
1000
0001
0000
0100
0000
0001
0000
,
0101
0001
1100
1000
,
1000
0001
1000
0000
1001
0000
0000
0000
,
0010
1000
0010
0000
0100
0000
0001
0000
,
0010
0001
0010
0000
0100
0000
1000
0000
,
0001
0010
0100
1000
,
0001
0001
0001
0000
1000
1000
1000
0000
,
1001
0000
1010
1000
,
0011
0000
0001
0000
0100
0010
0100
0000
,
0001
1000
0001
0000
1100
0000
1000
0000
,
0101
0000
0001
0000
1000
0001
1000
0000
,
1001
0000
0000
0000
0010
1000
0010
0000
,
0100
0000
0001
0000
0010
0001
0010
0000
,
0100
0000
1000
0000
0010
0100
0010
0000
,
0100
0010
0100
0000
0001
0000
1000
0000
,
0010
0100
0010
1001
;

//--------------- dance-single - 8Chasey ----------------
#NOTES:
     dance-single:
     8Chasey:
     Hard:
     5:
     0,0,0,0,0:
0000
0000
0000
0000
,
0001
1000
0001
0000
0100
0100
0001
0000
,
1000
0001
1000
0000
0100
0100
1000
0000
,
0010
0010
1000
0000
0100
0100
0001
0000
,
1000
0100
0001
0100
0010
0010
0100
0100
,
1001
0000
0000
0000
0001
0001
0010
0001
,
1000
0001
0001
0000
1000
1000
0010
1000
,
0001
1000
1000
0000
0100
1000
0010
0000
,
0100
0001
0010
0000
0001
0001
1000
1000
,
0010
0100
0010
0100
1001
0000
0000
0000
,
0011
0010
0001
0001
1010
0010
1000
1000
,
0001
0001
1000
1000
0010
1000
0001
0000
,
0101
0100
0001
0001
1100
0100
1000
1000
,
0001
1000
0001
1000
1001
0000
0000
0000
,
0010
1000
0100
0100
1000
0000
0001
0000
,
0010
0001
0100
0100
0001
0000
1000
0000
,
0001
1000
0010
0000
1000
0001
0100
0000
,
0010
0010
1000
1000
0001
0001
0100
0100
,
1001
0000
0000
0000
1010
0010
1000
1000
,
0011
0010
0001
0001
0100
0001
0100
1000
,
0100
0100
0010
0000
1100
0100
1000
1000
,
0101
0100
0001
0001
1000
0001
1000
0001
,
1001
0000
0000
0000
0100
0001
0100
0100
,
0010
1000
1000
0000
0100
1000
0100
0100
,
0010
0001
0001
0000
1000
0010
0010
1000
,
0001
0010
0010
0001
1000
0100
0001
0100
,
0010
0001
1000
0010
0100
0000
1001
0000
;
