#TITLE:Honey;
#SUBTITLE:(2025 8Chasey edit);
#ARTIST:Chihiro;
#TITLETRANSLIT:;
#SUBTITLETRANSLIT:;
#ARTISTTRANSLIT:;
#GENRE:;
#CREDIT:8Chasey 2025;
#MUSIC:Honey (2025 8Chasey edit).ogg;
#BANNER:;
#BACKGROUND:Honey (2025 8Chasey edit)-bg.png;
#CDTITLE:;
#SAMPLESTART:63.400;
#SAMPLELENGTH:12.000;
#SELECTABLE:YES;
#OFFSET:0.590;
#BPMS:0.000=120.000;
#STOPS:;
#DISPLAYBPM:120.000;
#BGCHANGES:;
#FGCHANGES:;

//--------------- dance-single - 8Chasey ----------------
#NOTES:
     dance-single:
     8Chasey:
     Beginner:
     1:
     0,0,0,0,0:
0000
0000
0000
0000
,
0000
0000
0000
0000
,
0000
0000
0000
0000
,
0000
0000
0000
0000
,
0000
0000
0000
0000
,
0000
0000
0000
0000
,
0000
0000
0000
0000
,
0000
0000
0000
0000
,
0000
0000
0000
0000
,
1000
0000
0000
0000
,
0000
0000
0000
0000
,
1000
0000
0000
0000
,
0000
0000
0000
0000
,
1000
0000
0000
0000
,
1000
0000
0000
0000
,
1000
0000
0000
0000
,
0000
0000
0000
0000
,
0001
0000
0000
0000
,
0000
0000
0000
0000
,
0001
0000
0000
0000
,
0000
0000
0000
0000
,
0001
0000
0000
0000
,
0001
0000
0000
0000
,
0001
0000
0000
0000
,
0000
0000
0000
0000
,
1000
0000
0000
0000
,
0001
0000
0000
0000
,
1000
0000
0000
0000
,
0000
0000
0000
0000
,
0001
0000
0000
0000
,
1000
0000
0000
0000
,
0001
0000
0000
0000
,
0000
0000
0000
0000
,
1000
0000
0000
0000
,
0000
0000
0000
0000
,
1000
0000
0000
0000
,
0000
0000
0000
0000
,
1000
0000
1000
0000
,
1000
0000
0000
0000
,
1000
0000
1000
0000
,
1000
0000
0000
0000
,
0001
0000
0000
0000
,
0000
0000
0000
0000
,
0001
0000
0000
0000
,
0000
0000
0000
0000
,
0001
0000
0001
0000
,
0001
0000
0000
0000
,
0001
0000
0001
0000
,
0001
0000
0000
0000
,
1000
0000
0000
0000
,
0001
0000
0000
0000
,
1000
0000
0000
0000
,
0000
0000
0000
0000
,
0001
0000
0000
0000
,
1000
0000
0000
0000
,
0001
0000
0000
0000
,
0000
0000
0000
0000
,
1000
0000
0000
0000
,
0001
0000
0000
0000
,
1000
0000
0000
0000
,
0001
0000
0000
0000
,
2000
0000
0000
3000
;

//--------------- dance-single - 8Chasey ----------------
#NOTES:
     dance-single:
     8Chasey:
     Easy:
     1:
     0,0,0,0,0:
0000
0000
0000
0000
,
0000
0000
0000
0000
,
0000
0000
0000
0000
,
0000
0000
0000
0000
,
0000
0000
0000
0000
,
1000
0000
1000
0000
,
0001
0000
0001
0000
,
1000
0000
0000
0000
,
0001
0000
0000
0000
,
0001
0000
1000
0000
,
0010
0000
0100
0000
,
0010
0000
0100
0000
,
0001
0000
1000
0000
,
0001
0001
0000
0000
,
1000
1000
0000
0000
,
0001
0000
0001
0000
,
1000
0000
1000
0000
,
0001
0000
1000
0000
,
0010
0000
0100
0000
,
0010
0000
0100
0000
,
0001
0000
1000
0000
,
0001
0001
0000
0000
,
1000
1000
0000
0000
,
0001
0000
1000
0000
,
0010
0000
0010
0000
,
0100
0000
0000
0000
,
0100
0000
0100
0000
,
0010
0000
0000
0000
,
1000
0000
1000
0000
,
0001
0000
0000
0000
,
0001
0000
0001
0000
,
1000
0000
0000
0000
,
0010
0000
0100
0000
,
1001
0000
0000
0000
,
0010
0000
0000
0000
,
1001
0000
0000
0000
,
0100
0000
0000
0000
,
0001
0000
1000
0000
,
0001
0000
0000
0000
,
1000
0000
0001
0000
,
1000
0000
0000
0000
,
0110
0000
0000
0000
,
1000
0000
0000
0000
,
0110
0000
0000
0000
,
0001
0000
0000
0000
,
1000
0000
0001
0000
,
1000
0000
0000
0000
,
0001
0000
1000
0000
,
0001
0000
0000
0000
,
0100
0000
0100
0000
,
0010
0000
0010
0000
,
0100
0000
0000
0000
,
0010
0000
0000
0000
,
0010
0000
0010
0000
,
0100
0000
0100
0000
,
0010
0000
0000
0000
,
0100
0000
0000
0000
,
0001
0000
0001
0000
,
0001
0000
0000
0000
,
1000
0000
1000
0000
,
1000
0000
0000
0000
,
2002
0000
0000
0000
,
3003
0000
0000
0000
;

//--------------- dance-single - 8Chasey ----------------
#NOTES:
     dance-single:
     8Chasey:
     Medium:
     3:
     0,0,0,0,0:
0000
0000
0000
0000
,
0000
0000
0000
0000
,
0000
0000
0000
0000
,
0000
0000
0000
0000
,
0000
0000
0000
0000
,
1000
0001
1000
1000
,
0001
1000
0001
0001
,
0100
0010
0100
0100
,
0020
0000
0000
0030
,
0100
0100
0010
0010
,
0100
1000
0001
0000
,
1000
0010
1000
0001
,
0100
0001
0010
0000
,
0100
1000
1000
0100
,
0010
0001
0001
0010
,
0001
1000
0010
0100
,
0001
0001
1000
1001
,
0001
0010
0001
0001
,
1000
0010
0010
0000
,
1000
0010
1000
1000
,
0001
0100
0100
0000
,
0010
1000
1000
0100
,
0010
0001
0001
0100
,
0001
0100
1000
0100
,
0002
0003
2000
3000
,
0020
1000
0000
1030
,
0001
0100
0010
0000
,
0200
0001
0000
0301
,
1000
0100
1000
0000
,
0001
0010
0001
0100
,
0010
0100
0010
0000
,
1001
0000
1000
0100
,
0020
0000
0130
0100
,
2010
0000
0001
0001
,
3001
0100
0001
0100
,
0102
0000
1000
1000
,
1003
0010
1000
0010
,
0100
0001
0100
0100
,
0001
1000
0000
1000
,
0100
1000
0100
0100
,
1000
0001
0000
0001
,
0021
0000
0031
0001
,
2000
0000
3100
1000
,
1020
0000
1030
1000
,
0002
0000
0103
0010
,
0100
0100
0001
0100
,
0010
1000
0100
1000
,
0100
0100
1000
0010
,
0100
0001
0020
0130
,
1001
1000
0010
0010
,
1000
0001
0010
0010
,
0001
0100
0010
0000
,
0100
0001
1000
0000
,
0010
1000
0100
0100
,
0010
0001
0100
0100
,
0001
0100
1000
0100
,
0020
0000
0000
0030
,
1001
1000
0000
0010
,
0000
1000
0100
1000
,
0000
0001
0000
0010
,
0000
0001
0100
0001
,
0000
2002
0000
0000
0000
0000
0000
0000
,
0000
0000
3003
0000
;

//--------------- dance-single - 8Chasey ----------------
#NOTES:
     dance-single:
     8Chasey:
     Hard:
     5:
     0,0,0,0,0:
0000
0000
0000
0000
,
0000
0000
0000
0000
,
0000
0000
0000
0000
,
0000
0000
0000
0000
,
0000
0000
0000
0000
,
0001
0000
0001
0000
1000
0100
1000
0010
,
0000
0000
1000
0000
0001
0100
0001
0010
,
0100
0000
1000
0100
1000
1000
0001
0010
,
0002
0000
0000
2000
0000
0000
3003
0000
,
0100
0010
0100
0000
1000
0001
1000
0001
,
0000
1000
0100
0000
1000
1000
0001
0000
,
0010
0001
0010
0001
1000
0010
1000
0200
,
0000
0000
1300
1000
0001
0010
0001
0200
,
0000
0001
0002
0000
0303
0000
0000
0020
,
0000
1000
2000
0000
3030
0000
0000
0200
,
0000
0010
0020
0000
0330
0100
0001
1000
,
0001
0100
0000
0010
0000
1000
0010
0000
,
1000
0001
0010
0001
1000
0100
1000
0001
,
0000
1000
0010
0001
0010
1000
0100
0000
,
1000
0100
0001
1000
0010
0001
1000
0001
,
0000
0100
0001
1000
0010
0100
0000
0110
,
0000
2000
0002
0000
0000
3003
0001
0010
,
0000
2200
0000
0000
3300
0000
1000
0010
,
0000
0202
0000
0000
0000
0000
0303
0000
,
2000
0000
3010
0000
0002
0100
0103
0000
,
2010
0000
0001
0001
0000
0000
3100
0100
,
1000
0000
1000
0001
0000
0001
0000
0020
,
0000
0100
0000
0130
,
1000
0000
1000
0001
0000
0001
0000
0100
,
0000
0100
0010
0100
0000
0001
1000
0001
,
0000
0100
0000
0100
0001
0010
0000
0110
,
0000
0100
1000
0100
0000
0000
2000
0000
,
3002
0000
0100
0000
0013
0000
0100
0020
,
0000
0000
0001
0000
0001
0000
0001
0002
,
0030
0000
0100
0000
0100
0000
0100
0200
,
0003
0000
1000
0000
1000
0000
1000
2000
,
0300
0000
0000
3100
,
0102
0000
1003
0000
0100
0000
1000
0001
,
0000
1000
0000
0001
1000
0000
0001
0000
,
0010
0000
0100
0000
0010
0000
0100
1000
,
0000
1000
0001
0000
1000
0000
1000
0002
,
0000
0000
0000
0000
0010
0000
0010
0020
,
0003
0000
0100
0000
0100
0000
0100
0200
,
0030
0000
1000
0000
1000
0000
1000
2000
,
0300
0000
0000
3010
,
0201
0000
0310
0000
1000
0000
0100
1000
,
0000
0001
0000
0000
0100
0000
0010
0000
,
1000
0000
0100
0000
1000
0000
0001
0020
,
0200
0330
0022
0033
,
2100
0000
0100
0000
3001
0100
0000
0020
,
0000
0030
1000
0000
1000
0001
0000
0200
,
0000
0000
0000
0002
0000
0000
0000
0000
,
0000
0303
0001
1001
,
1010
0000
1000
0000
0100
1000
0000
0002
,
0000
0003
0010
0000
0001
0100
0000
0200
,
0010
0000
0000
0020
0300
1000
1030
0001
,
2000
0000
0000
0002
0000
0000
3003
0000
,
1001
0000
0002
0000
1003
0010
0000
0010
,
0000
1000
0000
0100
0020
0000
0130
0000
,
0110
0000
0200
0000
1300
0001
0000
0100
,
0001
0100
0000
0001
0020
0100
0130
0000
,
0000
2002
0000
0000
0000
0000
0000
0000
,
0000
0000
3003
0000
;

//--------------- dance-single - 8Chasey ----------------
#NOTES:
     dance-single:
     8Chasey:
     Challenge:
     3:
     0,0,0,0,0:
0000
0000
0000
0000
,
0000
0000
0000
0000
,
0000
0000
0000
0000
,
0000
0000
0000
0000
,
0000
0000
0000
0000
,
0010
1000
0010
MMMM
,
0100
0001
0100
MMMM
,
1000
0010
1000
0001
,
0200
0000
0000
0300
,
1001
1000
0001
MMMM
,
0100
0001
0100
0100
,
0010
1000
0010
MMMM
,
1000
0100
0010
MMMM
,
1000
2000
3000
MMMM
,
0001
0002
0003
MMMM
,
0100
0020
0030
1000
,
0001
0100
0010
MMMM
,
1000
1000
0100
0010
,
0001
0100
0001
MMMM
,
0100
0001
0010
0001
,
1000
0100
1000
MMMM
,
0001
0002
0003
MMMM
,
1000
2000
3000
MMMM
,
0100
0020
0000
0130
,
0002
0000
1003
MMMM
,
2100
0001
3001
MMMM
,
0010
0001
0100
0010
,
0020
1000
1030
MMMM
,
0100
0001
1000
0100
,
1000
0010
1000
MMMM
,
0001
0100
0001
MMMM
,
1001
0000
0100
0010
,
0220
0000
0330
MMMM
,
1000
0100
0010
MMMM
,
0001
0100
0010
MMMM
,
1000
0010
0100
MMMM
,
0001
0010
0100
MMMM
,
1000
1000
0010
1000
,
0001
0001
0100
0001
,
1000
0100
0010
0001
,
1000
MMMM
0001
MMMM
,
0200
0001
0301
MMMM
,
0010
1000
0100
1000
,
0200
1000
1300
MMMM
,
0010
0001
1000
MMMM
,
1000
0010
1000
0001
,
0100
0001
0100
0100
,
0010
1000
0100
0010
,
0001
MMMM
1000
MMMM
,
1001
1000
0010
1000
,
0010
MMMM
0100
0001
,
0100
MMMM
1001
MMMM
,
1000
0010
1000
MMMM
,
0100
0001
0001
MMMM
,
0001
1000
1000
MMMM
,
0010
MMMM
0100
MMMM
,
0220
0000
0000
0330
,
0001
0100
1000
0100
,
0010
1000
0001
MMMM
,
1000
0010
0001
0010
,
0100
0001
1000
MMMM
,
0000
2002
0000
0000
0000
0000
0000
0000
,
0000
0000
3003
0000
;
