#TITLE:Homesick Pt.2&3;
#SUBTITLE:;
#ARTIST:Orangenoise Shortcut;
#TITLETRANSLIT:;
#SUBTITLETRANSLIT:;
#ARTISTTRANSLIT:;
#GENRE:Soft Rock;
#CREDIT:;
#MUSIC:Homesick Pt.2&3.ogg;
#BANNER:;
#BACKGROUND:;
#CDTITLE:;
#SAMPLESTART:65.350;
#SAMPLELENGTH:12.000;
#SELECTABLE:YES;
#OFFSET:-1.146;
#BPMS:0.000=178.000;
#STOPS:;
#BGCHANGES:;
#FGCHANGES:;

//--------------- dance-single - 8Chasey ----------------
#NOTES:
     dance-single:
     8Chasey:
     Beginner:
     2:
     0,0,0,0,0:
0000
0000
0000
0000
,
0000
0000
0000
0000
,
0000
0000
0000
0000
,
0000
0000
0000
0000
,
0000
0000
0000
0000
,
0000
0000
0000
0000
,
0000
0000
0000
0000
,
0000
0000
0000
0000
,
0100
0000
0100
0000
,
0001
0000
0000
0000
,
0100
0000
0100
0000
,
1000
0000
0000
0000
,
0010
0000
0010
0000
,
0100
0000
0100
0000
,
0001
0000
1000
0000
,
0010
0000
0000
0000
,
1001
0000
0000
0000
,
0000
0000
0000
0000
,
1000
0000
1000
0000
,
0001
0000
0001
0000
,
1000
0000
0000
0000
,
0001
0000
0000
0000
,
1001
0000
0100
0000
,
0010
0000
0000
0000
,
1000
0000
1000
0000
,
0001
0000
0001
0000
,
0100
0000
0100
0000
,
0010
0000
0000
0000
,
0001
0000
1000
0000
,
0010
0000
0100
0000
,
0110
0000
0000
0000
,
0000
0000
0000
0000
,
0000
0000
0000
0000
,
0010
0010
0010
0000
,
0010
0000
0000
0000
,
1000
0000
0001
0000
,
0000
1001
0000
0000
,
0100
0000
0100
0000
,
0010
0000
0000
0000
,
1000
0000
0001
0000
,
0010
0000
0000
0000
,
0001
0000
1000
0000
,
0100
0000
0000
0010
,
0010
0000
0000
0100
,
0100
0000
1000
0000
,
0001
0000
1000
0000
,
0001
0000
0000
0000
,
0010
0000
0000
0000
,
0100
0000
0001
0000
,
0001
0000
0001
0000
,
0010
0000
1000
0000
,
1000
0000
1000
0000
,
0100
0000
0000
0000
,
0001
0000
0001
0000
,
1000
1000
1000
0000
,
1000
0000
0000
0000
,
1000
0000
0010
0000
,
0010
0000
1000
0000
,
0001
0000
0100
0000
,
0100
0000
0001
0000
,
0010
0000
0000
0000
,
1000
0000
1000
0000
,
0001
0001
0001
0000
,
0001
0000
0000
0000
,
1001
0000
0000
0000
;

//--------------- dance-single - 8Chasey ----------------
#NOTES:
     dance-single:
     8Chasey:
     Easy:
     4:
     0,0,0,0,0:
0000
0000
0000
0000
,
0000
0000
0000
0000
,
0000
0000
0000
0000
,
0000
0000
0000
0000
,
0000
0000
0000
0000
,
0000
0000
0000
0000
,
0001
1000
0001
1000
,
2002
0000
3003
0000
,
0100
0000
0100
0000
0100
0000
0000
0002
,
0000
1000
1003
0000
,
0100
0000
0100
0000
0100
0000
0000
2000
,
0000
0001
0000
3001
0000
0000
0000
0000
,
0010
0000
0001
0000
0010
0000
0000
0100
,
0000
1000
0000
0100
0000
0000
0000
0000
,
1000
0000
0001
0000
1000
0000
0000
0001
,
0000
1000
0000
0001
0000
0000
0000
0220
,
0000
0000
0000
0000
0000
0330
0000
2002
,
0000
0000
0000
0000
0000
3003
0000
0000
,
0001
0000
1000
0000
0001
0000
0000
1000
,
0000
2000
0000
0000
0100
0000
3100
0000
,
1000
0000
0000
0000
0001
0000
0000
0100
,
0000
0100
0000
0000
0010
0000
0000
0000
,
1001
0000
0000
0000
0100
0000
0000
0010
,
0000
0010
0010
0000
,
1000
0001
1000
0000
,
0001
0010
0001
0000
,
0100
0000
0100
0000
,
0020
0000
0130
0000
,
0001
1000
0001
0000
,
1000
0000
0001
0000
0100
0000
0000
0020
,
0000
0000
0000
0000
,
0030
0000
0000
0000
,
0000
0000
0000
0000
,
0100
0000
0001
0000
1000
0000
0000
0020
,
0000
0000
0000
0000
,
0030
0000
1000
0001
,
0000
1001
1000
0000
,
1000
0000
0010
1000
,
0002
0000
0013
0000
,
0001
0100
0001
1000
,
0010
0000
0000
0000
,
1000
0100
1000
0001
,
0010
0000
0000
0000
0100
0000
0000
0010
,
0000
0000
0000
0100
0000
0000
0010
0000
,
0200
0000
2300
0000
,
3002
0000
0203
0000
,
0320
0000
0000
0000
0030
0000
0000
2002
,
0000
0000
3003
0000
,
0100
0001
0100
0001
,
1000
0000
0000
0010
0000
0000
1000
0000
,
0100
1000
0100
1000
,
0001
0000
0000
0010
0000
0000
0001
0000
,
1001
0000
1000
0000
,
0001
0001
0001
0000
,
0010
0001
1000
0000
,
0020
0000
0030
0000
,
0010
1000
0010
1000
,
0001
0000
0000
0100
0000
0000
0001
0000
,
0010
0001
0010
0001
,
1000
0000
0000
0100
0000
0000
1000
0000
,
1001
0000
0001
0000
,
1000
1000
1000
0000
,
0010
1000
0001
0000
,
0020
0000
0000
0000
0030
0100
0000
0200
,
0000
0000
0300
0000
;

//--------------- dance-single - 8Chasey ----------------
#NOTES:
     dance-single:
     8Chasey:
     Medium:
     7:
     0,0,0,0,0:
0000
0000
0000
0000
,
0000
0000
0000
0000
,
0000
0000
0000
0000
,
0000
0000
0000
0000
,
0200
0000
0301
1000
,
0001
0010
0100
0100
,
0020
0000
0000
0000
0130
0000
1000
0001
,
0000
0100
0010
0000
0110
0000
0110
0000
,
1001
0000
1001
0000
0001
0000
1000
0001
,
0000
0110
0110
0100
,
0011
0000
1010
0000
1000
0000
0001
1000
,
0000
0010
0000
0100
0000
0001
1000
0000
,
2001
0000
3001
0000
1000
0100
0000
0120
,
0000
0130
0000
0110
0000
0010
0100
0000
,
1000
0000
0100
0000
0001
0000
0000
0020
,
0000
0031
0000
2000
0000
3002
0000
0203
,
0000
0000
0310
0000
1000
0000
0000
1001
,
0000
0001
0100
0100
,
0002
0000
1000
0000
1003
0000
0001
1000
,
0000
2000
0000
0000
3100
0000
0010
0000
,
0220
0000
0330
0000
0100
0010
0000
0010
,
0000
0001
0000
1000
0000
0010
1000
0000
,
0002
0000
0013
0000
0001
1000
0000
0200
,
0000
0300
0120
0000
0001
0000
0130
0000
,
1000
0000
0001
0000
0010
0000
0001
0100
,
0000
0100
0001
0000
0200
0000
0310
0000
,
1000
0000
1001
0000
0001
1000
0000
0001
,
0000
0200
0000
0000
0301
0000
0010
0000
,
0001
1000
0010
1010
,
1000
0000
1000
0000
0001
0010
0100
2000
,
0000
0001
0000
3001
,
0200
0010
0001
0301
,
0010
0001
1000
1001
,
1000
0000
0101
0000
1000
0001
0000
0201
,
0000
0010
0001
0301
,
0002
1000
1000
0103
,
0000
1001
2000
0000
,
3002
0000
0103
0010
,
1010
0000
0000
0000
1000
0001
0000
1000
,
0000
0001
0010
0001
0000
1000
0010
0000
,
2100
0000
0100
0000
3100
0000
0000
0110
,
0000
0001
0100
1000
,
0020
0000
1030
0001
,
0010
0001
1000
0100
,
2000
0001
3001
0010
,
0002
0100
0103
0010
,
2002
0000
3003
0000
1000
0001
0000
0220
,
0000
0000
0000
0300
0100
0000
0130
0000
,
1000
1010
0101
0011
,
0010
0001
1000
0020
0000
0000
0130
0000
,
0001
0011
0110
1100
,
1000
0001
0000
1002
0000
0000
0103
0000
,
0020
0000
1030
0000
0100
1000
0000
0001
,
0000
0100
0000
0020
0000
0000
0130
0000
,
1001
0000
0101
0000
1000
0010
0000
1000
,
0000
0100
1000
0001
,
0200
0000
0310
0000
1000
0010
0000
1000
,
0000
0001
0000
0200
0000
0000
0310
0000
,
0100
0101
1010
0010
,
1000
0001
0000
0200
0000
0000
0301
0000
,
2000
0000
3010
0000
0001
1000
0000
0001
,
0000
1000
0000
1002
0000
0000
0103
0000
,
0010
0000
1000
0000
0001
1000
0000
1001
,
0000
0002
0000
2003
0000
3100
0000
0020
,
0000
0000
0000
0000
,
0000
0030
0000
0000
0000
0000
0000
0000
;

//--------------- dance-single - 8Chasey ----------------
#NOTES:
     dance-single:
     8Chasey:
     Hard:
     9:
     0,0,0,0,0:
0000
0000
0000
0000
,
0000
0000
0000
0000
,
0000
0000
0000
0000
,
0000
0000
0000
0000
,
0002
0000
1003
0100
,
1000
0000
0010
0000
0100
0001
0000
0001
,
2000
0000
0000
0000
3001
0010
0100
0020
,
0000
0130
0010
0100
0010
0100
1000
0000
,
0101
0000
1000
0001
0100
0001
0010
0002
,
0000
1003
0100
1000
0010
0100
0010
0000
,
1100
0100
1000
0001
0010
0000
0100
2000
,
0000
3002
0000
0103
0000
0010
1000
0001
,
1001
0000
0011
0000
1000
0010
0100
0110
,
0000
0011
0000
1100
0000
1000
0001
0100
,
0001
0010
0001
1000
0010
0100
0000
1010
,
0000
1000
0100
0001
0000
0200
0000
0320
,
0000
0000
0130
0000
1000
0010
0000
1001
,
0000
1000
0001
0000
0010
0001
0010
0000
,
0002
0000
0100
0000
1003
0100
1000
0010
,
0000
2010
0010
0000
3100
0010
0001
0200
,
0001
0000
0310
0000
1000
0010
0000
1001
,
0000
0102
0000
1003
0100
0010
0100
0000
,
2000
0000
3010
1000
0001
0010
0000
0101
,
0000
0001
2000
0000
0001
0001
3001
0010
,
0001
0100
0010
1000
0100
1000
0000
1001
,
0000
0021
0000
0130
1000
0000
1010
0000
,
1002
0000
0103
0010
0100
1000
0100
0002
,
0000
2000
0003
3100
1000
0000
0101
0000
,
0010
0000
0001
1000
1100
0000
0010
0001
,
0000
0100
0001
1000
0200
0310
0002
0200
,
0000
0300
1000
0100
,
2003
0010
0010
3100
,
0010
0001
1000
0010
1000
0100
1000
0000
,
0011
0000
1100
0000
0010
0002
0000
2000
,
0003
0100
0010
0100
,
3002
0010
1000
0013
,
0100
0000
2010
3000
0001
0010
0001
0000
,
1000
0000
0100
0000
1000
0000
0000
0000
0010
0000
0000
1000
0001
0000
1000
0000
,
0021
0000
0130
1000
0010
1000
0001
0100
,
0000
0010
1000
0100
0000
0010
0001
0100
,
0110
0000
0011
0000
1000
0010
0100
0010
,
0000
0100
0001
0010
0000
0100
1000
0010
,
0200
0000
0001
0000
0310
1000
0001
0011
,
0000
0010
0100
1000
0001
0100
0010
0000
,
2000
0010
0001
0010
,
3020
0100
0001
0230
,
0001
0000
0301
1000
0100
0010
0100
2002
,
0000
0000
0000
0000
0000
0000
3003
0000
0000
0000
1000
0001
1000
0000
0000
0000
,
0001
0100
0001
0100
0001
1000
0100
0020
,
0000
0130
1000
0200
0000
1300
0001
0100
,
0010
1000
0010
1000
0010
1000
0001
0020
,
0000
0031
1000
0200
0000
1300
0001
0000
,
0101
0000
1010
0000
1000
0001
0010
0200
,
0000
0320
0000
0130
0000
1000
0010
1000
,
1010
0000
0001
0010
0100
0010
0010
0100
,
0000
1000
0010
0000
1001
0000
0011
0000
,
1000
0010
1000
0001
1000
0001
0010
0200
,
0000
1300
0001
0200
0000
0301
1000
0001
,
1000
0010
1000
0010
0100
0010
0100
0002
,
0000
1003
0001
2000
0000
3100
1000
1000
,
0020
0000
1030
0000
0001
0010
0001
0100
,
0000
0101
0000
1100
0000
0010
1000
0000
,
1001
0000
0010
0001
1000
0100
0000
1001
,
0000
0000
0110
0000
0000
0000
0001
1000
0001
0000
1000
0000
0000
0000
0202
0000
,
0000
0000
0000
0000
,
0000
0000
0000
0000
,
0000
0000
0000
0000
,
0000
0000
0000
0000
0000
0303
0000
0000
;

//--------------- dance-double - 8Chasey - 2025 chart ----------------
#NOTES:
     dance-double:
     8Chasey - 2025 chart:
     Easy:
     4:
     0,0,0,0,0:
00000000
00000000
00000000
00000000
,
00000000
00000000
00000000
00000000
,
00000000
00000000
00000000
00000000
,
00000000
00000000
00000000
00000000
,
00000000
00000000
00000000
00000000
,
00000000
00000000
00000000
00000000
,
00000000
00000000
00000000
00000000
,
00000000
00000000
00000000
00000000
,
00001000
00010000
00001000
00000000
,
00010000
00001000
00010000
00000000
,
00000100
00000010
00000100
00000000
,
00000010
00000100
00000010
00000000
,
00000002
00000000
00000103
00000000
,
00002000
00000000
00003010
00000000
,
00000100
00000000
00000010
00000000
00000100
00000000
00000000
00000010
,
00000000
00000100
00000000
00000010
00000000
00000000
00000000
00000000
,
00002000
00000000
00003001
00001000
,
00000002
00000000
00001003
00000000
,
00000200
00000000
00010300
00000000
,
00001000
00010000
00001000
00001000
,
00200000
00000000
01300000
00000000
,
10000000
00010000
10000000
00010000
,
10010000
00000000
01100000
00000000
,
01000000
00001000
00010000
00000000
,
00010000
00000100
00010000
00000000
,
00000010
00001000
00000010
00000000
,
00000100
00000010
00000100
00000000
,
00000020
00000100
00000130
00000000
,
00000001
00001000
00000001
00000000
,
00001000
00000100
00010000
00000000
,
00022000
00000000
00000000
00000000
,
00033000
00000000
00000000
00000000
,
00000000
00000000
00000000
00000000
,
01000000
00000000
00100000
00000000
01000000
00100000
00000000
02000000
,
00000000
00000000
00000000
00000000
,
03000000
00000000
00000000
00000000
,
00000000
00000000
20000000
00000000
,
32000000
00000000
03020000
00000000
,
00032000
00000000
00000000
00003000
,
00000000
00010000
00000000
00010000
00000000
00000100
00000000
00000200
,
00000000
00000000
00000000
00000300
,
00000000
00010000
00000000
00010000
00000000
00001000
00000000
00001000
,
01000000
00000000
00100000
00000000
,
10000000
00000000
00010000
00000000
,
00100000
00100000
01000000
01000000
,
10000000
00010000
10000000
00010000
,
02000000
00000000
03001000
00000000
00010000
00000000
00000000
00000200
,
00000000
00000000
00000300
00000000
,
00000010
00000001
00000010
00000001
,
00001000
00000000
00000000
00000100
00000000
00000000
00001000
00000000
,
00000010
00001000
00000010
00001000
,
00000001
00000000
00000000
00000100
00000000
00000000
00000001
00000000
,
00002000
00000000
00003100
00000000
,
00010000
00010000
00010000
00000000
,
00001000
00100000
00001000
00000000
,
02000000
00000000
03100000
00000000
,
00100000
10000000
00100000
10000000
,
00010000
00000000
00000000
10000000
00000000
00000000
00010000
00000000
,
01000000
00010000
01000000
00010000
,
10000000
00000000
00000000
00010000
00000000
00000000
10000000
00000000
,
01200000
00000000
01300000
00000000
,
00010000
00100000
00001000
00000000
,
00010000
00000100
00010000
00000000
,
00001001
00000000
00000000
00000000
00000000
00000010
00000000
00000020
,
00000000
00000000
00000030
00000000
;

//--------------- dance-double - 8Chasey - 2025 chart ----------------
#NOTES:
     dance-double:
     8Chasey - 2025 chart:
     Medium:
     6:
     0,0,0,0,0:
00000000
00000000
00000000
00000000
,
00000000
00000000
00000000
00000000
,
00000000
00000000
00000000
00000000
,
00000000
00000000
00000000
00000000
,
00000020
00000000
00000130
00010000
,
00001000
01000000
00100000
01000000
,
00200000
00000000
00000000
00000000
01300000
00000000
00000000
10010000
,
00000000
10000000
01000000
00010000
,
00011000
00000000
00011000
00000000
00000100
00000000
00000010
00000100
,
00000000
00000110
00001000
00000001
,
00001001
00000000
00001001
00000000
00000001
00000000
00001000
00000100
,
00000000
00010000
00000000
00001000
00000000
00100000
01000000
00000000
,
00200000
00000000
01300000
00000000
10000000
00010000
00000000
02000000
,
00000000
00100000
00000000
03100000
00000000
10000000
00010000
00000000
,
00100000
00000000
00001000
00000000
00010000
00000000
00000000
00000200
,
00000000
00000310
00000000
00000002
00000000
00001003
00000000
00001001
,
00000000
00000000
00000100
00000000
00000010
00000000
00000000
00000110
,
00000000
00000100
00000001
00001000
,
00000100
00000000
00010000
00000000
00001000
00000000
00000000
01000000
,
00000000
02000000
00000000
00000000
03100000
00000000
01000000
00000000
,
20020000
00000000
30030000
00000000
10000000
00010000
00000000
00100000
,
00000000
01000000
00000000
01000000
00000000
00100000
01000000
00000000
,
10000000
00000000
01000000
00000000
00100000
01000000
00000000
00200000
,
00000000
00302000
00010000
00013000
,
00000100
00000000
00000010
00000000
00000001
00000000
00001000
00000001
,
00000000
00000001
00001000
00000000
00000010
00000000
00000100
00000000
,
00000020
00000000
00010030
00000000
00001000
00010000
00000000
00001000
,
00000000
02000000
00000000
00000000
03100000
00000000
01000000
00000000
,
00010000
10000000
00100000
10100000
,
10000000
00000000
10000000
00000000
01000000
00100000
00001000
00020000
,
00000000
00001000
00000000
00031000
,
00200000
00010000
00010000
00301000
,
00010000
00000100
00000010
00000110
,
00000100
00000000
00001001
00000000
00001000
00000001
00000000
00000020
,
00000000
00001000
00000000
00000031
,
00002000
00000010
00000010
00003100
,
00010000
00011000
00002000
00000000
,
00023000
00000000
01030000
00100000
,
01100000
00000000
00010000
10000000
,
00010000
00100000
00010000
00000000
10000000
01000000
10000000
00000000
,
00200000
01000000
01000000
01300000
,
00001000
00010000
00001000
00000000
00010000
00001000
00010000
00000000
,
00000200
00000000
00001300
00000010
,
00000100
00000001
00001000
00000100
,
00020000
00100000
00001000
00130000
,
00002000
00000010
00010000
00003010
,
00020000
01000000
00032000
00003200
,
00000301
00000000
00001000
00000001
,
00000100
00000110
00000010
00000110
,
00000100
00000000
00000001
00000200
00000000
00000000
00000301
00000000
,
00001000
00001001
00000001
00001001
,
00000100
00010000
00000000
00012000
00000000
00000000
01003000
00000000
,
00200000
00000000
10300000
00000000
01000000
10000000
00000000
00010000
,
00000000
00100000
00000000
00002000
00000000
00000000
00013000
00000000
,
00010100
00000000
00001100
00000000
00001000
00000001
00000000
00001000
,
00000000
00000001
00000010
00000100
,
00020000
00000000
00031000
00000000
00100000
00001000
00000000
01000000
,
00000000
00010000
00000000
20000000
00000000
00000000
31000000
00000000
,
00100000
01100000
10010000
10000000
,
00010000
10000000
00000000
02000000
00000000
00000000
03100000
00000000
,
00001000
00000000
00010000
00000000
00000100
00000000
00000000
00000010
,
00000000
00000001
00000000
00001000
00000000
00000000
00000010
00000000
,
00000100
00000001
00000100
00000000
00000010
00001000
00000000
00000010
,
00000000
00010000
00000000
00001000
00000000
01000000
00000000
00200000
,
00000000
00000000
00000000
00000000
,
00000000
00300000
00000000
00000000
00000000
00000000
00000000
00000000
;

//--------------- dance-double - 8Chasey - 2025 chart ----------------
#NOTES:
     dance-double:
     8Chasey - 2025 chart:
     Hard:
     9:
     0,0,0,0,0:
00000000
00000000
00000000
00000000
,
00000000
00000000
00000000
00000000
,
00000000
00000000
00000000
00000000
,
00000000
00000000
00000000
00000000
,
00000002
00000010
00001003
00000100
,
00010000
00001000
00100000
00000000
00010000
01000000
00000000
00010000
,
01000000
00000000
00100000
00000000
10000000
01000000
00010000
00002000
,
00000000
00013000
00001000
00010000
00001000
00010000
00000100
00000000
,
00000110
00000000
00001001
00000000
00000001
00000000
00001000
00000020
,
00000000
00010030
00011000
00001000
,
00100000
00010000
00100000
00000000
01000000
00000000
10000000
01000000
,
00000000
00100000
00000000
10010000
00000000
01000000
00001000
00010000
,
00001000
00000000
00011000
00000000
00010000
00000100
00000010
00000001
,
00000000
00000101
00000000
00001010
00000000
00001000
00000100
00000000
,
00000001
00000100
00010000
00000000
00001000
00100000
00000000
00001000
,
00000000
01000000
00010000
01000000
00000000
00200000
00000000
02300000
,
00000000
00000000
03001000
00000000
00010000
00001000
00000000
00011000
,
00000000
00000000
00010000
00000100
00000010
00000000
00000100
00000000
,
00002000
00000000
00000010
00000000
00003100
00010000
00001000
00100000
,
00000000
02000000
00100000
00000000
03100000
00010000
10000000
00000000
,
20020000
00000000
30030000
00000000
00100000
00010000
00000000
10010000
,
00000000
21000000
00000000
30010000
10000000
01000000
00100000
00000000
,
00002000
00000000
00013000
00000100
00000000
00001000
00000001
00000100
,
00000000
00000010
00001000
00000002
00000000
00000013
00000100
00000000
,
00010000
00001000
00010000
00000000
00001000
01000000
00010000
10000000
,
00000000
10000000
00000000
01000000
00100000
00000000
00110000
00000000
,
00021000
00000000
00030100
00000000
00000010
00000100
00000010
00000002
,
00000000
00002003
00000000
00003100
00010000
00000000
00011000
00000000
,
00001000
00000000
00100000
00010000
00100000
00000000
01000000
10000000
,
00000000
00100000
00010000
00001000
00000100
00000001
00000010
00000002
,
00000000
00000100
00000000
00001003
,
00000010
00001010
00000100
00000101
,
00000001
00000010
00000001
00001000
00000000
00000100
00000000
00010000
,
00001000
00000000
00011000
00000000
00100000
01000000
00000000
01100000
,
00000000
00000000
00100000
00010000
01000000
00000000
10000000
00000000
,
01000000
00001000
00010000
00000000
00000100
00000010
00000001
00001000
,
00000010
00000120
00002000
00000030
,
00000200
00000000
00003000
00000000
00010300
00001000
00010000
00000000
,
00022000
00000000
00033000
00000000
00001000
00100000
00010000
10000000
,
00000000
01000000
10000000
00100000
00000000
01000000
00010000
00100000
,
01000000
00000000
00010000
00000000
00000100
00001000
00000100
00000010
,
00000000
00000001
00000100
00001000
00000000
00010000
01000000
00100000
,
00020000
00000000
01000000
00000000
10030000
00100000
10000000
01000000
,
00000000
00100000
00001000
00000000
00010000
01000000
10000000
00000000
,
02000000
10000000
00100000
03020000
,
00001000
00030020
00000100
00002030
,
00003001
00000000
00002000
00003020
00000032
00000203
00002300
00003001
,
00000000
00000000
00000010
00000000
00000100
00001000
00000100
00000010
,
00000001
00001000
00000001
00001000
00000100
00010000
00000100
00010000
,
00001000
00100000
00001000
01000000
00000000
00010000
01000000
00100000
,
10000000
00010000
10000000
00010000
01000000
00001000
01000000
00001000
,
00010000
00000010
00010000
00000100
00000000
00001000
00000001
00000000
,
00000101
00000000
00001010
00000000
00001000
00000100
00010000
00002000
,
00000000
02003000
00000000
03100000
00000000
10000000
01000000
00100000
,
01000000
00000000
00010000
00001000
00010000
00000100
00000000
00000110
,
00000000
00000010
00000001
00000000
00001000
00000010
00001000
00000000
,
00000100
00010000
00000100
00010000
00001000
00100000
00001000
00100000
,
00010000
01000000
00100000
10000000
00010000
01000000
00010000
00000000
,
01000000
00001000
01000000
00001000
00010000
00000010
00010000
00000010
,
00001000
00000100
00000010
00000001
00001000
00000100
00001000
00000000
,
00000020
00000000
00000130
00000000
00000001
00001000
00000000
00000100
,
00000000
00010100
00000000
00101000
00000000
00100000
00010000
00000000
,
10010000
00000000
10000000
01000000
10000000
00010000
00000000
00100000
,
00000000
00001000
00010000
00000100
00000010
00000001
00000100
00000202
,
00000000
00000000
00000000
00000000
,
00000000
00000000
00000000
00000000
,
00000000
00000000
00000000
00000000
,
00000000
00000000
00000000
00000000
00000000
00000303
00000000
00000000
;
