#TITLE:Homesick Pt.2&3;
#SUBTITLE:(Extended Cut);
#ARTIST:Orangenoise Shortcut;
#TITLETRANSLIT:;
#SUBTITLETRANSLIT:;
#ARTISTTRANSLIT:;
#GENRE:Soft Rock;
#CREDIT:;
#MUSIC:Homesick Pt.2&3 (Extended Cut).ogg;
#BANNER:;
#BACKGROUND:Homesick Pt.2&3-bg.png;
#CDTITLE:;
#SAMPLESTART:45.410;
#SAMPLELENGTH:12.000;
#SELECTABLE:YES;
#OFFSET:-2.306;
#BPMS:0.000=178.000;
#STOPS:;
#BGCHANGES:;
#FGCHANGES:;

//--------------- dance-single - 8Chasey ----------------
#NOTES:
     dance-single:
     8Chasey:
     Beginner:
     2:
     0,0,0,0,0:
0000
0000
0000
0000
,
0000
0000
0000
0000
,
0000
0000
0000
0000
,
0000
0000
0000
0000
,
0000
0000
0000
0000
,
0000
0000
0000
0000
,
0000
0000
0000
0000
,
0000
0000
0000
0000
,
0100
0000
0100
0000
,
0001
0000
0000
0000
,
0100
0000
0100
0000
,
1000
0000
0000
0000
,
0010
0000
0010
0000
,
0100
0000
0100
0000
,
0001
0000
1000
0000
,
0010
0000
0000
0000
,
1001
0000
0000
0000
,
0000
0000
0000
0000
,
1000
0000
1000
0000
,
0001
0000
0001
0000
,
1000
0000
0000
0000
,
0001
0000
0000
0000
,
1001
0000
0100
0000
,
0010
0000
0000
0000
,
1000
0000
1000
0000
,
0001
0000
0001
0000
,
0100
0000
0100
0000
,
0010
0000
0000
0000
,
0001
0000
1000
0000
,
0010
0000
0100
0000
,
0001
0000
1000
0000
,
1001
0000
0000
0000
,
0100
0000
0001
0000
,
0001
0000
0001
0000
,
0010
0000
1000
0000
,
1000
0000
1000
0000
,
0100
0000
0000
0000
,
0001
0000
0001
0000
,
1000
1000
1000
0000
,
1000
0000
0000
0000
,
0100
0000
0100
0000
,
0001
0000
0000
0000
,
0100
0000
0100
0000
,
1000
0000
0000
0000
,
0010
0000
0010
0000
,
0100
0000
0100
0000
,
0001
0000
1000
0000
,
0010
0000
0000
0000
,
1001
0000
0000
0000
,
0000
0000
0000
0000
,
1000
0000
1000
0000
,
0001
0000
0001
0000
,
1000
0000
0000
0000
,
0001
0000
0000
0000
,
1001
0000
0100
0000
,
0010
0000
0000
0000
,
1000
0000
1000
0000
,
0001
0000
0001
0000
,
0100
0000
0100
0000
,
0010
0000
0000
0000
,
0001
0000
1000
0000
,
0010
0000
0100
0000
,
0110
0000
0000
0000
,
0000
0000
0000
0000
,
0000
0000
0000
0000
,
0010
0010
0010
0000
,
0010
0000
0000
0000
,
1000
0000
0001
0000
,
0000
1001
0000
0000
,
0100
0000
0100
0000
,
0010
0000
0000
0000
,
1000
0000
0001
0000
,
0010
0000
0000
0000
,
0001
0000
1000
0000
,
0100
0000
0000
0010
,
0010
0000
0000
0100
,
0100
0000
1000
0000
,
0001
0000
1000
0000
,
0001
0000
0000
0000
,
0010
0000
0000
0000
,
0100
0000
0001
0000
,
0001
0000
0001
0000
,
0010
0000
1000
0000
,
1000
0000
1000
0000
,
0100
0000
0000
0000
,
0001
0000
0001
0000
,
1000
1000
1000
0000
,
1000
0000
0000
0000
,
1000
0000
0010
0000
,
0010
0000
1000
0000
,
0001
0000
0100
0000
,
0100
0000
0001
0000
,
0010
0000
0000
0000
,
1000
0000
1000
0000
,
0001
0001
0001
0000
,
0001
0000
0000
0000
,
1000
0000
0010
0000
,
0010
0000
1000
0000
,
0001
0000
0100
0000
,
0100
0000
0001
0000
,
0010
0000
0000
0000
,
1000
0000
1000
0000
,
0001
0001
0001
0000
,
0001
0000
0000
0000
,
1001
0000
0000
0000
;

//--------------- dance-single - 8Chasey ----------------
#NOTES:
     dance-single:
     8Chasey:
     Easy:
     4:
     0,0,0,0,0:
0000
0000
0000
0000
,
0000
0000
0000
0000
,
0000
0000
0000
0000
,
0000
0000
0000
0000
,
0000
0000
0000
0000
,
0000
0000
0000
0000
,
0001
1000
0001
1000
,
2002
0000
3003
0000
,
0100
0000
0100
0000
0100
0000
0000
0002
,
0000
1000
1003
0000
,
0100
0000
0100
0000
0100
0000
0000
2000
,
0000
0001
0000
3001
0000
0000
0000
0000
,
0010
0000
0001
0000
0010
0000
0000
0100
,
0000
1000
0000
0100
0000
0000
0000
0000
,
1000
0000
0001
0000
1000
0000
0000
0001
,
0000
1000
0000
0001
0000
0000
0000
0220
,
0000
0000
0000
0000
0000
0330
0000
2002
,
0000
0000
0000
0000
0000
3003
0000
0000
,
0001
0000
1000
0000
0001
0000
0000
1000
,
0000
2000
0000
0000
0100
0000
3100
0000
,
1000
0000
0000
0000
0001
0000
0000
0100
,
0000
0100
0000
0000
0010
0000
0000
0000
,
1001
0000
0000
0000
0100
0000
0000
0010
,
0000
0010
0010
0000
,
1000
0001
1000
0000
,
0001
0010
0001
0000
,
0100
0000
0100
0000
,
0020
0000
0130
0000
,
0001
1000
0001
0000
,
1000
0001
0100
0000
,
0010
0000
0100
0000
,
1001
0000
0000
0000
,
0100
0001
0100
0001
,
1000
0000
0000
0010
0000
0000
1000
0000
,
0100
1000
0100
1000
,
0001
0000
0000
0010
0000
0000
0001
0000
,
1001
0000
1000
0000
,
0001
0001
0001
0000
,
0010
0001
1000
0000
,
0020
0000
0030
0000
,
0100
0000
0100
0000
0100
0000
0000
0002
,
0000
1000
1003
0000
,
0100
0000
0100
0000
0100
0000
0000
2000
,
0000
0001
0000
3001
0000
0000
0000
0000
,
0010
0000
0001
0000
0010
0000
0000
0100
,
0000
1000
0000
0100
0000
0000
0000
0000
,
1000
0000
0001
0000
1000
0000
0000
0001
,
0000
1000
0000
0001
0000
0000
0000
0220
,
0000
0000
0000
0000
0000
0330
0000
2002
,
0000
0000
0000
0000
0000
3003
0000
0000
,
0001
0000
1000
0000
0001
0000
0000
1000
,
0000
2000
0000
0000
0100
0000
3100
0000
,
1000
0000
0000
0000
0001
0000
0000
0100
,
0000
0100
0000
0000
0010
0000
0000
0000
,
1001
0000
0000
0000
0100
0000
0000
0010
,
0000
0010
0010
0000
,
1000
0001
1000
0000
,
0001
0010
0001
0000
,
0100
0000
0100
0000
,
0020
0000
0130
0000
,
0001
1000
0001
0000
,
1000
0000
0001
0000
0100
0000
0000
0020
,
0000
0000
0000
0000
,
0030
0000
0000
0000
,
0000
0000
0000
0000
,
0100
0000
0001
0000
1000
0000
0000
0020
,
0000
0000
0000
0000
,
0030
0000
1000
0001
,
0000
1001
1000
0000
,
1000
0000
0010
1000
,
0002
0000
0013
0000
,
0001
0100
0001
1000
,
0010
0000
0000
0000
,
1000
0100
1000
0001
,
0010
0000
0000
0000
0100
0000
0000
0010
,
0000
0000
0000
0100
0000
0000
0010
0000
,
0200
0000
2300
0000
,
3002
0000
0203
0000
,
0320
0000
0000
0000
0030
0000
0000
2002
,
0000
0000
3003
0000
,
0100
0001
0100
0001
,
1000
0000
0000
0010
0000
0000
1000
0000
,
0100
1000
0100
1000
,
0001
0000
0000
0010
0000
0000
0001
0000
,
1001
0000
1000
0000
,
0001
0001
0001
0000
,
0010
0001
1000
0000
,
0020
0000
0030
0000
,
0010
1000
0010
1000
,
0001
0000
0000
0100
0000
0000
0001
0000
,
0010
0001
0010
0001
,
1000
0000
0000
0100
0000
0000
1000
0000
,
1001
0000
0001
0000
,
1000
1000
1000
0000
,
0010
1000
0001
0000
,
0010
0001
1000
0000
,
0010
1000
0010
1000
,
0001
0000
0000
0100
0000
0000
0001
0000
,
0010
0001
0010
0001
,
1000
0000
0000
0100
0000
0000
1000
0000
,
1001
0000
0001
0000
,
1000
1000
1000
0000
,
0010
1000
0001
0000
,
0020
0000
0000
0000
0030
0100
0000
0200
,
0000
0000
0300
0000
;

//--------------- dance-single - 8Chasey ----------------
#NOTES:
     dance-single:
     8Chasey:
     Medium:
     7:
     0,0,0,0,0:
0000
0000
0000
0000
,
0000
0000
0000
0000
,
0000
0000
0000
0000
,
0000
0000
0000
0000
,
0200
0000
0301
1000
,
0001
0010
0100
0100
,
0020
0000
0000
0000
0130
0000
1000
0001
,
0000
0100
0010
0000
0110
0000
0110
0000
,
1001
0000
1001
0000
0001
0000
1000
0001
,
0000
0110
0110
0100
,
0011
0000
1010
0000
1000
0000
0001
1000
,
0000
0010
0000
0100
0000
0001
1000
0000
,
2001
0000
3001
0000
1000
0100
0000
0120
,
0000
0130
0000
0110
0000
0010
0100
0000
,
1000
0000
0100
0000
0001
0000
0000
0020
,
0000
0031
0000
2000
0000
3002
0000
0203
,
0000
0000
0310
0000
1000
0000
0000
1001
,
0000
0001
0100
0100
,
0002
0000
1000
0000
1003
0000
0001
1000
,
0000
2000
0000
0000
3100
0000
0010
0000
,
0220
0000
0330
0000
0100
0010
0000
0010
,
0000
0001
0000
1000
0000
0010
1000
0000
,
0002
0000
0013
0000
0001
1000
0000
0200
,
0000
0300
0120
0000
0001
0000
0130
0000
,
1000
0000
0001
0000
0010
0000
0001
0100
,
0000
0100
0001
0000
0200
0000
0310
0000
,
1000
0000
1001
0000
0001
1000
0000
0001
,
0000
0200
0000
0000
0301
0000
0010
0000
,
0001
1000
0010
1010
,
1000
0000
1000
0000
0010
0100
0010
0000
,
0110
0000
1000
0100
0000
1000
0001
0020
,
0000
0100
0130
0010
,
0001
1100
0010
0101
,
1000
0010
0100
0020
0000
1030
0100
0000
,
0011
1010
1000
0001
,
1000
0010
0000
0210
0000
0000
0301
0000
,
0010
0000
0010
0000
0001
1000
0000
0010
,
0000
0010
0000
0210
0000
0000
0310
0000
,
0110
0000
0101
0000
0010
0001
0000
0010
,
0000
0100
1000
0001
,
1001
0000
1001
0000
0001
0000
1000
0001
,
0000
0110
0110
0100
,
0011
0000
1010
0000
1000
0000
0001
1000
,
0000
0010
0000
0100
0000
0001
1000
0000
,
2001
0000
3001
0000
1000
0100
0000
0120
,
0000
0130
0000
0110
0000
0010
0100
0000
,
1000
0000
0100
0000
0001
0000
0000
0020
,
0000
0031
0000
2000
0000
3002
0000
0203
,
0000
0000
0310
0000
1000
0000
0000
1001
,
0000
0001
0100
0100
,
0002
0000
1000
0000
1003
0000
0001
1000
,
0000
2000
0000
0000
3100
0000
0010
0000
,
0220
0000
0330
0000
0100
0010
0000
0010
,
0000
0001
0000
1000
0000
0010
1000
0000
,
0002
0000
0013
0000
0001
1000
0000
0200
,
0000
0300
0120
0000
0001
0000
0130
0000
,
1000
0000
0001
0000
0010
0000
0001
0100
,
0000
0100
0001
0000
0200
0000
0310
0000
,
1000
0000
1001
0000
0001
1000
0000
0001
,
0000
0200
0000
0000
0301
0000
0010
0000
,
0001
1000
0010
1010
,
1000
0000
1000
0000
0001
0010
0100
2000
,
0000
0001
0000
3001
,
0200
0010
0001
0301
,
0010
0001
1000
1001
,
1000
0000
0101
0000
1000
0001
0000
0201
,
0000
0010
0001
0301
,
0002
1000
1000
0103
,
0000
1001
2000
0000
,
3002
0000
0103
0010
,
1010
0000
0000
0000
1000
0001
0000
1000
,
0000
0001
0010
0001
0000
1000
0010
0000
,
2100
0000
0100
0000
3100
0000
0000
0110
,
0000
0001
0100
1000
,
0020
0000
1030
0001
,
0010
0001
1000
0100
,
2000
0001
3001
0010
,
0002
0100
0103
0010
,
2002
0000
3003
0000
1000
0001
0000
0220
,
0000
0000
0000
0300
0100
0000
0130
0000
,
1000
1010
0101
0011
,
0010
0001
1000
0020
0000
0000
0130
0000
,
0001
0011
0110
1100
,
1000
0001
0000
1002
0000
0000
0103
0000
,
0020
0000
1030
0000
0100
1000
0000
0001
,
0000
0100
0000
0020
0000
0000
0130
0000
,
1001
0000
0101
0000
1000
0010
0000
1000
,
0000
0100
1000
0001
,
0200
0000
0310
0000
1000
0010
0000
1000
,
0000
0001
0000
0200
0000
0000
0310
0000
,
0100
0101
1010
0010
,
1000
0001
0000
0200
0000
0000
0301
0000
,
0020
0000
0130
0000
1000
0001
0000
0010
,
0000
0100
0000
0210
0000
0000
0301
0000
,
1000
0000
0001
0000
1000
0010
0000
0110
,
0000
0001
1000
0002
0000
0000
1003
0000
,
0010
0100
0101
1010
,
0100
0001
1000
0200
0000
0000
0310
0000
,
0001
1000
1100
0101
,
0010
0001
1000
0020
0000
0000
0130
0000
,
0002
0000
0013
0000
0001
1000
0000
0001
,
0000
1000
0000
1002
0000
0000
0103
0000
,
0010
0000
1000
0000
0001
1000
0000
1001
,
0000
0002
0000
2003
0000
3100
0000
0020
,
0000
0000
0000
0000
,
0000
0030
0000
0000
0000
0000
0000
0000
;

//--------------- dance-single - 8Chasey ----------------
#NOTES:
     dance-single:
     8Chasey:
     Hard:
     9:
     0,0,0,0,0:
0000
0000
0000
0000
,
0000
0000
0000
0000
,
0000
0000
0000
0000
,
0000
0000
0000
0000
,
2000
0000
3010
0000
1000
0000
0001
0020
,
0000
0001
0000
0100
0000
0031
2000
0000
,
0010
0000
3010
1000
0001
0010
0100
0020
,
0000
0130
1000
0001
0100
0010
1000
0000
,
0101
0001
0010
0100
1000
0010
0100
0020
,
0000
1030
0100
0001
0100
1000
0010
0000
,
1100
1000
0100
0010
0100
1000
1000
0002
,
0000
2003
0000
3100
1000
0001
0010
0002
,
0000
0000
0103
0000
0010
2000
0000
3001
,
0000
0101
0000
1100
0000
1000
0001
0010
,
0001
0100
0010
1000
0100
0010
0000
0001
,
0000
1000
0100
0001
0000
0200
0000
0320
,
0000
0000
0031
0000
1000
0010
0000
1001
,
0000
1000
0001
0000
0010
0001
0100
0000
,
0002
0000
0100
0000
1003
0100
1000
0010
,
0000
1000
0002
0000
0013
0100
1000
0000
,
0002
0000
0013
0001
0001
0100
0000
0010
,
1000
0100
0000
1000
0000
0010
0100
0000
,
0002
0000
1003
0100
0000
1010
0000
0100
,
0001
0010
0200
0000
1000
0000
0310
0100
,
0110
0000
0100
1000
0001
1000
0000
0100
,
1000
0010
0000
1000
0100
0000
0011
0000
,
1000
0010
0100
0010
0100
1000
0100
0002
,
0000
2003
0000
3100
1000
0000
0011
0000
,
0010
0000
0001
1000
0100
1000
0010
1000
,
0001
0100
0010
1000
0100
0000
1000
0001
,
0011
0000
1010
0000
0001
0010
0001
2000
,
0000
0100
3100
1000
0002
0000
0013
0000
,
0210
0000
1300
0000
0001
0100
0001
0200
,
0000
0310
0000
1010
0000
1000
0100
0000
,
2000
0000
3001
0010
0001
0100
0001
0010
,
0000
0100
1000
0010
0000
0100
0010
0000
,
2100
0000
3001
0010
0000
0001
0100
0002
,
0000
2003
0000
3100
0000
1000
0010
0100
,
0102
0000
0013
0100
1000
0010
0000
2000
,
0000
3001
0010
0100
0000
1000
0001
0000
,
0110
0100
0001
1000
0100
1000
0010
2000
,
0000
3100
1000
0001
0100
0010
1000
0000
,
1001
0001
0010
0001
0100
0010
1000
0200
,
0000
0320
0000
0130
0000
1000
0001
2000
,
0000
0000
3010
0000
1000
0002
0000
0103
,
0000
1010
0000
0011
0000
0010
0001
0100
,
0010
1000
0010
1000
0100
1000
0001
0020
,
0000
0031
1000
0100
0000
2000
0000
3020
,
0000
0000
0130
0000
0001
0010
0000
0110
,
0000
1000
0010
0000
1000
0100
0010
0000
,
0100
1000
0001
0000
0010
0001
1000
0100
,
0000
1000
0020
0000
1030
0001
0010
0000
,
0200
0000
1300
0010
1000
1000
0000
0021
,
0000
0130
0000
1000
0001
0100
0001
0000
,
0020
0000
0031
0100
0000
0010
1000
0001
,
0010
0001
0200
0000
0310
1000
0100
1000
,
1001
0000
0010
0001
0100
0010
0000
0200
,
0000
0301
1000
0100
0000
1001
0000
0020
,
0000
0031
0100
0010
1000
0100
0010
0200
,
0000
0320
0000
0031
1000
0000
1010
0000
,
0011
0000
0100
0010
0001
1000
1000
0001
,
0000
0100
0001
1000
0010
1000
0002
0200
,
0000
0300
1000
0100
,
2003
0100
0010
3100
,
0010
0001
1000
0010
0000
0110
0000
1000
,
0001
0000
1100
0000
0011
0002
0000
2000
,
0003
0001
0010
0100
,
3002
0100
1000
0013
,
0100
0000
0120
0000
0031
0100
0001
0000
,
0010
0100
1000
0000
0001
1000
0010
1000
,
1200
0000
0310
0001
0100
0010
1000
0001
,
0000
0010
0001
1000
0000
0100
1000
0001
,
1001
0000
0020
0000
0031
1000
0100
0100
,
0000
1000
0010
0100
0000
0001
0010
0100
,
0020
0000
0001
0000
0130
1000
0001
0101
,
0000
1100
0000
2000
0000
3001
0010
0001
,
2000
0000
3010
0100
0002
0100
0000
0010
,
0000
0103
0001
0002
0000
1003
0000
2100
,
0000
3001
0010
0100
1000
0001
1000
2002
,
0000
0000
0000
3003
1000
0001
0010
0000
,
1002
0000
0103
0010
1000
0100
1000
0001
,
0000
0010
0001
0200
0000
0301
1000
0100
,
0010
0000
0021
0000
0130
1000
0001
2000
,
0000
3100
1000
0002
0000
0013
0100
0020
,
0000
0030
0110
0200
0000
1300
0001
0100
,
0000
1010
0000
0011
0000
1000
0001
0000
,
0101
0000
1000
0100
0010
0100
0100
0010
,
0000
0010
0001
0000
1000
0010
1000
0000
,
0102
0000
1003
0010
2000
0000
3010
1000
,
0000
0001
0010
0200
0000
0310
0100
0000
,
1000
0001
0010
0000
0001
0010
0100
2000
,
0000
3001
1000
0002
0000
0103
0001
0020
,
0000
0030
0110
0200
0000
1300
0001
0010
,
0000
0011
0000
1010
0000
1000
0001
0000
,
0101
0000
0010
0100
1000
0010
0000
1001
,
0000
0001
1000
0200
0000
0310
0100
0000
,
1000
0010
0100
0000
0001
0100
0100
0002
,
0000
1003
0200
0000
0310
0100
1000
0000
,
0001
0010
0001
0000
1000
0010
0100
0020
,
0000
1030
0001
0020
0000
0031
1000
1000
,
0200
0000
0310
0000
0001
2000
0000
3010
,
0000
0101
0000
1100
0000
0010
0001
0000
,
0100
0010
1000
0001
0100
0010
0000
1001
,
0000
0110
0001
0010
0000
0001
0100
0202
,
0000
0000
0000
0000
,
0000
0000
0000
0000
,
0000
0303
0000
0000
;
