#VERSION:0.83;
#TITLE:Hi-Tekno;
#SUBTITLE:;
#ARTIST:Hi-Tekno;
#TITLETRANSLIT:;
#SUBTITLETRANSLIT:;
#ARTISTTRANSLIT:;
#GENRE:Dance;
#CREDIT:8Chasey;
#MUSIC:Hi-Tekno.ogg;
#BANNER:Hi-Tekno-bn.png;
#BACKGROUND:Hi-Tekno-bg.png;
#CDTITLE:cdtitle.png;
#SAMPLESTART:17.680;
#SAMPLELENGTH:12.000;
#SELECTABLE:NO;
#OFFSET:-0.547;
#BPMS:0.000=140.000;
#STOPS:179.750=0.429;
#DISPLAYBPM:0.000:140.000;
#BGCHANGES:;
#FGCHANGES:;

//--------------- dance-single - 8Chasey ----------------
#NOTEDATA:;
#STEPSTYPE:dance-single;
#DESCRIPTION:8Chasey;
#DIFFICULTY:Beginner;
#METER:1;
#RADARVALUES:0,0,0,0,0;
#NOTES:
0000
0000
0000
0000
,
0000
0000
0000
0000
,
0000
0000
0000
0000
,
0000
0000
0000
0000
,
0001
0001
0000
0000
,
1000
1000
0000
0000
,
0110
0000
0000
0000
,
0001
0000
0001
0000
,
1000
0000
1000
0000
,
0001
0000
1000
0000
,
0100
0000
1000
0000
,
0100
0000
0001
0000
,
0000
0001
0000
0000
,
1000
0000
0000
0000
,
0100
0000
0100
0000
,
0010
0000
0001
0000
,
0000
1000
0000
0000
,
0001
0000
1000
0000
,
0001
0000
1000
0000
,
1001
0000
0000
0000
,
0110
0000
0000
0000
,
1001
0000
0001
0000
,
0001
0000
0010
0000
,
1000
0000
0100
0000
,
0000
0000
0100
0000
,
0001
0000
0100
0000
,
0010
0000
0001
0000
,
1000
0000
0010
0000
,
1001
0000
0100
0000
,
0110
0000
0000
0000
,
0000
0000
1000
0000
,
0100
0000
0010
0000
,
0100
0000
0001
0000
,
0010
0000
0000
0000
,
1000
0000
0001
0000
,
0010
0000
1000
0000
,
1000
0000
0001
0000
,
0010
0000
0000
0000
,
0100
0000
1000
0000
,
0010
0000
0100
0000
,
0100
0000
1001
0000
,
0001
0000
0000
0000
,
1000
0000
0000
0000
,
0001
0000
1000
0000
,
0010
0000
0010
0000
,
0010
0000
0000
0000
;

//--------------- dance-single - 8Chasey ----------------
#NOTEDATA:;
#STEPSTYPE:dance-single;
#DESCRIPTION:8Chasey;
#DIFFICULTY:Easy;
#METER:3;
#RADARVALUES:0,0,0,0,0;
#NOTES:
0000
0000
0000
0000
,
0000
0000
0000
0000
,
0000
0000
0000
0000
,
0000
0000
0000
0000
,
0001
0002
0000
0013
,
1000
2000
0000
3100
,
0110
0000
0000
0000
,
0001
0000
0001
0000
,
1000
0000
1000
0000
,
0001
0000
1000
0001
,
0100
0010
1000
0100
,
0100
0010
0001
0100
,
0000
0001
0000
0000
0001
0000
0000
0001
0000
0000
0000
0000
0000
0000
0000
0000
,
1000
0000
0000
0000
,
0100
0010
0100
1000
,
0010
0100
0001
1001
,
0000
1000
0000
0000
1000
0000
0000
1000
0000
0000
0000
0000
0000
0000
0000
0000
,
0001
1000
1000
1000
,
0001
1000
1000
1000
,
2002
0000
0000
3003
,
0220
0000
0000
0330
,
2002
3003
0001
0000
,
0002
0000
0013
0001
,
2000
0000
3100
0000
,
0000
0000
0100
1000
,
0001
0000
0200
0000
,
0310
0000
0002
0000
,
2003
0000
3010
0000
,
1001
0000
0100
0000
,
0110
0000
0000
0000
,
0000
0000
1000
0001
,
0100
0001
0010
0010
,
0100
1000
0001
0100
,
0020
0000
0030
0000
,
1000
0000
0001
0100
,
0010
0000
1000
0100
,
1000
0000
0001
1000
,
0010
0000
0000
0000
,
0100
0001
1000
0100
,
0010
0000
0100
0000
,
0100
0000
1001
0000
,
0002
0000
0000
0003
,
2000
0000
0000
3000
,
0002
0003
2000
3000
,
0010
0100
0010
0100
,
0020
0000
0000
0030
;

//--------------- dance-single - 8Chasey ----------------
#NOTEDATA:;
#STEPSTYPE:dance-single;
#DESCRIPTION:8Chasey;
#DIFFICULTY:Medium;
#METER:4;
#RADARVALUES:0,0,0,0,0;
#NOTES:
0000
0000
0000
0000
,
0000
0000
0000
0000
,
0000
0000
0000
0000
,
0000
0000
0000
0000
,
0001
1000
0001
0000
1000
0000
0100
0000
,
1000
0001
1000
0000
0001
0000
0100
0000
,
0020
0000
0000
0000
,
2030
0000
0000
0000
,
3002
0000
0203
0000
,
0310
0000
1001
1001
,
0001
0000
0010
0000
0001
1000
0001
0000
,
1000
0000
0010
0000
1000
0100
0010
0000
,
0000
0100
0000
0000
0100
0000
0000
0100
0000
0000
0000
0000
0000
0000
0000
0000
,
2002
0000
3003
0001
,
0010
0001
0100
0000
0001
0000
1000
0000
,
0010
1000
0100
0000
0000
1000
0001
0000
,
0000
0010
0000
0000
0010
0000
0000
0010
0000
0000
0000
0000
0000
0000
0000
0000
,
0001
0000
0000
0001
0000
0000
0100
0000
0000
0100
0000
0000
0001
0000
0000
0000
,
1000
0000
0000
1000
0000
0000
0100
0000
0000
0100
0000
0000
1000
0000
0000
0000
,
0020
0000
0000
2000
0000
0000
3030
0000
,
0200
0000
0000
0002
0000
0000
0303
0000
,
2002
3003
0001
1000
,
0200
0300
1000
0010
,
0020
0030
0100
0001
,
1000
0100
2000
3002
,
0103
0000
2002
0000
,
3003
0001
1000
0010
,
0010
0000
0000
1000
0100
0000
0000
0000
,
0010
0000
0000
0001
0100
0000
0010
0000
,
0200
0000
0300
0001
,
1000
0100
1100
0101
,
0200
0000
0301
0000
0010
0001
1000
0000
,
0200
1300
0001
1001
,
2000
0000
3010
0000
0100
0000
0001
0010
,
0002
0103
0010
1000
,
0101
0000
0000
0000
0001
0000
0000
0010
0000
0000
0001
0000
0100
0000
0000
0000
,
0010
0000
0000
0000
1000
0000
0000
0010
0000
0000
1000
0000
0100
0000
0000
0000
,
1000
1000
0001
0001
,
1000
0000
0100
0000
1000
0001
0100
0000
,
0002
0003
0010
0001
,
1000
0000
0010
0000
0100
0000
0000
0000
0001
0000
0000
1000
0000
0000
0001
0000
,
2000
0000
0000
0000
3001
0000
0000
0010
0000
0000
0001
0000
1000
0000
0000
0000
,
0002
0000
0000
0000
1003
0000
0000
0010
0000
0000
1000
0000
0001
0000
0000
0000
,
0200
0000
0000
0000
0310
0000
0000
1000
0000
0000
0001
0000
0100
0000
0100
0000
,
0002
0000
0000
2000
0000
0000
3003
0000
,
0020
0000
0000
0030
;

//--------------- dance-single - 8Chasey ----------------
#NOTEDATA:;
#STEPSTYPE:dance-single;
#DESCRIPTION:8Chasey;
#DIFFICULTY:Hard;
#METER:7;
#RADARVALUES:0,0,0,0,0;
#NOTES:
0000
0000
0000
0000
,
0000
0000
0000
0000
,
0000
0000
0000
0000
,
0000
0000
0000
0000
,
0001
0000
1000
0000
0100
0000
0000
1000
0000
0000
0010
0000
1000
0000
0000
0000
,
1001
0000
0100
0000
0001
0000
0000
0010
0000
0000
0100
0000
0010
0000
0001
0000
,
2000
0100
0001
0100
,
3002
0010
0100
0010
,
0203
0000
0320
0000
,
1030
0100
0010
0001
1000
0001
0010
0000
,
0001
0000
0000
0000
1001
0000
0000
1000
0000
0000
0100
0000
1000
0000
0010
0000
,
0100
0000
0000
0000
0110
0000
0000
0001
0000
0000
0010
0000
0001
0000
1000
0000
,
0000
0100
0000
0000
0100
0000
0000
0100
0000
0000
0010
0000
0010
0000
0100
0000
,
0020
0000
0001
0000
0000
0100
0130
1000
,
0001
0000
0000
0000
1001
0000
0000
1000
0000
0000
0100
0000
1000
0000
0010
0000
,
0000
0100
0000
0000
1001
0000
0000
0001
0000
0000
0010
0000
0001
0000
1000
0000
,
0000
0110
0000
0000
0100
0000
0000
0100
0000
0000
0001
0000
1000
0000
1000
0000
,
0110
0000
0000
0001
0000
0000
0110
0000
0000
1000
0000
0000
0001
0000
1000
0000
,
1001
0000
0000
0100
0000
0000
1001
0000
0000
0010
0000
0000
0001
0000
1000
0000
,
0002
0000
0000
0010
0000
0000
0010
0000
0000
0010
0000
0000
0013
0000
0001
0000
,
2000
0000
0000
0010
0000
0000
0010
0000
0000
0010
0000
0000
3010
0000
1000
0000
,
0002
0000
0000
0000
0103
0000
0000
0001
0000
0000
0010
0000
0001
0000
0001
0000
,
0020
0000
0000
0000
0130
0000
0000
1000
0000
0000
0010
0000
2000
0000
0000
0000
,
3200
0000
0000
0000
0310
0000
0000
0001
0000
0000
1000
0000
0001
0000
0010
0000
,
0200
1300
0020
0230
,
0302
0103
0020
1030
,
0100
0000
1000
0000
0001
0000
0000
0100
0000
0000
0100
0000
0001
0000
0010
0000
,
0002
0000
0103
0000
0010
1000
0100
0000
,
2000
3010
0220
0330
,
2002
0000
3003
0001
,
1000
0000
0000
0000
0010
0000
0000
0000
0100
0000
0000
0001
0000
0000
0100
0000
,
0010
0000
0000
0000
0101
0000
0000
0001
0000
0000
0100
0000
0001
0000
0000
0000
,
0010
0000
0000
0000
1100
0000
0000
0100
0000
0000
1000
0000
0001
0000
0000
0000
,
0100
0000
0000
0000
1001
0000
0000
0001
0000
0000
1000
0000
0010
0000
0000
0000
,
0100
1010
0011
0100
,
2002
0000
0000
0000
3003
0000
0000
1000
0001
0000
0010
0000
0100
0000
0000
0000
,
0022
0000
0000
0000
0033
0000
0000
0001
0010
0000
0100
0000
1000
0000
0000
0000
,
2020
0000
3030
0000
,
0100
0001
0010
0000
0001
1000
0010
0000
,
2000
0000
3100
0000
1000
0001
0010
0000
,
0001
0000
0100
0000
0010
0000
0000
0000
1001
0000
0000
1001
0000
0000
0100
0000
,
0010
0000
1000
0000
1000
0000
0000
0002
0000
0000
0103
0000
0010
0000
1000
0000
,
0001
0000
0100
0000
0001
0000
0000
2000
0000
0000
3100
0000
1000
0000
0010
0000
,
0100
0000
0001
0000
1000
0000
0000
0100
0000
0000
0010
0000
0100
0000
1000
0000
,
0002
0000
0000
0103
0000
0000
2000
0000
0000
3100
0000
0000
0010
0000
0100
0000
,
2002
0000
0000
3003
;

//--------------- dance-single - 8Chasey - 2025 chart ----------------
#NOTEDATA:;
#STEPSTYPE:dance-single;
#DESCRIPTION:8Chasey - 2025 chart;
#DIFFICULTY:Challenge;
#METER:9;
#RADARVALUES:0,0,0,0,0;
#MUSIC:Hi-Tekno (Millenium mix).ogg;
#NOTES:
0000
0000
0000
0000
,
0000
0000
0000
0000
,
0000
0000
0000
0000
,
0000
0000
0000
0000
,
1000
0000
0001
0000
0100
0000
0000
0010
0000
0000
1000
0000
0001
0000
0110
0000
,
1001
0000
0010
0000
1000
0000
0000
0100
0000
0000
1000
0000
0001
0000
1001
0000
,
1010
0000
1000
0000
0010
1000
0000
0001
1000
0000
0001
0100
0001
0100
0001
0000
,
0010
0100
0000
0010
0001
0000
1000
0100
0000
1000
0010
0000
1000
0010
1000
0001
,
1000
0000
0001
0010
0000
0001
0100
0000
0010
1000
0000
0100
1000
0000
0001
0000
,
0100
0001
0100
0001
1000
0100
1000
0100
1000
0001
1000
0001
0010
0010
0010
0010
,
0110
0000
0100
0000
0001
0000
1000
0010
0000
1000
0100
0000
0010
0000
0110
0000
,
0110
0000
0100
0000
1000
0000
0010
1000
0000
0001
0100
0000
0010
0000
0020
0000
,
2030
0001
0000
0000
0001
0000
0000
3001
0000
1000
0001
0000
1001
0000
0100
0000
,
0120
0000
1030
0200
0000
0010
0310
0110
,
0011
0000
0010
0000
0001
0000
0100
0010
0000
0000
0010
0000
1000
0000
1010
0000
,
0010
1000
0010
0000
1000
0000
0100
1000
0000
0001
1000
0000
0010
0000
0101
0000
,
0200
0001
0000
0000
0001
0000
0000
0301
0000
1000
0010
0000
0010
0000
0100
0000
,
0101
0000
0000
0011
0000
0000
0101
0000
0000
1100
0000
0000
1010
0000
1100
0000
,
0110
0000
0000
0011
0000
0000
0101
0000
0000
1001
0000
0000
1010
0000
1100
0000
,
0010
0001
0010
0100
1000
0100
0010
0001
0010
0100
1000
0100
0010
0001
0010
0000
,
0100
1000
0100
0010
0001
0010
0100
1000
0100
0010
0001
0010
0100
1000
0200
0000
,
0320
0000
0001
0000
0001
0000
0000
0100
0000
0000
0001
0000
0031
0000
1000
0000
,
0020
0000
1000
0000
1000
0000
0000
0100
0000
0000
1000
0000
2030
0000
0100
0000
,
3002
0000
0010
0000
0010
0000
0000
1000
0000
0000
1003
0000
1000
0010
1000
0000
,
0100
1000
0100
0000
0010
0000
0001
0000
1000
0020
0000
0000
0130
0002
0000
0000
,
2003
0100
3100
0010
0002
0000
0103
0001
,
0100
0010
0100
0000
0010
0000
1000
0000
0200
0000
0010
0000
0010
0000
0000
0000
,
0320
0001
0031
1000
0002
0100
0103
0010
,
2000
0100
3100
0010
0200
0010
0310
0001
,
1001
0000
1000
0000
0010
0000
0100
0001
0000
0000
0100
0000
0010
0000
0010
0000
,
1000
0010
1000
0000
0001
0000
0010
0000
0002
0000
0000
0000
2003
0000
0010
0000
,
3010
0000
0100
0000
0101
0000
0000
0001
1000
0000
0010
0000
2010
0000
0000
0000
,
3100
0000
1000
0000
1100
0000
0000
0010
0100
0000
0010
0000
0012
0000
0000
0000
,
1003
0000
0001
0000
1001
0000
0000
1000
0010
0000
0100
0000
0110
0000
0010
0000
,
0000
0100
0001
0000
0001
0000
1000
0010
1000
0000
0100
1000
0010
0000
0110
0000
,
0110
0000
0200
0000
0001
0000
0000
0301
1000
0000
0010
0000
0020
0000
0000
0000
,
1030
0100
1000
0000
0001
0000
0010
0001
0000
0100
0002
0000
1000
0000
1003
0000
,
0001
0100
0001
0000
1000
0000
0000
0010
0000
0000
1010
0000
1000
0000
0100
0000
,
1000
0100
1000
0000
0001
0000
0000
0010
0000
0000
0011
0000
0010
0000
0001
0000
,
0200
0000
0001
0000
0001
0000
0000
0010
0000
0000
0010
0000
0301
0000
1000
0000
,
0200
0000
0010
0000
0310
0000
0100
0000
0010
0001
0000
0100
1000
0000
0100
0000
,
0102
0000
1000
0000
1003
0000
0010
1000
0000
0010
1000
0000
0100
0000
1100
0000
,
2100
0000
0001
0000
3001
0000
0010
0001
0000
0010
0001
0000
0100
0000
0101
0000
,
1001
0000
0010
0000
0100
0000
0001
0100
0000
0001
1000
0000
0100
1000
0100
0000
,
1100
0000
0000
1010
0000
0000
0101
0000
0000
0011
0000
0000
0100
0100
0100
0100
,
2002
0000
0000
3003
;

//--------------- dance-double - 8Chasey - 2025 chart ----------------
#NOTEDATA:;
#STEPSTYPE:dance-double;
#DESCRIPTION:8Chasey - 2025 chart;
#DIFFICULTY:Easy;
#METER:3;
#RADARVALUES:0,0,0,0,0;
#NOTES:
00000000
00000000
00000000
00000000
,
00000000
00000000
00000000
00000000
,
00000000
00000000
00000000
00000000
,
00000000
00000000
00000000
00000000
,
00000001
00000200
00000000
00000301
,
00001000
00000020
00000000
00001030
,
00002002
00000000
00003003
00000000
,
00000200
00000000
00000300
00000000
,
00010000
00001000
00010000
00000000
,
00001000
00010000
00001000
00011000
,
00100000
00010000
10000000
00000000
,
00100000
10000000
00010000
00000000
,
00000000
01000000
00000000
00000000
01000000
00000000
00000000
01000000
00000000
00000000
00000000
00000000
00000000
00000000
00000000
00000000
,
02000000
00000000
03000000
00000000
,
00100000
10000000
01000000
00000000
,
00010000
00001000
00010000
00000000
,
00000000
00000010
00000000
00000000
00000010
00000000
00000000
00000010
00000000
00000000
00000000
00000000
00000000
00000000
00000000
00000000
,
00001000
00000010
00001000
00001000
,
00000001
00000100
00000001
00000001
,
00000020
00000000
00000200
00000330
,
00000200
00000000
00000020
00000330
,
00000100
00010000
00001000
00000000
,
01000000
00000000
00100000
01000000
,
00100000
00000000
10000000
00000000
,
00010000
10000000
00010000
00000000
,
02000000
00000000
03100000
00000000
,
00200000
00000000
01300000
00000000
,
00010000
00100000
00010000
00000000
,
10000000
01000000
10000000
00000000
,
02000000
00000000
03100000
00000000
,
00001000
00010000
00001000
00000000
,
00020000
00000000
00030000
00000000
,
00002000
00000000
00003000
00000000
,
00010000
00000000
00000100
00000000
,
00001000
00000001
00001000
00000000
,
00000020
00000000
00000030
00000000
,
00000200
00000000
00000300
00000000
,
00000010
00001000
00000010
00000000
,
00010000
00001000
00010000
00000000
,
00001000
00000000
00100000
00000000
,
01000000
01000000
00100000
00100000
,
10010000
00000000
00000000
00100000
,
10010000
00000000
00000000
01000000
,
10010000
00000000
00100000
00000000
,
00001000
00010000
00001000
00010000
,
00022000
00000000
00000000
00033000
;

//--------------- dance-double - 8Chasey - 2025 chart ----------------
#NOTEDATA:;
#STEPSTYPE:dance-double;
#DESCRIPTION:8Chasey - 2025 chart;
#DIFFICULTY:Medium;
#METER:5;
#RADARVALUES:0,0,0,0,0;
#NOTES:
00000000
00000000
00000000
00000000
,
00000000
00000000
00000000
00000000
,
00000000
00000000
00000000
00000000
,
00000000
00000000
00000000
00000000
,
00010000
00100000
00010000
00000000
01000000
00000000
00001000
00000000
,
00010000
00001000
00010000
00000000
00000100
00000000
00000010
00000000
,
00000002
00000000
00000100
00000000
00001000
00000000
00000013
00000100
,
00002000
00000000
00000010
00000000
00000001
00000000
00003100
00010000
,
00001000
00100000
00010000
10000000
,
01000000
00100000
00010000
00000000
10000000
00000000
10010000
00000000
,
01000000
00000000
00010000
00000000
00100000
00001000
00100000
00000000
,
00001000
00000000
00010000
00000000
00000100
00010000
00000100
00000000
,
00000000
00000010
00000000
00000000
00000010
00000000
00000000
00000010
00000000
00000000
00000000
00000000
00000000
00000000
00000000
00000000
,
00002002
00000000
00003003
00001000
,
00000010
00001000
00000100
00000000
00010000
00000000
00001000
00000000
,
00100000
00010000
01000000
00000000
00010000
00000000
10000000
00000000
,
00000000
01000000
00000000
00000000
01000000
00000000
00000000
01000000
00000000
00000000
00000000
00000000
00000000
00000000
00000000
00000000
,
00100000
00000000
00000000
00010000
00000000
00000000
00100000
00000000
00000000
00010000
00000000
00000000
00100000
00000000
00000000
00000000
,
01000000
00000000
00000000
10000000
00000000
00000000
01000000
00000000
00000000
10000000
00000000
00000000
01000000
00000000
00000000
00000000
,
00020000
00000000
00000000
00002000
00000000
00000000
00033000
00000000
,
00000020
00000000
00000000
00000200
00000000
00000000
00000330
00000000
,
00001001
00000001
00000100
00000010
,
00001000
00000010
00001000
00000000
00000100
00000000
00010000
00000000
,
00002000
00100000
00100000
00103000
,
00010000
01000000
00010000
00000000
20000000
00000000
00100000
00000000
,
00100000
30100000
02000000
03000000
,
00010000
00100000
00001000
00000000
00010000
00000000
00000100
00000000
,
00000010
00000001
00000100
00000000
00000001
00000000
00001000
00000000
,
00000010
00001000
00000100
00000000
00001000
00000000
00000010
00000000
,
00020000
00001000
00000100
00031000
,
00100000
00010000
10000000
00000000
11000000
00000000
01010000
00000000
,
00020000
00000000
00130000
00000000
00001000
00010000
00001000
00000000
,
00020000
00000000
00030100
00000000
00010000
00001000
00010000
00000000
,
00000010
00000000
00000100
00000000
00000001
00001000
00000001
00000000
,
00000010
00000100
00001000
00000000
00000100
00000000
00010000
00000000
,
00022000
00000000
00033000
00000000
00010000
00001000
00010000
00000000
,
00022000
00000000
00033000
00000000
00001000
00100000
01000000
00000000
,
02200000
00000000
00000000
03300000
,
10000000
01000000
00100000
00000000
00001000
00010000
00001000
00000000
,
00020000
00030000
00000100
00001000
,
00000010
00000000
00000100
00000000
00000010
00000000
00000000
00000000
00001000
00000000
00000000
00000001
00000000
00000000
00001000
00000000
,
00000020
00000000
00000130
00000000
00000010
00000100
00000010
00000000
,
00002000
00000000
00003001
00000000
00001000
00000001
00001000
00000000
,
00000100
00010000
00001000
00000000
00100000
00001000
00100000
00000000
,
00020000
00000000
00000000
20000000
00000000
00000000
30030000
00000000
,
00200000
00000000
00000000
00300000
;

//--------------- dance-double - 8Chasey - 2025 chart ----------------
#NOTEDATA:;
#STEPSTYPE:dance-double;
#DESCRIPTION:8Chasey - 2025 chart;
#DIFFICULTY:Hard;
#METER:8;
#RADARVALUES:0,0,0,0,0;
#NOTES:
00000000
00000000
00000000
00000000
,
00000000
00000000
00000000
00000000
,
00000000
00000000
00000000
00000000
,
00000000
00000000
00000000
00000000
,
00000010
00000000
00000001
00000000
00000020
00000000
00000000
00000100
00000000
00000000
00000130
00000000
00001000
00000000
00000010
00000000
,
00000010
00000000
00001000
00000000
00000200
00000000
00000000
00000010
00000000
00000000
00000310
00000000
00000001
00000000
00000100
00000000
,
00011000
00000000
00000000
00000000
00001000
00100000
00000000
00001000
00100000
00000000
00001000
00100000
00000000
00000000
00001000
00000000
,
00010000
00000100
00000000
00010000
00000100
00000000
00010000
00001000
00000000
00000000
00100000
00000000
00010000
10000000
00000000
00010000
,
10000000
00000000
00010000
10000000
00000000
00100000
10000000
00000000
01000000
00000000
10000000
00000000
00010000
00000000
00000000
00000000
,
00100000
01000000
10000000
00100000
01000000
00010000
10010000
00000000
,
01000000
00000000
00010000
00000000
01010000
00000000
00000000
00100000
00000000
00000000
00100000
00000000
10000000
00000000
01000000
00000000
,
01000000
00000000
10000000
00000000
11000000
00000000
00000000
00100000
00000000
00000000
00100000
00000000
00010000
00000000
01000000
00000000
,
00000000
00001000
00000000
00000000
00001000
00000000
00000000
00001000
00000000
00000000
00010000
00000000
00000100
00000000
00001000
00000000
,
00000002
00000000
00000010
00000000
00001003
00000100
00010000
00001000
,
00011000
00000000
00000000
00000000
00001000
00000000
00000000
00100000
00000000
00000000
00001000
00000000
00010000
00000000
00000100
00000000
,
00000100
00000000
00000010
00000000
00000001
00000000
00000000
00000100
00000000
00000000
00000010
00000000
00001000
00000000
00000100
00000000
,
00000000
00010000
00000000
00000000
00010000
00000000
00000000
00010000
00000000
00000000
00001000
00000000
00100000
00000000
00010000
00000000
,
10010000
00000000
00000000
01000000
00000000
00000000
10010000
00000000
00000000
00100000
00000000
00000000
01000000
00000000
00100000
00000000
,
01100000
00000000
00000000
10000000
00000000
00000000
01100000
00000000
00000000
00010000
00000000
00000000
10000000
00000000
00010000
00000000
,
00200000
00000000
00000000
00001000
00000000
00000000
00001000
00000000
00000000
00001000
00000000
00000000
00301000
00000000
00010000
00000000
,
00000020
00000000
00000000
00010000
00000000
00000000
00010000
00000000
00000000
00010000
00000000
00000000
00010030
00000000
00000100
00000000
,
00002000
00000000
00000000
00000000
00003001
00000000
00000000
00000010
00000001
00000000
00000010
00000000
00000001
00000000
00000000
00000000
,
00000100
00000001
00000100
00000000
00000010
00001000
00000100
00000000
,
00001100
00000000
00001000
00000000
00000100
00000000
00000000
00010000
00000000
00000000
00010000
00000000
00001000
00000000
00100000
00000000
,
00000000
00010000
00100000
00000000
00010000
00000000
00000000
00000000
00110000
00000000
00000000
00000000
11000000
00000000
00000000
00000000
,
10000000
00010000
01000000
00000000
02200000
00000000
03300000
00000000
,
00100000
00000000
10000000
00000000
00100000
00000000
00000000
01000000
00010000
00000000
01000000
00000000
00010000
00000000
00000000
00000000
,
00100000
00001000
00010000
00001000
00010000
00000000
00000100
00000000
,
00001000
00000001
00000100
00000010
00000100
00000000
00000010
00000000
,
00001002
00000000
00000100
00000000
00001003
00000010
00001000
00000000
,
00000100
00000000
00010000
00000000
00001000
00000000
00100000
00000000
00010000
00000000
00000000
10000000
00010000
00000000
10000000
00000000
,
00100000
00000000
00000000
00000000
01010000
00000000
00000000
01000000
00010000
00000000
00100000
00000000
00001000
00000000
00000000
00000000
,
00010000
00000000
00000000
00000000
00001100
00000000
00000000
00001000
00000001
00000000
00000100
00000000
00000010
00000000
00000000
00000000
,
00001001
00000000
00000000
00000000
00001000
00000000
00000001
00001000
00000001
00000000
00000010
00000000
00000100
00000000
00010000
00000000
,
00001000
00010000
00001000
00000000
00010000
00000000
00001000
00000000
00100000
00000000
00010000
00000000
10000000
00000000
00010000
00000000
,
10010000
00000000
00000000
00000000
01000000
00000000
00000000
00010000
01000000
00000000
00010000
00000000
00100000
00000000
00000000
00000000
,
01100000
00000000
00000000
00000000
01000000
00000000
00000000
10000000
01000000
00000000
00010000
00000000
00001000
00000000
00000000
00000000
,
00022000
00000000
00033000
00000000
,
00010000
00000000
00000100
00000000
00001000
00000000
00000000
00000100
00001000
00000000
00000100
00000000
00000010
00000000
00000000
00000000
,
00000001
00000000
00000100
00000000
00000001
00000000
00000000
00000010
00000001
00000000
00000010
00000000
00000001
00000000
00001000
00000000
,
00000100
00000000
00010000
00000000
00001000
00000000
00000000
00000000
00011000
00000000
00000000
00011000
00000000
00000000
00011000
00000000
,
00000000
00001000
00100000
00000000
00001000
00000000
00000000
00010000
00000000
00000000
00010000
00000000
00000100
00000000
00000100
00000000
,
00000000
00010000
00000010
00000000
00010000
00000000
00000000
00001000
00000000
00000000
00001000
00000000
01000000
00000000
01000000
00000000
,
00000000
00100000
01000000
00000000
00100000
00000000
00000000
10000000
00000000
00000000
01000000
00000000
00010000
00000000
00001000
00000000
,
00010000
00000000
00000000
00010000
00000000
00000000
00001000
00000000
00000000
00001000
00000000
00000000
00000100
00000000
00000010
00000000
,
00002002
00000000
00000000
00003003
;

//--------------- dance-double - 8Chasey - 2025 chart ----------------
#NOTEDATA:;
#STEPSTYPE:dance-double;
#DESCRIPTION:8Chasey - 2025 chart;
#DIFFICULTY:Challenge;
#METER:9;
#RADARVALUES:0,0,0,0,0;
#MUSIC:Hi-Tekno (Millenium mix).ogg;
#NOTES:
00000000
00000000
00000000
00000000
,
00000000
00000000
00000000
00000000
,
00000000
00000000
00000000
00000000
,
00000000
00000000
00000000
00000000
,
00001000
00000010
00001000
00000000
00000001
00000000
00001000
00000100
00000000
00010000
00001000
00000000
00100000
00000000
00110000
00000000
,
10100000
00000000
10000000
00000000
01000000
00000000
10000000
01000000
00000000
00010000
00001000
00000000
00010000
00000000
00011000
00000000
,
00001100
00000000
00001000
00000000
00000010
00001000
00000000
00000001
00001000
00000000
00000100
00010000
00001000
00100000
00010000
00000000
,
10000000
00100000
00000000
10000000
01000000
00000000
10000000
00010000
00000000
00100000
00001000
00000000
00010000
00001000
00010000
00000100
,
00010000
00000000
00000100
00001000
00000000
00000010
00001000
00000000
00000001
00000010
00000000
00000001
00000100
00000000
00000010
00000000
,
00001000
00000100
00001000
00000100
00000001
00000100
00000001
00000100
00010000
00001000
00010000
00001000
00100000
00100000
00100000
00100000
,
01100000
00000000
01000000
00000000
10000000
00000000
01000000
00100000
00000000
00001000
00100000
00000000
00001000
00000000
00011000
00000000
,
00010000
00000100
00000010
00000000
00000100
00000000
00001000
00000001
00000000
00000100
00000001
00000000
00000011
00000000
00001010
00000000
,
00000020
00000100
00000000
00000000
00001000
00000000
00000000
00020030
00000000
00000000
00031000
00100000
00001000
00000000
01000000
00000000
,
01200000
00000000
10300000
00020000
00000000
00130000
00100000
01100000
,
10010000
00000000
10000000
00000000
01000000
00000000
10000000
01000000
00000000
00100000
00001000
00000000
00010000
00000000
00011000
00000000
,
00000100
00001000
00000100
00000000
00001000
00000000
00000001
00000100
00000000
00000100
00000001
00000000
00001000
00000100
00010000
00000000
,
00002000
00100000
00000000
00000000
00010000
00000000
00000000
01003000
00000000
00010000
10000000
00000000
01000000
00100000
00010000
00000000
,
00110000
00000000
00000000
01100000
00000000
00000000
11000000
00000000
00000000
10100000
00000000
00000000
01010000
00000000
00011000
00000000
,
00001100
00000000
00000000
00001010
00000000
00000000
00000101
00000000
00000000
00000011
00000000
00000000
00000110
00000000
00001001
00000000
,
00000001
00000010
00000100
00001000
00000100
00000010
00000001
00000010
00000100
00001000
00000100
00010000
00001000
00000000
00100000
00000000
,
00010000
00100000
01000000
10000000
01000000
00100000
00010000
00100000
01000000
10000000
01000000
00100000
00010000
10000000
00020000
00000000
,
02030000
00000000
00100000
00000000
00100000
00000000
00000000
10000000
00000000
00000000
00010000
00000000
00010000
00000000
00000000
00000000
,
03200000
00000000
10000000
00000000
10000000
00000000
00000000
01000000
00000000
00000000
01300000
00000000
00002000
00000000
00000000
00000000
,
00023000
00000000
00000100
00000000
00000100
00000000
00000000
00001000
00000000
00000000
00000010
00000000
00030010
00000000
00001000
00000000
,
00000002
00000000
00000010
00000000
00000100
00000000
00000000
00000000
00001003
00000100
00000000
00000000
00000001
00000100
00000000
00000000
,
00010000
00001000
00020000
00000000
00001000
00000000
00000000
00032000
00000000
00000000
00100000
00000000
01000000
00000000
01003000
00000000
,
00010000
00000000
10000000
00000000
01000000
10000000
01000000
00000000
20000000
00000000
00100000
00000000
30100000
00000000
00000000
00000000
,
01000000
00010000
02000000
00000000
00001000
00000000
00000000
00000000
03001000
00010000
00002000
00000000
00010000
00000000
00000000
00000000
,
00103000
00010000
00100000
00000000
00020000
00000000
00000000
00000000
10030000
01000000
20000000
00000000
00100000
00000000
00000000
00000000
,
31000000
00000000
10000000
00000000
01000000
00000000
00010000
00001000
00000000
00010000
00001000
00000000
00000100
00000010
00000100
00000000
,
00000010
00001000
00000010
00000000
00000100
00000000
00000001
00000000
00001100
00000000
00000000
00000000
00000101
00000000
00000000
00000000
,
00000200
00000000
00000001
00000000
00000001
00000000
00000000
00000310
00000000
00001000
00000010
00000000
00020000
00000000
00000000
00000000
,
00032000
00000000
00100000
00000000
00103000
00000000
00010000
01000000
00000000
00010000
10000000
00000000
02000000
00000000
00000000
00000000
,
23000000
00000000
00100000
00000000
00100000
00000000
00000000
00010000
00000000
00000000
30010000
00000000
00100000
00000000
00001000
00000000
,
00010000
00001000
00010000
00000000
00000100
00000000
00000010
00000000
00000001
00000010
00000001
00001000
00000100
00001000
00000010
00000000
,
00000110
00000000
00000100
00000000
00000001
00000000
00000100
00000010
00000000
00001000
00000100
00000000
00020000
00000000
00001000
00000000
,
00032000
00000000
00100000
00000000
00103000
00000000
00000000
00010000
01000000
00000000
00100000
00000000
10000000
00100000
10000000
00000000
,
02000000
00000000
10000000
00000000
10000000
00000000
00000000
00100000
00000000
00000000
03100000
00000000
00010000
00000000
00100000
00000000
,
01000000
00100000
00001000
00000000
00010000
00000000
00000100
00001000
00000000
00000100
00001000
00000000
00000001
00000000
00000100
00000000
,
00000120
00000000
00001000
00000000
00001000
00000000
00000000
00000001
00000000
00000000
00000100
00000000
00000130
00000000
00000010
00000000
,
00001000
00000100
00001000
00000000
00000100
00000000
00010000
00000000
00011000
00000000
00001000
00100000
00001000
00000000
01000000
00000000
,
00100000
10000000
00100000
00000000
01000000
00000000
00010000
01000000
00000000
00010000
10000000
00000000
01000000
00000000
11000000
00000000
,
00100000
00010000
00100000
00000000
01000000
00000000
10000000
01000000
00000000
10000000
01000000
00000000
00010000
00000000
00011000
00000000
,
00001000
00010000
00001000
00000000
00000100
00000000
00000001
00000100
00000000
00000001
00001000
00000000
00000010
00000000
00001000
00000000
,
00010100
00000000
00000000
00101000
00000000
00000000
01010000
00000000
00000000
10100000
00000000
00000000
01000000
01000000
01000000
01000000
,
20020000
00000000
00000000
30030000
;
