#TITLE:Handy;
#SUBTITLE:;
#ARTIST:"Weird Al" Yankovic;
#TITLETRANSLIT:;
#SUBTITLETRANSLIT:;
#ARTISTTRANSLIT:;
#GENRE:;
#CREDIT:;
#MUSIC:Handy (alternate audio).ogg;
#BANNER:Handy.png;
#BACKGROUND:Handy-bg.png;
#CDTITLE:;
#SAMPLESTART:37.760;
#SAMPLELENGTH:12.000;
#SELECTABLE:YES;
#OFFSET:-0.262;
#BPMS:0.000=96.000;
#STOPS:;
#BGCHANGES:;
#FGCHANGES:;

//--------------- dance-single - 8Chasey - 2025 chart ----------------
#NOTES:
     dance-single:
     8Chasey - 2025 chart:
     Beginner:
     2:
     0,0,0,0,0:
0000
0000
0000
0000
,
0000
0000
0000
0000
,
0000
0000
0000
0000
,
0000
0001
0001
0000
,
0000
1000
1000
0000
,
0010
0000
0010
0000
,
0100
0000
0100
0000
,
0000
0001
0001
0000
,
0000
1000
1000
0000
,
0000
0001
0001
0001
,
0000
1000
1000
1000
,
0000
0100
0000
0100
,
0000
0001
0000
0001
,
0000
1000
0000
1000
,
0000
0010
0000
0010
,
0000
1000
0000
1000
,
0000
0100
0000
0010
,
0000
0001
0000
0001
,
0000
0100
0000
0010
,
0000
1000
0000
1000
,
0000
0010
0000
0010
,
0000
0001
0000
0001
,
0000
0100
0000
0100
,
0000
0001
0000
0010
,
0000
0001
0000
0000
,
0000
1000
0000
0100
,
0000
1000
0000
0000
,
0010
0000
0010
0000
,
0001
0000
0001
0000
,
0010
0000
0010
0000
,
1000
0000
1000
0000
,
0001
0000
0001
0000
,
0001
0001
0001
0000
,
1000
0000
1000
0000
,
1000
1000
1000
0000
,
0010
0000
0000
0000
,
0100
0100
0100
0000
,
0010
0000
0000
0000
,
0100
0100
0100
0000
,
0001
0000
0001
0000
,
1000
0000
0001
0000
,
1000
0000
1000
0000
,
0001
0000
1000
0000
,
0010
0000
0000
0000
,
0001
0001
0001
0000
,
0010
0000
0000
0000
,
1000
1000
1000
0000
,
0100
0100
0100
0000
,
0010
0010
0010
0000
,
0100
0100
0100
0000
,
0010
0010
0010
0010
,
0020
0000
0000
0000
,
0000
0000
0030
0000
,
2000
0000
0000
0000
,
3000
0000
0000
0000
,
0002
0000
0003
0000
,
0002
0000
0003
0000
,
0200
0000
0000
0300
,
0000
0010
0010
0000
,
0002
0000
0000
0003
,
0000
1000
1000
0000
,
0001
0000
0001
0000
,
0000
0010
0010
0000
,
1000
0000
1000
0000
,
0000
0100
0100
0000
,
0000
0001
0000
0001
,
0000
0001
0001
0000
,
0000
1000
0000
1000
,
0000
1000
1000
0000
;

//--------------- dance-single - 8Chasey - 2025 chart ----------------
#NOTES:
     dance-single:
     8Chasey - 2025 chart:
     Easy:
     5:
     0,0,0,0,0:
0000
0000
0000
0000
,
0000
0000
0000
0000
,
0010
0000
0000
0200
0000
0000
0300
0000
,
0001
0001
0002
0003
,
0010
0000
0000
0200
0000
0000
0300
0000
,
1000
1000
1000
0000
,
0001
1000
0000
0002
0000
0000
0003
0000
,
1000
0100
0200
0300
,
1000
0000
0001
2000
0000
0000
3000
0010
,
0000
0001
1000
1001
,
0010
0000
0100
0020
0000
0000
0130
0000
,
0002
0100
1000
0013
,
0100
0010
0001
1000
,
2001
0010
0100
3001
,
0100
0010
1000
0001
,
0100
0000
0000
0010
0000
0000
0010
0000
,
1000
0100
1000
0000
,
0010
0000
0000
0100
0000
0000
0100
0000
,
0001
0100
0001
0000
,
1000
0010
0000
0010
,
0000
0100
0001
0100
,
0001
0010
0000
0010
,
0000
0100
1000
1001
,
0001
0000
0010
0000
0000
0100
0010
0000
,
0100
0000
1000
0000
0000
0010
0100
0000
,
0001
0010
1000
0010
,
0001
0100
1000
0100
,
0002
0000
0000
1003
0000
0000
0000
0000
0002
0000
0000
1003
0000
0000
0000
0000
,
0010
0100
0010
0000
,
2000
0000
0000
3001
0000
0000
0000
0000
2000
0000
0000
3001
0000
0000
0000
0000
,
0100
0010
0100
0000
,
0001
0001
1000
1000
,
0001
1000
2002
3003
,
1000
1000
0001
0001
,
1000
0001
2002
3003
,
0100
0000
0000
0010
0000
0000
0010
0000
,
1000
0100
1000
0000
,
0100
0000
0000
0010
0000
0000
0010
0000
,
0001
0100
0010
0000
,
1000
0100
0000
0100
,
1000
0010
1000
0000
,
0001
0100
0000
0100
,
0001
0010
0001
1001
,
0100
0000
0000
2000
0000
0000
3000
0000
,
0010
1000
0010
0000
,
0100
0000
0000
0002
0000
0000
0003
0000
,
0010
0001
0010
0000
,
0001
0100
0001
0001
,
1000
0100
1000
1000
,
0001
0010
0001
0001
,
1000
0000
0010
0000
1000
0000
1000
1001
,
0002
0000
0000
0003
,
2000
0000
0000
3000
,
0020
0000
0100
0130
,
0200
0010
0020
0330
,
2000
0100
0000
3001
,
0020
0001
0100
0130
,
2002
3003
0000
0000
1000
0000
0000
0000
0000
0000
0000
0000
1000
0000
0000
0000
,
0000
0001
0000
0001
,
0000
2000
0000
0000
0010
0000
0000
0000
0000
0000
0000
0000
3001
0000
0000
0000
,
1000
0002
0000
0103
,
0110
0000
0000
0010
0000
0000
0010
0000
,
1000
0100
1000
0000
,
0101
0000
0000
0100
0000
0000
0100
0000
,
0001
0010
0001
0000
,
1000
0010
0000
0010
0000
0010
0000
0010
,
0100
0001
0100
0000
,
0001
0010
0000
0010
0000
0010
0000
0010
,
0100
1000
2002
3003
;

//--------------- dance-single - 8Chasey ----------------
#NOTES:
     dance-single:
     8Chasey:
     Medium:
     6:
     0,0,0,0,0:
0000
0000
0000
0000
,
0000
0000
0000
0000
,
2000
3000
0001
2000
0000
0000
3000
1000
,
0002
0003
2000
3000
0002
0000
0003
0100
,
0001
0000
1000
0000
0010
1000
0010
1000
,
0020
0000
0130
0000
0001
0001
0100
0001
,
1000
0020
0000
1030
0100
0010
0100
0100
,
0020
0000
0000
0000
0031
0000
0000
0000
1000
0000
0001
0000
1000
0000
0001
0100
,
0001
0000
1000
0000
0100
0100
0010
0200
,
0300
1000
1000
0001
0001
1000
0001
0100
,
0010
0000
0100
0001
0010
0000
0100
1000
,
0200
0000
1000
0000
0010
0010
0310
0001
,
0100
0000
0110
0000
1000
0001
1001
0000
,
0020
0000
0001
0000
0100
0100
0130
1000
,
0001
0000
1000
0100
0010
0100
0110
0000
,
0010
0000
0000
0001
0000
0000
0002
0000
0000
0000
0000
0000
0103
0000
0001
0000
,
1000
0000
0000
0000
0010
0000
1000
0000
0200
0000
0000
0300
1000
0000
0000
0000
,
0010
0000
0000
1000
0000
0000
2000
0000
0000
0000
0000
0000
3001
0000
0100
0000
,
0001
0000
0010
0000
0100
0000
0000
0000
1000
0000
0100
2000
0000
0000
0000
3000
,
0100
0000
0000
0010
0000
0000
0200
0000
0000
0000
0000
0000
0310
0000
0001
0000
,
1000
0000
0000
0000
0010
0000
0100
0000
0002
0000
0000
0003
0100
0000
0000
0000
,
0010
0000
0000
0100
0000
0000
0020
0000
0000
0000
0000
0000
0130
0000
0100
0000
,
0002
0000
2003
0000
3001
1000
1001
0000
,
0100
0000
0100
0000
0002
0003
0000
0000
1000
0000
0010
0000
2000
3000
0000
0000
,
0110
0000
0000
0000
1001
0000
0000
0000
1000
0000
0001
0000
0020
0030
0000
0000
,
0001
0000
0100
0000
0002
0003
0000
0000
1000
0000
0010
0000
2000
3000
0000
0000
,
0200
0000
1300
0001
0100
0100
0010
0100
,
0020
0000
0000
1030
0000
0000
0010
0000
0200
0000
0000
0301
0000
0000
0100
0000
,
0001
0001
0010
0010
0100
0100
1000
1000
,
0200
0000
0000
1300
0000
0000
0100
0000
0020
0000
0000
0031
0000
0000
0010
0000
,
0001
0100
0010
0000
1000
0100
0010
0000
,
0200
0000
0010
0310
0020
0000
0100
0130
,
1000
0000
0001
0000
2002
3003
1001
1001
,
0002
0000
0023
0000
0031
1000
0002
0003
,
2000
0000
3020
0000
1030
0001
2000
3000
,
0010
0000
0000
1000
0000
0000
2000
0000
0000
0000
0000
0000
3100
0000
1000
0000
,
0001
0000
0000
0000
0010
0000
0001
0000
0200
0000
0000
0300
0001
0000
0000
0000
,
0010
0000
0000
0001
0000
0000
0002
0000
0000
0000
0000
0000
1003
0000
0100
0000
,
1000
0000
0010
0000
0100
0000
0000
0000
0001
0000
0100
0002
0000
0000
0000
0003
,
0100
0000
0000
0010
0000
0000
0200
0000
0000
0000
0000
0000
0310
0000
1000
0000
,
0001
0000
0000
0000
0010
0000
0100
0000
2000
0000
0000
3000
0100
0000
0000
0000
,
0010
0000
0000
0100
0000
0000
0020
0000
0000
0000
0000
0000
0130
0000
0100
0000
,
2000
0000
3002
0000
1003
0001
1001
0000
,
1000
0000
1000
0002
0000
0010
0013
0000
,
0100
1000
0100
0010
0001
0200
0301
1000
,
0001
0000
0001
2000
0000
0010
3010
0000
,
0100
0001
0100
0010
1000
0020
1030
0001
,
2000
3000
0020
0030
1000
0001
1000
0000
,
0010
0100
0001
0000
1000
0100
0010
0000
,
0002
0003
0020
0030
0001
1000
0001
0000
,
0010
0100
1000
0000
0001
0000
1000
1001
,
0002
0000
0000
0000
0000
0000
0200
0000
0000
0000
0000
0000
0303
0000
0020
0030
,
2000
0000
0000
0000
0020
0000
0000
3030
,
0002
0000
0103
0001
1000
1000
0001
0000
,
2000
0000
3100
1000
0001
0001
1000
0000
,
0020
0000
0130
0000
0001
0100
0001
0001
,
0020
0000
0130
0000
1000
0100
1000
1000
,
0020
0030
0000
0000
0200
0000
0000
0000
0301
0000
0100
0000
0001
0100
0001
0000
,
0010
0000
0000
0000
0200
0000
0000
0000
1300
0000
0100
0000
1000
0100
1000
0000
,
0000
0002
0000
0000
0100
0000
0000
0000
1000
0000
1000
0000
1003
0000
0000
0000
,
0010
0000
0100
0000
0001
1000
0002
0003
,
0100
0000
0000
0010
0000
0000
2000
0000
0000
0000
0000
0000
3100
0000
1000
0000
,
0001
0000
0010
0010
0002
0000
0103
0000
,
0010
0000
0000
0100
0000
0000
0002
0000
0000
0000
0000
0000
0103
0000
0001
0000
,
1000
0000
0000
0000
0100
0000
0100
0000
0010
0000
0000
0200
0000
0000
0000
0300
,
1000
0000
0000
0100
0000
0000
0020
0000
0000
0000
0000
0000
0130
0000
0010
0000
,
0001
0000
0000
0000
0100
0000
0001
0000
2000
0000
0000
3000
0010
0000
0100
0000
,
0001
0000
0000
0010
0000
0000
0200
0000
0000
0000
0000
0000
0310
0000
0100
0000
,
1000
0001
2002
3003
;

//--------------- dance-single - 8Chasey ----------------
#NOTES:
     dance-single:
     8Chasey:
     Hard:
     7:
     0,0,0,0,0:
0000
0000
0000
0000
,
0000
0000
0000
0000
,
0001
0000
0100
0002
0000
0000
0000
1003
,
0100
0000
1000
0000
2002
0000
3003
1000
,
0001
0100
0001
0010
0001
1000
0200
1000
,
2300
0000
0010
0000
3010
0000
0100
0000
0001
0000
1000
0000
0001
1000
0001
0000
,
0010
0012
0000
0013
0100
1000
0010
1000
,
0002
0000
0000
0000
0013
0000
0001
0000
1000
0000
0100
0000
1000
0000
0010
1000
,
0010
1000
0100
0010
0002
0000
1003
0001
,
0100
0010
0010
0100
0100
1000
0001
1001
,
1000
0000
0000
0000
0010
0000
0100
0000
0001
0010
0001
0010
0002
0000
0000
0000
,
0103
0100
0001
1000
0100
1000
0010
0100
,
1001
0000
2000
0000
3010
1000
0001
1000
,
0002
0000
0103
0001
0010
0100
1000
0010
,
1010
0000
0000
0000
0011
0000
0001
0000
0100
0001
0100
0000
0001
0000
1000
0000
,
0100
0000
0000
1000
0100
0000
2000
0000
0000
0000
3001
0000
0100
0000
0001
0000
,
0010
0100
0010
0100
1000
0001
0100
0001
,
0010
0000
0000
0001
1000
0000
0002
0000
0000
0000
0103
0000
0010
0000
1000
0000
,
0010
0000
0100
0000
0001
0000
1000
0000
0100
0000
1000
0001
0000
0000
0100
0001
,
0100
0000
0000
0001
1000
0000
0200
0000
0000
0000
1300
0000
0010
0000
1000
0001
,
1000
0010
0100
0010
0100
0001
0010
0001
,
1000
0000
0000
0100
1000
0000
0020
0000
0000
0000
0130
0000
0001
0000
1000
0000
,
0002
0000
2003
0000
3100
0010
0011
0000
,
1000
0100
2000
0000
3010
0100
0002
0000
,
1003
0000
1000
0000
0001
0000
0010
0000
0001
0000
0100
0000
0010
1000
0010
0000
,
1000
1000
0100
0000
0001
0001
0010
0000
,
0001
0000
0100
0000
0001
0000
1000
0000
0010
0100
0010
0000
1000
0000
0100
0000
,
1000
0000
0000
0010
1000
0000
1000
0000
0001
0000
0100
0001
0100
0000
0001
0000
,
0010
0001
2000
3100
1000
0001
0100
0002
,
0013
0000
0000
0001
0010
0000
0001
0000
1000
0000
0100
1000
0100
0000
1000
0000
,
0010
1000
0100
0000
0001
0010
0200
0000
,
0310
0000
0000
0001
0000
0000
1000
0000
0100
0000
0000
1000
0000
0000
0001
0000
,
0100
0000
0100
0000
0001
0000
1000
0000
0010
0000
0000
0010
0000
0000
0100
0000
,
0001
0010
0002
0000
1003
0100
2000
0000
,
3010
0000
1000
0000
0001
0000
0010
0000
0100
0000
0000
2002
0000
0000
3003
0000
,
0100
0000
0000
0001
0100
0000
0002
0000
0000
0000
1003
0000
0100
0000
1000
0000
,
0010
0100
0010
0100
0001
1000
0100
1000
,
0010
0000
0000
1000
0001
0000
2000
0000
0000
0000
3100
0000
0010
0000
0001
0000
,
0010
0000
0100
0000
1000
0000
0001
0000
0100
0000
0001
1000
0000
0000
0100
1000
,
0100
0000
0000
1000
0001
0000
0200
0000
0000
0000
0301
0000
0010
0000
0001
1000
,
0001
0010
0100
0010
0100
1000
0010
1000
,
0001
0000
0000
0100
0001
0000
0020
0000
0000
0000
0130
0000
1000
0000
0001
0000
,
2000
0000
3002
0000
0013
0100
1100
0000
,
0010
1000
0001
0200
0000
0000
0301
0010
,
0001
0000
1000
0000
0100
0000
1000
0000
0010
1000
0010
0000
1000
0000
0100
0000
,
1000
0001
0100
0020
0000
0000
1030
0001
,
0100
0000
0001
0000
1000
0000
0100
0000
0010
0001
0010
0000
0001
0000
1000
0000
,
0100
0100
1000
1000
0010
1000
0010
0000
,
0100
0001
1000
0100
0010
0000
1001
0000
,
0100
0100
0001
0001
0010
0001
0010
0000
,
0100
1000
0010
0100
0001
0010
0100
1001
,
2000
0000
0010
0020
0000
0000
3030
0100
,
0002
0000
0000
0000
0100
0000
0000
0000
0200
0000
0000
0000
0303
0000
0010
0100
,
0010
0000
1000
0100
1000
0001
0010
0002
,
0100
0000
0103
0001
1000
0100
2000
0010
,
3010
0100
0001
1000
0100
0100
1000
0010
,
1000
0000
0001
1000
0001
0000
0010
0000
0001
0000
0100
0000
0020
0000
0000
0000
,
1030
0000
0000
0000
0100
0000
2000
0000
0000
0000
3001
0000
1000
0001
0010
0000
,
0001
0000
0000
0000
0100
0000
0002
0000
0000
0000
1003
0000
0100
1000
0001
0000
,
0000
0100
0000
0000
1001
0000
0001
0000
0000
0000
1000
0000
0100
0000
1000
0000
,
0020
0000
1030
0001
0100
0001
0200
0000
,
0301
0000
0000
0010
0001
0000
2000
0000
0000
0000
3100
0000
1000
0000
0010
0000
,
1000
0100
1000
0001
0100
0001
0010
0001
,
0100
0000
0000
0001
0010
0000
0002
0000
0000
0000
1003
0000
0100
0000
1000
0000
,
0010
0000
0100
0000
0001
0000
0010
0000
0001
0000
1000
0001
0000
0000
1000
0100
,
1000
0000
0000
0010
1000
0000
0200
0000
0000
0000
1300
0000
0001
0000
0100
0000
,
0001
0000
0010
0001
0010
0000
0001
0000
1000
0000
0100
0000
1000
0010
1000
0000
,
0010
0000
0000
0100
0001
0000
0020
0000
0000
0000
0031
0000
1000
0000
0100
0000
,
1000
0001
0100
0001
0220
0000
0330
0000
;

//--------------- dance-single - 8Chasey ----------------
#NOTES:
     dance-single:
     8Chasey:
     Challenge:
     9:
     0,0,0,0,0:
0000
0000
0000
0000
,
0000
0000
0000
0000
,
0000
0000
0000
0000
,
0000
0000
0000
0000
,
0001
0000
0200
0000
0301
0000
1000
0001
1000
0000
0100
0000
1000
0000
0010
1000
,
0001
0000
0200
0000
0301
0000
1000
0000
0100
1000
0100
0000
1000
0010
1000
0010
,
0100
0000
0020
0000
1030
0000
0001
1000
0001
0000
0010
0000
0001
0000
0100
0000
,
0010
0000
1000
0010
0200
0000
0001
0000
0301
0000
0010
0000
1001
0000
0001
1000
,
0100
0000
1000
0010
1000
0000
0020
0000
0130
0000
0101
0000
1010
0000
1000
0100
,
0010
0000
0001
0010
0001
0000
1000
0100
1000
0000
0010
0100
0010
0000
0100
0100
,
0002
0003
0010
0001
1000
0001
1000
0100
1000
0100
0010
0100
0010
0000
0001
0100
,
0002
0000
1003
0100
1000
0100
0010
0000
0001
1000
0010
0000
2000
0000
3001
0000
,
0100
0000
0101
0000
0001
0000
2000
0000
3010
1000
0001
1000
0100
0000
1000
0000
,
0120
0000
0031
0000
0010
0001
1000
0000
2000
0000
3010
0000
0102
0000
0013
0001
,
0010
0000
0001
0000
1001
0000
2000
0000
3100
0000
1000
0010
1000
0000
1000
0000
,
0012
0000
0000
0103
0001
0000
1000
0200
0000
1300
0010
0000
1000
0000
0001
0001
,
2000
0000
3100
1000
0001
0000
0010
0000
1002
0000
0000
0000
0103
0000
0001
0010
,
0002
0000
1003
0001
0010
0000
0100
1000
0000
1000
0020
0000
1030
0000
0100
1000
,
0010
0000
0100
0000
0101
0000
0001
1000
0002
0000
0013
0100
1000
0000
0010
0000
,
1001
0000
0100
0002
0103
0000
0001
1000
0000
1000
0200
0000
2300
3000
0010
1000
,
0010
0000
1000
0000
1001
0000
0001
1000
0100
0000
1000
0000
1010
0000
0100
1000
,
0001
0000
0010
0001
0000
0001
1000
0000
0100
1000
0100
0000
1000
0000
1002
0000
,
0013
0000
0001
1000
0100
0000
0010
0100
0020
0000
0230
0000
0310
0000
1000
0010
,
1000
0001
0000
0100
0002
0000
0013
0001
1000
0001
1000
0100
2000
0000
3010
0000
,
0100
0001
0010
0000
0011
0000
1000
0100
1000
0000
0010
0000
1000
0200
0000
1300
,
0001
0000
0010
0001
1000
0002
0003
0100
0001
0010
0001
1000
0100
2000
0010
0000
,
3010
0000
0100
0000
0010
1000
0010
1000
0001
0010
0001
0000
0201
0000
0301
0000
,
0010
0001
0010
0002
0000
1003
0010
1000
0001
0100
0010
2000
0000
3100
1000
0001
,
0100
0000
0011
0000
2010
0000
3100
0010
0100
0010
0001
0200
0000
0310
1000
0001
,
1000
0100
1000
0020
0000
0130
0001
0010
0001
1000
0100
0020
0000
0130
1000
0001
,
0100
0001
0010
0001
1000
0100
0010
0100
1000
0001
0010
0002
0000
0103
0010
1000
,
0002
0003
0000
0101
0000
0000
0020
0000
2030
3000
0000
1100
0000
0000
1000
0001
,
0010
0000
0001
0001
1000
0000
0100
1000
0020
1030
0000
2000
3001
0000
0002
0103
,
0010
0000
1000
0100
1000
0000
1000
0001
0010
0000
0001
0100
0000
0001
1000
0000
,
1100
0000
0010
0100
0010
0000
0001
0100
0001
0000
2000
0002
3000
0000
0103
0000
,
2010
0000
0000
3100
1000
0000
0001
0200
0000
0301
0010
0000
0001
0000
1000
1000
,
0002
0000
0103
0001
1000
0000
0010
0000
2001
0000
0000
0000
3100
0000
1000
0010
,
2000
0000
3001
1000
0010
0000
0100
0001
0000
0001
0020
0000
0031
0000
0100
0001
,
0010
0000
0100
0000
1100
0000
1000
0001
2000
0000
3010
0100
0001
0000
0010
0000
,
1001
0000
0100
2000
3100
0000
1000
0001
0000
0001
0200
0000
0302
0003
0010
0001
,
0010
0000
0001
0000
1001
0000
1000
0001
0100
0000
0001
0000
0011
0000
0100
0001
,
1000
0000
0010
1000
0000
1000
0001
0000
0100
0001
0100
0000
0001
0000
2001
0000
,
3010
0000
1000
0001
0100
0000
0010
0100
0020
0000
0230
0000
0310
0000
0100
0100
,
0001
0000
1000
0000
1200
0000
0310
0000
0100
0000
1000
0001
0200
0000
0301
0000
,
0011
0000
0010
0001
1000
0000
0100
1000
0010
1000
0002
0000
0103
0001
1000
0000
,
2100
0000
3010
1000
0001
0000
0020
0000
0031
0000
1001
0000
0001
0000
0100
0001
,
2000
3000
0100
1000
0200
0300
1000
0001
0020
0030
0002
0003
0100
0001
0010
0000
,
0002
0000
1003
0000
2000
0000
3010
0000
0100
0001
0010
0000
0200
0000
1300
0000
,
1010
0000
0100
0001
0100
0000
0001
0010
0001
1000
0200
0000
1300
0010
0100
0000
,
0020
0000
1030
0000
0200
0000
0301
0000
0010
0001
1000
0000
1200
0000
0310
0000
,
0100
1000
0100
0000
1000
0000
0001
0010
0001
0000
0100
0010
1000
0000
2100
0000
,
3002
0000
0000
0000
0010
0000
0200
0000
0003
0000
0000
0000
0310
0000
0100
0001
,
2000
0000
0100
0000
0100
0000
0000
0000
3002
0000
0000
0000
0103
0000
0001
0010
,
0200
0000
0000
0000
1300
0000
1001
0000
0010
0001
0010
0000
0100
0000
0100
1000
,
0020
0030
1000
0000
1001
0000
0001
0100
0002
0000
0013
0001
2000
0000
3100
0000
,
0120
0000
0001
0000
0032
0000
1003
0000
0200
0300
1000
1000
0010
0000
0101
0000
,
0200
0000
0001
0000
0320
1030
0001
1000
0100
0010
0100
1000
0002
0000
0013
0001
,
0200
0300
0001
0000
1010
0000
0010
1000
0100
0000
2000
0000
3001
0010
0002
0000
,
1003
0000
0100
0000
1010
0000
0100
0001
1000
0010
1000
0001
0010
0002
0203
0000
,
0300
0002
0010
0000
0013
0000
0001
0000
1100
0000
1000
0010
1000
0002
0100
0000
,
0103
0000
0001
0000
1010
0000
0101
0000
0001
0010
0001
0100
0010
0000
1100
0000
,
0120
0000
0030
0100
1000
0000
0001
0010
0001
0000
0100
0000
1001
0000
0001
0001
,
0020
0000
0031
1000
0200
0300
1000
0000
1010
0000
0020
0000
0130
0000
0001
0100
,
0001
0010
0000
0010
0001
0000
1000
0100
1000
0000
0010
0000
2001
0000
0100
0000
,
3010
0000
0100
0001
0200
0300
0001
0000
0010
0001
1000
0200
0000
0000
0310
0000
,
0120
0000
0031
0100
0000
0001
2000
3000
0100
1000
0001
0000
0100
0000
1001
0000
,
0011
0000
0010
0100
0020
0030
0100
0000
1010
0000
1000
0000
0001
1000
0200
0000
,
1300
0020
0030
1000
0001
0000
0020
0000
0031
0100
0001
0000
1000
0000
0100
0000
,
2000
0000
3010
1000
0002
0000
0013
0100
0020
0000
0130
0000
2002
0000
3003
0000
;

//--------------- dance-double - 8Chasey - 2025 chart ----------------
#NOTES:
     dance-double:
     8Chasey - 2025 chart:
     Easy:
     5:
     0,0,0,0,0:
00000000
00000000
00000000
00000000
,
00000000
00000000
00000000
00000000
,
00001000
00100000
00000000
00000000
,
00010000
10000000
00010000
00000000
,
01000000
00100000
00000000
00000000
,
10000000
00010000
10000000
00000000
,
01000000
00010000
00001000
00000000
,
00010000
00000100
00010000
00000100
,
00001000
00000001
00001000
00000001
,
00000000
00000100
00000010
00000110
,
00000010
00001000
00000010
00001000
,
00000100
00010000
00000000
00010000
,
00000000
00001000
00000000
00001000
,
00100000
00001000
00000000
00001000
,
00000000
01000000
00000000
01000000
,
00100000
10000000
00000000
10000000
,
00010000
00100000
10000000
00000000
,
00100000
00010000
00000000
00010000
,
10000000
00100000
00010000
00000000
,
00011000
00010000
00000000
00001000
,
00000000
00010000
00000100
00010000
,
00000100
00000010
00000000
00000010
,
00000001
00000100
00000001
00000100
,
00001000
00010000
00100000
00010000
,
00100000
10000000
01000000
10000000
,
01000000
00100000
00001000
00101000
,
00010000
00000010
00010000
00010010
,
00000010
00000100
00000001
00001000
,
00000100
00010000
00001000
01000000
,
00100000
01000000
00010000
10000000
,
01000000
00010000
00001000
00100000
,
00010000
00000000
00000000
00010000
00000000
00000000
00000000
00000000
00010000
00000000
00000000
00010000
00000000
00000000
00000000
00000000
,
10000000
00000000
00000000
10000000
00000000
00000000
00000000
00000000
10000000
00000000
00000000
10000000
00000000
00000000
00000000
00000000
,
00100000
00000000
00000000
00000000
01000000
00000000
00000000
00000000
00010000
00000000
00000000
00010000
00000000
00000000
00000000
00000000
,
00100000
00000000
00000000
00000000
01000000
00000000
00000000
00000000
10000000
00000000
00000000
10000000
00000000
00000000
00000000
00000000
,
01000000
00010000
00000000
00001000
,
00000000
00010000
00000100
00010000
,
00000000
00000010
00000000
00000010
,
00000100
00000001
00000100
00000100
,
00001000
00010000
00000000
00010000
,
00001000
00100000
00001000
00100000
,
01000000
10000000
00000000
10000000
,
01000000
00010000
00001000
00000100
,
00000110
00000010
00000000
00000010
,
00001000
00000100
00001000
00000001
,
00001001
00000001
00000000
00000001
,
00000100
00001000
00010000
00001000
,
00100000
00101000
00001000
00001000
,
01000000
00010000
10000000
01000000
,
11000000
10000000
00100000
10000000
,
00100000
00000000
01000000
00000000
00001000
00000000
00010000
00011000
,
00001000
00000000
00000000
00001000
00000000
00000000
00000000
00000000
,
00010000
00010000
00010000
00000000
,
00000100
00000000
00001000
00000100
,
00000000
00000001
00000100
00001000
,
00000010
00000000
00000000
00000000
,
00000010
00000000
00000100
00000010
,
00001001
00000000
00000001
00000010
,
00000001
00000000
00001000
00000100
,
00000000
00010000
00000000
00000000
00001000
00000000
00000000
00000000
00000000
00000000
00000000
00000000
00001000
00000000
00000000
00000000
,
00100000
00010000
00100000
00010000
,
11000000
10000000
00000000
10000000
,
00000000
00010000
01000000
00010000
,
00100000
00001000
00100000
00000000
,
00001000
00010000
00000100
00000100
,
00000000
00000000
00001000
00000010
00000000
00000000
00001000
00000000
,
00000000
00000001
00000001
00001000
,
00000000
00000000
00000001
00000010
00000000
00000000
00000001
00000000
,
00000100
00001000
00011000
00000000
;

//--------------- pump-single - Beat Popper Novice Chart ----------------
#NOTES:
     pump-single:
     Beat Popper Novice Chart:
     Easy:
     2:
     0,0,0,0,0:
00010
00000
00000
01000
00000
00000
00000
00000
,
00010
00100
01000
00000
,
00010
00000
00000
01000
00000
00000
00000
00000
,
00010
00100
01000
00000
,
00010
00000
00000
01000
00000
00000
00000
00000
,
00010
00100
01000
00000
,
00010
00000
00000
01000
00000
00000
00000
00000
,
00010
00100
01000
00000
,
00010
00000
00000
01000
00000
00000
00000
00000
,
00010
00100
01000
00000
,
00010
00000
00000
01000
00000
00000
00000
00000
,
00001
00100
00000
00100
,
00000
00100
00000
00100
,
00001
00100
00000
00100
,
00000
00100
00000
00100
,
10000
00010
00000
00010
,
00000
00010
00000
00010
,
00000
00010
00000
00010
,
00000
00010
00000
00010
,
10000
00010
00000
00010
,
00000
00010
00000
00010
,
00000
00010
00000
00010
,
00000
00010
00000
00010
,
10000
00001
00000
00001
,
10000
00001
00000
00001
,
10000
00001
00000
00001
,
10000
00001
00000
00001
,
10000
00001
00000
00001
,
10000
00001
00000
00001
,
10000
00001
00000
00001
,
10000
00001
00000
00001
,
00010
00000
00000
01000
00000
00000
00000
00000
,
00010
00100
01000
00000
,
00010
00000
00000
01000
00000
00000
00000
00000
,
00010
00100
01000
00000
,
10000
00010
00000
00010
,
00000
00010
00000
00010
,
00000
00010
00000
00010
,
00000
00010
00000
00010
,
10000
00010
00000
00010
,
00000
00010
00000
00010
,
00000
00010
00000
00010
,
00000
00010
00000
00010
,
10000
00001
00000
00001
,
10000
00001
00000
00001
,
10000
00001
00000
00001
,
10000
00001
00000
00001
,
10000
00001
00000
00001
,
10000
00001
00000
00001
,
10000
00001
00000
00001
,
10000
00001
00000
00001
,
00010
00000
00000
01000
00000
00000
00000
00000
,
00010
00100
01000
00000
,
00010
00000
00000
01000
00000
00000
00000
00000
,
00010
00100
01000
00000
,
00010
00000
00000
01000
00000
00000
00000
00000
,
00010
00100
01000
00000
,
10000
00010
00000
00010
,
00000
00010
00000
00010
,
00000
00010
00000
00010
,
00000
00010
00000
00000
,
10000
00001
00000
00001
,
00000
00001
00000
00001
,
00000
00001
00000
00001
,
00000
00001
00000
00001
,
10000
00001
00000
00001
,
10000
00001
00000
00001
,
10000
00001
00000
00001
,
10000
00001
00000
00000
;

//--------------- pump-single - Beat Popper Chart ----------------
#NOTES:
     pump-single:
     Beat Popper Chart:
     Medium:
     5:
     0,0,0,0,0:
00001
00000
00010
00100
00000
00000
00000
10000
,
00001
00000
00010
00000
00100
00000
00000
10000
,
00001
00000
00010
00100
00000
00000
00000
10000
,
00001
00000
00010
00000
00100
00000
00000
10000
,
00001
00000
00010
00100
00000
00000
00000
10000
,
00001
00000
00010
00000
00100
00000
00000
10000
,
00001
00000
00010
00100
00000
00000
00000
10000
,
00001
00000
00010
00000
00100
00000
00000
10000
,
00001
00000
00010
00100
00000
00000
00000
10000
,
00001
00000
00010
00000
00100
00000
00000
10000
,
00001
00000
00010
00100
00000
00000
00000
10000
,
00100
00010
01100
00010
00100
00010
01000
00010
,
00000
00010
01000
00010
00000
00010
01000
00010
,
00100
00010
01100
00010
00100
00010
01000
00010
,
00000
00010
01000
00010
00000
00010
01000
00010
,
10000
00100
00000
00100
,
00000
00100
00000
00100
,
00000
00100
00000
00100
,
00000
00100
00000
00100
,
10000
00001
00010
00000
01000
00000
00010
00000
00000
00000
00010
00000
01000
00000
00010
00000
,
00000
00010
01000
00010
00000
00010
01000
00010
,
00000
00010
01000
00010
00000
00010
01000
00010
,
00000
00010
01000
00010
00000
00010
01000
00010
,
10010
00000
01000
00100
00000
10000
01000
00000
,
10001
00000
00000
00000
01000
00000
00000
00000
00100
00000
10000
00000
01000
10000
00000
00000
,
10010
00000
01000
10100
00000
10000
01000
00000
,
10001
00000
00000
00000
01000
00000
00000
00000
00100
00000
10000
00000
01000
10000
00000
00000
,
10010
00000
01000
00100
00000
10000
01000
00000
,
10001
00000
00000
00000
01000
00000
00000
00000
00100
00000
10000
00000
01000
10000
00000
00000
,
10010
00000
01000
10100
00000
10000
01000
00000
,
10001
00000
00000
00000
01000
00000
00000
00000
00100
00000
10000
00000
01000
10000
00000
00000
,
00001
00000
00010
00100
00000
00000
00000
01000
,
00001
00000
00010
00000
00100
00000
00000
01000
,
00001
00000
00010
00100
00000
00000
00000
01000
,
00001
00000
00010
00000
00100
00000
00000
01000
,
10000
00100
00000
00100
,
00000
00100
00000
00100
,
00000
00100
00000
00100
,
00000
00100
00000
00100
,
10000
00001
00010
00000
01000
00000
00010
00000
00000
00000
00010
00000
01000
00000
00010
00000
,
00000
00010
01000
00010
00000
00010
01000
00010
,
00000
00010
01000
00010
00000
00010
01000
00010
,
00000
00010
01000
00010
00000
00010
01000
00010
,
10010
00000
01000
00100
00000
10000
01000
00000
,
10001
00000
00000
00000
01000
00000
00000
00000
00100
00000
10000
00000
01000
10000
00000
00000
,
10010
00000
01000
10100
00000
10000
01000
00000
,
10001
00000
00000
00000
01000
00000
00000
00000
00100
00000
10000
00000
01000
10000
00000
00000
,
10000
00001
01000
00001
00000
10001
01000
00001
,
10000
00000
00001
00000
01000
00000
00001
00000
00000
00000
10001
00000
01000
10000
00001
00000
,
10000
00001
01000
00001
00000
10001
01000
00001
,
10000
00000
00001
00000
01000
00000
00001
00000
00000
00000
10001
00000
01000
10000
00101
00000
,
00001
00000
00010
00100
00000
00000
00000
01000
,
00001
00000
00010
00000
00100
00000
00000
01000
,
00101
00000
00010
00100
00000
00000
00000
01000
,
00001
00000
00010
00000
00100
00000
00000
01000
,
10001
00000
00010
00100
00000
00000
00000
01000
,
10001
00000
00010
00000
00100
00000
00000
01000
,
10001
00000
01000
00010
00000
00000
01000
00000
,
00001
01000
00010
01000
,
00000
00100
00010
00000
01000
00000
00010
00000
00000
00000
00010
00000
01000
00000
00010
00000
,
00000
00010
01000
00010
00000
00010
00000
00010
,
10000
00001
01000
00000
00100
00000
00001
00000
00000
00000
00001
00000
00100
00000
00001
00000
,
00000
00001
00100
00001
00000
00001
00100
00001
,
00000
00001
00100
00001
00000
00001
00100
00001
,
00000
00001
00100
00001
00000
00001
00100
00001
,
10000
00001
00100
00001
00000
10001
00100
00001
,
10000
00000
00001
00000
00100
00000
00001
00000
00000
00000
10001
00000
00100
10000
00001
00000
,
10000
00001
00100
00001
00000
10001
00100
00001
,
10000
00001
00100
00001
01000
00000
00000
00000
;

//--------------- pump-single - Beat Popper Hyper Chart ----------------
#NOTES:
     pump-single:
     Beat Popper Hyper Chart:
     Hard:
     9:
     0,0,0,0,0:
00001
00000
00000
00000
00010
00000
00100
00000
00000
00000
00000
00000
00000
00000
10000
10000
,
00001
00000
00000
00000
00010
00000
00000
00000
00100
00000
00000
00000
00000
00000
10000
10000
,
00001
00000
00000
00000
00010
00000
00100
00000
00000
00000
00000
00000
00000
00000
10000
10000
,
00001
00000
00000
00000
00010
00000
00000
00000
00100
00000
00000
00000
00000
00000
10000
10000
,
00001
00000
00000
00000
00010
00000
00100
00000
00000
00000
00000
00000
00000
00000
10000
10000
,
00001
00000
00000
00000
00010
00000
00000
00000
00100
00000
00000
00000
00000
00000
10000
10000
,
00001
00000
00000
00000
00010
00000
00100
00000
00000
00000
00000
00000
00000
00000
10000
10000
,
00001
00000
00000
00000
00010
00000
00000
00000
00100
00000
00000
00000
00000
00000
10000
10000
,
00001
00000
00000
00000
00010
00000
00100
00000
00000
00000
00000
00000
00000
00000
10000
10000
,
00001
00000
00000
00000
00010
00000
00000
00000
00100
00000
00000
00000
00000
00000
10000
10000
,
00001
00000
00000
00000
00010
00000
00100
00000
00000
00000
00000
00000
00000
00000
10000
10000
,
00101
00100
00110
00100
01100
00100
10110
00100
00100
00100
00110
00100
01000
00000
10010
10000
,
00001
00000
00010
00000
01100
00000
00010
00000
10000
00000
00010
00000
01000
00000
10010
10000
,
00101
00100
00110
00100
01100
00100
10110
00100
00100
00100
00110
00100
01000
00000
10010
10000
,
00001
00000
00010
00000
01100
00000
00010
00000
10000
00000
00010
00000
01000
00000
10010
10000
,
01001
00000
00000
00000
00110
00000
01000
00000
00000
00000
00000
00000
00100
00000
10000
10000
,
00001
00000
00000
00000
00110
00000
00000
00000
01000
00000
00000
00000
00100
00000
10000
10000
,
00001
00000
00000
00000
00110
00000
01000
00000
00000
00000
00000
00000
00100
00000
10000
10000
,
00001
00000
00000
00000
00110
00000
00000
00000
01000
00000
00000
00000
00100
00000
10000
10000
,
01001
10000
00010
00000
01100
00000
10010
00000
00000
00000
00010
00000
01000
00000
10010
10000
,
00001
00000
00010
00000
01100
00000
00010
00000
10000
00000
00010
00000
01000
00000
10010
10000
,
00001
00000
00010
00000
01100
00000
10010
00000
00000
00000
00010
00000
01000
00000
10010
10000
,
00001
00000
00010
00000
01100
00000
00010
00000
10000
00000
00010
00000
01000
00000
01010
01000
,
10001
00000
00000
00000
01010
00000
00100
00000
00000
00000
10000
00000
01000
00000
00100
00100
,
10001
00000
00000
00000
01010
00000
00000
00000
00100
00000
10000
00000
01000
10000
00100
00100
,
10001
00000
00000
00000
01010
00000
10100
00000
00000
00000
10000
00000
01000
00000
00100
00100
,
10001
00000
00000
00000
01010
00000
00000
00000
00100
00000
10000
00000
01000
10000
00100
00100
,
10001
00000
00000
00000
01010
00000
00100
00000
00000
00000
10000
00000
01000
00000
00100
00100
,
10001
00000
00000
00000
01010
00000
00000
00000
00100
00000
10000
00000
01000
10000
00100
00100
,
10001
00000
00000
00000
01010
00000
10100
00000
00000
00000
10000
00000
01000
00000
00100
00100
,
10001
00000
00000
00000
01010
00000
00000
00000
00100
00000
10000
00000
01000
10000
00100
00100
,
00001
00000
00000
00000
00010
00000
00100
00000
00000
00000
00000
00000
00000
00000
10000
10000
,
00001
00000
00000
00000
00010
00000
00000
00000
00100
00000
00000
00000
00000
00000
10000
10000
,
00001
00000
00000
00000
00010
00000
00100
00000
00000
00000
00000
00000
00000
00000
10000
10000
,
00001
00000
00000
00000
00010
00000
00000
00000
00100
00000
00000
00000
00000
00000
10000
10000
,
01001
00000
00000
00000
00110
00000
01000
00000
00000
00000
00000
00000
00100
00000
10000
10000
,
00001
00000
00000
00000
00110
00000
00000
00000
01000
00000
00000
00000
00100
00000
10000
10000
,
00001
00000
00000
00000
00110
00000
01000
00000
00000
00000
00000
00000
00100
00000
10000
10000
,
00001
00000
00000
00000
00110
00000
00000
00000
01000
00000
00000
00000
00100
00000
10000
10000
,
01001
10000
00010
00000
01100
00000
10010
00000
00000
00000
00010
00000
01000
00000
10010
10000
,
00001
00000
00010
00000
01100
00000
00010
00000
10000
00000
00010
00000
01000
00000
10010
10000
,
00001
00000
00010
00000
01100
00000
10010
00000
00000
00000
00010
00000
01000
00000
10010
10000
,
00001
00000
00010
00000
01100
00000
00010
00000
10000
00000
00010
00000
01000
00000
01010
01000
,
10001
00000
00000
00000
01010
00000
00100
00000
00000
00000
10000
00000
01000
00000
00100
00100
,
10001
00000
00000
00000
01010
00000
00000
00000
00100
00000
10000
00000
01000
10000
00100
00100
,
10001
00000
00000
00000
01010
00000
00100
00000
00000
00000
10000
00000
01000
00000
00100
00100
,
10001
00000
00000
00000
01010
00000
00000
00000
00100
00000
10000
00000
01000
10000
00100
00100
,
10010
00000
00001
00000
01010
00000
00101
00000
00000
00000
10001
00000
01000
00000
00101
00100
,
10010
00000
00001
00000
01010
00000
00001
00000
00100
00000
10001
00000
01000
10000
00101
00100
,
10010
00000
00001
00000
01010
00000
00101
00000
00000
00000
10001
00000
01000
00000
00101
00100
,
10010
00000
00001
00000
01010
00000
00001
00000
00100
00000
10001
00000
01000
10000
01101
01000
,
00001
00000
00000
00000
00010
00000
00100
00000
00000
00000
00000
00000
00000
00000
10000
10000
,
00001
00000
00000
00000
00010
00000
00000
00000
00100
00000
00000
00000
00000
00000
10000
10000
,
00101
00000
00000
00000
00010
00000
00100
00000
00000
00000
00000
00000
00000
00000
10000
10000
,
00001
00000
00000
00000
00010
00000
00000
00000
00100
00000
00000
00000
00000
00000
10000
10000
,
01001
00000
00000
00000
00010
00000
00100
00000
00000
00000
00000
00000
00000
00000
10000
10000
,
01001
00000
00000
00000
00010
00000
00000
00000
00100
00000
00000
00000
00000
00000
10000
10000
,
01011
00000
00000
00000
01100
00000
10000
00000
00000
00000
00000
00000
01000
00000
10000
10000
,
00001
00000
00000
00000
01100
00000
00000
00000
10010
00000
00000
00000
01000
00000
10000
10000
,
00001
00100
00010
00000
01100
00000
10010
00000
00000
00000
00010
00000
01000
00000
10010
10000
,
00001
00000
00010
00000
01100
00000
00010
00000
10000
00000
00010
00000
00000
00000
10010
10000
,
01010
10000
00001
00000
01100
00000
10001
00000
00000
00000
00001
00000
00100
00000
10001
10000
,
00010
00000
00001
00000
01100
00000
00001
00000
10000
00000
00001
00000
00100
00000
10001
10000
,
00010
00000
00001
00000
01100
00000
10001
00000
00000
00000
00001
00000
00100
00000
10001
10000
,
00010
00000
00001
00000
01100
00000
00001
00000
10000
00000
00001
00000
00100
00000
10001
10000
,
01010
00000
00001
00000
00110
00000
10001
00000
00000
00000
01001
00000
00100
00000
10001
10000
,
01010
00000
00001
00000
00110
00000
00001
00000
10000
00000
01001
00000
00100
01000
10001
10000
,
01010
00000
00001
00000
00110
00000
10001
00000
00000
00000
01001
00000
00100
00000
10001
10000
,
01010
00001
00110
00001
10000
00000
00000
00000
;
