#TITLE:Hajimete no chuu;
#SUBTITLE:;
#ARTIST:Riddles Daddy;
#TITLETRANSLIT:;
#SUBTITLETRANSLIT:;
#ARTISTTRANSLIT:;
#GENRE:;
#CREDIT:8Chasey;
#MUSIC:Hajimete no chuu.ogg;
#BANNER:Hajimete no chuu-bn.png;
#BACKGROUND:;
#CDTITLE:;
#SAMPLESTART:43.06;
#SAMPLELENGTH:12;
#SELECTABLE:YES;
#OFFSET:-0.462;
#BPMS:0.000=107.740;
#STOPS:;
#BGCHANGES:;
#FGCHANGES:;

//--------------- dance-single - 8Chasey ----------------
#NOTES:
     dance-single:
     8Chasey:
     Beginner:
     1:
     0,0,0,0,0:
0000
0000
0000
0000
,
0000
0000
0000
0000
,
0000
0000
0000
0000
,
0000
0000
0000
0000
,
1000
0000
0010
0000
,
1000
0000
0000
0001
,
0001
0000
0010
0000
,
0001
0000
0100
0100
,
0100
0000
0010
0000
,
1000
0000
0010
0010
,
0010
0000
0100
0000
,
0001
0000
1000
0000
,
1001
0000
0010
0000
,
0010
0010
0000
0000
,
1001
0000
0100
0000
,
0100
0100
0000
0000
,
0001
0000
0000
0000
,
1000
0000
0000
0000
,
0001
0000
1000
1000
,
0000
0100
0100
0000
,
0010
0010
0000
0000
,
0010
0010
0000
0000
,
1000
0000
0001
0000
,
1000
0000
0000
0000
,
0001
0000
0100
0000
,
1000
0000
0010
0000
,
0100
0000
0001
0001
,
0000
0010
0010
0000
,
0100
0100
0000
0000
,
0100
0100
0000
0000
,
0001
0000
1000
0000
,
0001
0000
0000
0000
,
1000
0000
0010
0000
,
0001
0000
0100
0000
,
0010
0000
0100
0000
,
0010
0010
0010
0010
,
0010
0000
0000
0000
,
1001
0000
0000
0000
,
0001
0000
1000
0000
,
0001
0001
0001
0000
,
1000
0000
0001
0000
,
1000
1000
1000
0000
,
0010
0000
0000
0000
;

//--------------- dance-single - 8Chasey ----------------
#NOTES:
     dance-single:
     8Chasey:
     Easy:
     3:
     0,0,0,0,0:
0000
0000
0000
0000
,
0000
0000
0000
0000
,
0000
0000
0000
0000
,
0000
0000
0000
0000
,
1000
0000
0010
0000
,
1000
0001
1000
0000
,
0001
0000
0010
0000
,
0001
1000
0001
1000
,
0100
0000
1000
0000
,
0010
1000
0010
0000
,
0100
0000
0001
0000
,
0010
0001
0010
0000
,
1001
0000
0001
0000
,
1000
1000
0000
0000
,
0010
0000
1000
0000
,
0001
0001
0000
0100
,
0010
0000
0110
0000
0000
0100
0000
0100
,
0000
0001
1000
0000
,
0001
0000
0000
0000
1000
0000
0000
0010
,
0000
1000
1000
0001
,
0100
0000
0001
1000
,
0100
0000
1000
0001
,
0010
0000
0000
0100
0000
0000
0000
0000
,
0100
0000
0000
0010
0000
0000
0000
0000
,
0001
0001
0100
0000
,
0001
1000
0010
0000
,
1000
1000
0100
0000
,
0010
0001
0010
0000
,
0001
0000
0100
0001
,
1000
0000
0100
1000
,
0100
0000
0000
0010
0000
0000
0000
0000
,
0010
0000
0000
0100
0000
0000
0000
0000
,
1000
0010
1000
0000
,
0001
1000
1000
0000
,
0001
0010
0001
0000
,
1000
1000
0001
0001
,
0100
0000
0000
0000
,
0010
0000
0000
1001
,
0001
0000
0001
0100
,
0001
1000
1000
0000
,
1000
0000
1000
0100
,
1000
0001
0001
0000
,
0110
0000
0000
0000
;

//--------------- dance-single - 8Chasey ----------------
#NOTES:
     dance-single:
     8Chasey:
     Medium:
     4:
     0,0,0,0,0:
0000
0000
0000
0000
,
0000
0000
0000
0000
,
0000
0000
0000
0000
,
0000
0000
0000
0000
,
1000
0000
0001
0000
0010
0000
0001
0100
,
0000
0001
0100
0001
0000
1000
0001
0000
,
1000
0000
0010
1000
0100
0000
1000
0001
,
0000
0000
0010
0001
0010
0001
0010
0001
,
1000
0000
0010
0000
0100
0001
0100
0001
,
0000
0010
0001
1000
0001
0000
1001
0000
,
1000
0000
0010
0000
0100
0001
1000
0001
,
0000
0010
0001
0000
0100
0000
0001
0000
,
2000
0010
0010
3010
,
1000
0010
1000
0000
0001
0000
0100
0000
,
0002
0010
0010
0013
,
0001
0010
0001
0000
1000
0000
0100
0000
,
0010
0000
1001
0000
0000
0100
0010
0100
,
0000
0001
1000
0010
,
0020
0000
0100
0000
0130
0000
0001
1000
,
0000
0100
1000
0001
0000
0100
0001
0000
,
0020
0001
0130
1000
,
0020
1000
0130
0001
,
1000
1000
0001
0001
,
0100
0000
0010
0200
0000
0000
0300
0000
,
0001
0000
1000
0200
0000
0000
1300
0000
,
1000
0000
0001
0200
0000
0000
0301
0000
,
0020
0000
0030
0000
0001
0000
1000
0010
,
0000
0100
0001
1000
0000
0100
1000
0000
,
0020
1000
0130
0001
,
0020
0001
0130
1000
,
0001
0001
1000
1000
,
0010
0000
0100
0020
0000
0000
0030
0000
,
0100
0000
0100
0002
0000
0000
1003
0000
,
0100
0000
0100
2000
0000
0000
3001
0000
,
0010
0001
1000
0010
,
0100
0100
0010
0110
,
2002
0000
0000
0000
3003
0000
0001
1000
,
0100
0000
0010
0110
,
0010
0000
0001
0000
0010
0001
0010
0001
,
0000
0000
1000
0100
2000
0000
3000
0000
,
0010
0000
1000
0000
0010
1000
0010
1000
,
0000
0000
0001
0100
0002
0000
0003
0000
,
0020
0000
0000
0030
;

//--------------- dance-single - 8Chasey ----------------
#NOTES:
     dance-single:
     8Chasey:
     Hard:
     7:
     0,0,0,0,0:
0000
0000
0000
0000
,
0000
0000
0000
0000
,
0000
0000
0000
0000
,
0000
0000
0000
0000
,
1000
0000
0100
1000
0001
0000
0010
0001
,
0100
0100
0001
0101
0000
1000
0010
1000
,
0100
0100
1000
0001
0100
0000
0010
1000
,
0001
0000
0100
0001
0010
0001
0010
0100
,
1000
0000
0001
0010
0001
0000
0100
0001
,
1000
0010
1000
0100
0010
0000
0110
0000
,
1001
1000
0001
0010
0001
0100
1000
0100
,
0010
0010
1000
0001
0010
0100
0010
0002
,
0100
0000
0100
0000
1003
0001
1000
0010
,
1000
1000
1000
0000
0010
1000
0001
2000
,
0100
0000
0100
0000
3001
1000
0001
0010
,
0001
0001
0001
0000
0200
0000
0310
0000
,
0100
0001
0101
0000
0000
0001
1000
1100
,
0000
0010
0100
0000
0020
0000
0130
0000
,
0012
0000
1000
0000
0103
0010
1000
1001
,
0000
0000
1000
0100
1000
0000
0001
0000
0000
0000
0010
0000
0010
0000
0000
0000
,
0100
0000
1001
0000
1000
0010
1000
0000
,
0100
0000
1001
0000
0001
0010
0001
0000
,
0100
0000
0001
0100
1000
0100
0000
0110
,
0000
0000
1000
0000
0001
0000
1000
0000
0001
0010
0001
0000
0010
0000
0000
0000
,
0002
0100
0103
0010
2000
0010
3010
0100
,
0020
0000
1030
0200
0000
0310
0001
0100
,
0001
0010
0001
0000
1000
0100
1000
0010
,
0000
0000
0100
0001
0100
0000
0010
0000
0000
0000
1000
0000
0100
0000
0000
0000
,
0110
0000
0010
0000
0001
0100
0001
0000
,
0010
0000
0100
0000
1000
0100
1000
0000
,
1001
0000
0001
0010
0000
0001
1000
0200
,
0000
1300
0001
0020
0000
0031
0001
0100
,
0002
0000
1003
2000
0000
3010
1000
0100
,
0010
0001
0100
0110
0000
0100
0010
1000
,
0200
0000
1300
0000
0010
0200
0301
0000
,
0011
0000
0000
0000
1010
0000
0000
0000
0100
0001
0100
0000
0001
0000
0010
0000
,
0002
0000
0000
0000
0100
0000
0000
0000
1003
0000
0100
0000
1000
0000
0010
1000
,
0010
0000
0000
0000
0100
0001
0101
0000
,
1000
0010
2000
0100
0100
0001
3001
0200
,
0000
0000
0301
0000
0010
0001
0010
0001
0020
0000
0000
0000
0031
0000
1000
0000
,
0001
0010
0002
0100
0100
1000
1003
0200
,
0000
0000
1300
0000
0010
1000
0010
1000
0020
0000
0000
0000
1030
0000
0001
0000
,
0200
0000
0000
0300
;
