#TITLE:ヒカリ;
#SUBTITLE:(LICENSED SONG);
#ARTIST:ナスカ;
#TITLETRANSLIT:Hikari;
#SUBTITLETRANSLIT:;
#ARTISTTRANSLIT:Nazca;
#GENRE:Neo Folk Rock;
#CREDIT:;
#MUSIC:HIKARI.ogg;
#BANNER:HIKARI-bn.png;
#BACKGROUND:HIKARI-bg.png;
#CDTITLE:;
#SAMPLESTART:69.070;
#SAMPLELENGTH:12.000;
#SELECTABLE:YES;
#OFFSET:-1.014;
#BPMS:0.000=134.000;
#STOPS:;
#BGCHANGES:;
#FGCHANGES:;

//--------------- dance-single - 8Chasey ----------------
#NOTES:
     dance-single:
     8Chasey:
     Beginner:
     1:
     0,0,0,0,0:
0000
0000
0000
0000
,
0000
0000
0000
0000
,
0000
0000
0000
0000
,
0000
0000
0000
0000
,
0000
0000
0001
0000
,
0001
0000
0000
0000
,
0000
0000
1000
0000
,
1000
0000
0000
0000
,
0000
0000
0010
0000
,
0000
0000
0100
0000
,
0100
0000
0100
0000
,
0000
0000
0010
0000
,
0100
0000
0010
0000
,
0000
0000
0100
0000
,
0000
0000
0100
0000
,
0100
0100
0100
0000
,
0000
0000
0001
0000
,
0001
0001
0001
0000
,
0000
0000
1000
0000
,
1000
1000
1000
0000
,
0000
0000
0010
0000
,
0000
0000
0010
0000
,
0010
0000
1001
0000
,
0000
0000
0001
0000
,
0000
0000
1000
0000
,
1000
0000
1000
0000
,
0000
0000
0001
0000
,
0000
0000
1000
0000
,
0000
0000
0001
0000
,
0001
0000
0001
0000
,
0000
0000
0100
0000
,
0100
0000
0100
0000
,
0000
0000
0010
0000
,
0010
0000
0010
0000
,
0000
0000
0100
0000
,
0000
0000
0010
0000
,
0000
0000
0100
0000
,
0100
0000
1001
0000
,
0000
0000
0001
0000
,
1000
0000
0001
0000
,
0000
0000
1000
0000
,
0001
0000
1000
0000
,
0000
0000
0001
0000
,
0001
0000
0001
0001
,
0001
0000
1000
0000
,
1000
0000
1000
1000
,
1000
0000
0010
0000
,
0100
0000
0010
0000
,
0000
0000
0100
0000
,
0010
0000
0100
0000
,
0000
0000
0010
0010
,
0010
0000
0100
0100
,
0100
0000
0010
0000
,
0100
0000
1001
0000
,
0000
0000
0000
0000
,
0000
0000
0001
0000
,
0001
0000
1000
0000
,
0001
0000
1000
0000
,
1000
0000
0001
0000
,
1000
0000
0001
0001
,
0001
0000
1000
0000
,
0001
0000
1000
1000
,
1000
0000
0001
0000
,
1000
0000
0000
1001
;

//--------------- dance-single - 8Chasey ----------------
#NOTES:
     dance-single:
     8Chasey:
     Easy:
     2:
     0,0,0,0,0:
0000
0000
0000
0000
,
0000
0000
0000
0000
,
0000
0000
0000
0000
,
0000
0000
0000
0000
,
0000
0000
0001
0010
,
0001
0000
1000
0000
,
0001
0000
1000
0010
,
1000
0000
0001
0000
,
1000
0000
0000
0001
,
0000
0001
0000
1000
,
0001
0000
0010
1000
,
0000
1000
0000
0001
,
1000
0000
0100
0000
,
0010
0000
0100
1000
,
0100
0000
1000
0000
,
0010
0000
1000
0001
,
1000
0001
1000
0000
,
1000
0000
0001
1000
,
0001
1000
0001
0000
,
0001
0000
0100
0000
,
0010
0000
1001
0000
,
0000
0000
0001
0010
,
0001
0000
1000
0000
,
0100
0000
1000
0100
,
1000
0000
0001
0000
,
0010
0000
0001
0100
,
0001
0000
1000
1000
,
0010
0000
1000
0001
,
0100
0000
0001
0000
,
0010
0000
1001
0000
,
1000
0001
1000
0000
,
0010
0000
1000
0010
,
1000
0000
0001
0000
,
0100
0000
0001
1000
,
0001
0000
1000
0000
,
1000
1000
0010
0000
,
1000
0000
0001
1000
,
0001
0000
0100
0100
,
0001
0000
1001
0000
,
1000
0000
0020
0000
,
1000
1030
0001
0000
,
1000
0001
0200
0000
,
0001
0301
0010
0000
,
0001
0000
1000
0010
,
1000
0000
0001
0000
,
0100
0000
0010
0100
,
0010
0100
0020
0000
,
1000
0000
2030
0000
,
3001
0010
0002
0000
,
1003
0001
0200
0000
,
0010
0000
0310
0000
,
1000
0000
0010
1000
,
0010
0000
0100
0001
,
0100
0000
2002
0000
,
0000
0000
0000
0000
,
3003
0000
1000
0001
,
1000
0000
0001
0000
,
0100
0100
0001
1000
,
0001
0000
1000
0000
,
0100
0010
0100
0100
,
1000
0000
0001
1000
,
0010
0000
0100
0100
,
0001
0000
1000
0001
,
1000
0001
0000
2002
,
0000
0000
0000
0000
,
0000
3003
0000
0000
;

//--------------- dance-single - 8Chasey ----------------
#NOTES:
     dance-single:
     8Chasey:
     Medium:
     4:
     0,0,0,0,0:
0000
0000
0000
0000
,
0000
0000
0000
0000
,
0000
0000
0000
0000
,
0000
0000
0000
0000
,
0000
0000
0001
1000
,
0001
1000
0100
1000
,
0010
0000
1000
0001
,
1000
0100
0010
0001
,
0100
0001
0100
0000
0001
0000
1000
0000
,
0000
1000
0010
1000
,
0100
0000
1000
0001
,
0000
0001
0100
0001
,
0100
0000
0010
0100
,
0010
0000
1000
0100
,
0001
0100
2000
0000
,
3010
0100
0002
0000
,
1003
0100
1000
1000
,
0010
1000
0200
0000
,
1300
0000
0010
0100
,
1000
0100
0020
0000
,
0130
0000
1001
0000
,
0001
0000
1000
0001
1000
0000
0100
1000
,
0000
0001
1001
0000
,
0001
0000
0100
0001
,
0001
0000
1001
0000
,
1000
0000
0100
1000
,
1000
0000
0010
1000
,
0100
0100
1000
0010
,
0100
0000
0001
0000
0101
0000
0000
1100
,
0000
0000
0000
1001
0000
0000
0002
0000
,
2003
0000
3001
0000
0100
0001
0100
0000
,
0001
0010
0001
1000
,
0100
0000
1000
0000
0010
1000
0010
0000
,
0100
0010
0100
0000
0001
0000
0100
0000
,
1000
0100
0020
0000
,
1000
1030
0001
0010
,
0100
0100
0020
0000
,
0001
0031
1001
1000
,
0001
1000
1001
0000
,
0010
0100
2000
0000
,
3000
0100
1000
0000
,
0010
0100
0002
0000
,
0003
0000
1001
0000
,
0001
0000
0001
0000
0010
0000
0001
1000
,
0001
0010
0200
0000
,
1300
1000
0010
0100
,
0010
0100
0010
0000
1000
0000
0001
0000
,
0010
0001
0200
0000
,
0301
0010
0001
1000
,
0100
0010
0200
0000
,
1300
0001
0101
0001
,
1000
0010
1000
0000
0100
0000
1000
0000
,
0001
0100
0010
1000
,
0001
0100
0220
0000
,
0000
0000
0000
0000
,
0000
0330
0001
0100
,
0001
0000
1000
0000
,
0100
1100
1000
0100
,
1000
0000
0010
0000
,
0100
0110
0001
0100
,
0002
0000
1000
0000
,
1003
0010
1000
0100
,
2000
0000
0001
0000
,
3001
0010
0000
2002
,
0000
0000
0000
0000
,
0000
3003
0000
0000
;

//--------------- dance-single - 8Chasey ----------------
#NOTES:
     dance-single:
     8Chasey:
     Hard:
     7:
     0,0,0,0,0:
0000
0000
0000
0000
,
0000
0000
0000
0000
,
0000
0000
0000
0000
,
0000
0000
0000
0000
,
0000
0000
0000
0000
0001
0010
0100
2000
,
0000
0000
3001
0000
1000
0010
1000
0000
,
0001
1000
0010
0000
1000
0100
0010
0002
,
0000
0000
1003
0000
0010
1000
0001
0000
,
1000
0001
1000
0001
0200
0000
0301
0000
,
1000
0010
0100
0000
1000
0100
0001
0000
,
1000
0000
0001
1000
0200
0000
1300
0000
,
0010
1000
0001
0000
0100
0000
0001
0000
,
1000
0000
0000
0010
0000
0000
2000
0000
0001
0000
0000
0000
3001
0000
0000
0000
,
0010
0001
0010
0000
0001
0000
0100
0000
,
0010
1000
0100
0000
2000
0000
0001
0000
,
3001
0000
0010
0001
1000
0100
1000
0000
,
0001
1000
0001
0000
0100
0001
0100
0000
,
0010
0000
0000
1000
0000
0000
0020
0000
1000
0000
0000
0000
1000
0000
0000
0000
,
0130
0000
0000
0000
0001
0000
1000
0000
0100
0000
0000
1000
0000
0000
0100
0000
,
0010
0000
0000
0001
0000
0000
0020
0000
0001
0000
0000
0000
0100
0000
0000
0000
,
0031
1000
1001
0100
,
0001
0010
0001
1000
0200
0000
1000
1300
,
0000
0100
1000
0000
1001
0000
0001
0010
,
0100
0000
0010
0000
0100
1000
0001
0100
,
0002
0000
1003
0000
1001
0000
1000
0001
,
0010
0000
0001
0000
0100
0001
1000
0100
,
2000
0000
3010
0000
0110
0000
0100
0001
,
0010
0000
0100
0000
0010
0100
1000
0001
,
1000
0000
0000
0100
0000
0000
0010
0000
0002
0000
0000
0000
1003
0000
0020
0000
,
0000
1030
0001
0200
0000
0301
2000
0000
,
3010
1000
0001
0100
0001
0000
1100
0000
,
1000
0000
0001
0000
0010
0000
0000
0000
0100
0000
0000
1000
0000
0000
0001
0000
,
0100
0001
0010
0000
0001
0010
0100
0000
,
0010
0000
0000
0000
0001
0000
1000
0000
0010
0000
0000
0010
0000
0000
1000
0000
,
0001
0000
0000
0100
0000
0000
0001
0000
2000
0000
0000
0000
0010
0000
0000
0000
,
0100
0000
3010
0100
0002
0000
0010
0000
,
0100
0000
0103
0001
1000
0000
0010
0000
,
0100
0000
0010
0000
0100
0000
0020
0000
0000
0000
0130
0000
0001
0100
0000
0001
,
0100
0001
1000
0100
2000
0000
3010
0000
,
1000
0001
0000
0202
0000
0303
0001
0000
,
0010
1001
0200
0301
,
0010
0100
0000
2200
0000
3300
0110
0000
,
0010
0001
0010
0000
0002
0000
0103
0000
,
0001
0000
1000
0000
0010
0000
0000
0000
1000
0000
0000
0100
0000
0000
1000
0000
,
0002
0000
0103
0000
0010
1000
0001
1000
,
0001
0100
0010
0000
0200
0000
0301
0000
,
1000
0100
0010
0000
0120
0000
0130
0000
,
1000
0000
0010
2000
0001
0000
0100
0000
,
3001
0010
0001
0000
1002
0000
1003
0000
,
0010
0000
1000
0002
0100
0000
0010
0000
,
1003
0010
1000
0000
0110
0000
0200
0000
,
0301
0000
1000
0000
0001
0000
0000
0000
1000
0000
0000
0001
0000
0000
0100
0000
,
0001
0010
0100
0000
0010
0001
1000
0010
,
0200
0310
2002
0000
,
0000
0000
0000
0000
,
3003
0100
0100
0001
1000
0000
0100
0010
,
0100
0100
1000
0000
0010
1000
0001
0000
,
0100
0020
0200
0330
0001
0100
0001
2000
,
0010
0000
3010
0000
1000
0100
1000
0000
,
0001
0200
0020
0330
0110
0000
1000
0100
,
1000
0001
0010
0001
0000
0100
0001
0000
,
1000
0100
0001
0000
0100
0010
0001
1000
,
0010
0000
0100
0000
0010
0000
1000
0000
0000
0000
0001
0000
0100
0000
0000
0001
,
0100
0001
1000
0100
0020
0000
0002
0000
,
0000
0000
0000
0000
,
0000
0033
0000
0000
;

//--------------- dance-double - 8Chasey - 2025 chart ----------------
#NOTES:
     dance-double:
     8Chasey - 2025 chart:
     Easy:
     2:
     0,0,0,0,0:
00000000
00000000
00000000
00000000
,
00000000
00000000
00000000
00000000
,
00000000
00000000
00000000
00000000
,
00000000
00000000
00000000
00000000
,
00000000
00000000
00001000
00010000
,
00001000
00000000
00100000
00000000
,
00010000
00000000
10000000
00010000
,
10000000
00000000
01000000
00000000
,
00100000
00000000
20000000
00000000
,
30000000
00000000
00010000
01000000
,
00010000
01000000
00020000
00000000
,
00030000
00000000
00100000
00000000
,
01000000
00000000
20000000
00000000
,
30000000
00000000
00100000
00000000
,
01000000
00000000
00020000
00000000
,
00030000
00000000
00100000
00000000
,
00001000
00000000
00011000
00000000
,
00010000
00000000
00000100
00001000
,
00000100
00001000
00000001
00000000
,
00000010
00000000
00000001
00000100
,
00000001
00000000
00001001
00000000
,
00001000
00000000
00000100
00000000
,
00010000
00000000
00001000
00000000
,
00100000
00000000
00010000
10000000
,
00010000
00000000
10000000
00000000
,
00100000
00000000
01000000
00100000
,
01000000
00000000
00010000
00000000
,
00100000
00000000
00001000
00000000
,
00010000
00000000
00000200
00000000
,
00000000
00000300
00000010
00000100
,
00000010
00000100
00001000
00000000
,
00000001
00000000
00000100
00000001
,
00000100
00000000
00001000
00000000
,
00010000
00000000
00001000
00010000
,
00001000
00000000
00200000
00000000
,
00310000
00000000
10000000
00010000
,
10000000
00000000
00200000
00000000
,
01300000
00000000
20020000
00000000
,
30030000
00000000
10000000
00000000
,
00010000
00000000
00200000
00000000
,
00300000
00000000
00001000
00000000
,
00010000
00000000
00002000
00000000
,
00003000
00000000
00010000
00000000
,
00000100
00000000
00001000
00000001
,
00001000
00000000
00000001
00000000
,
00000010
00000000
00000001
00000100
,
00000001
00000100
00000002
00000000
,
00001000
00000000
00002000
00000000
,
00003003
00000000
00000200
00000000
,
00000010
00000000
00000020
00000000
,
00000330
00000000
00001000
00000000
,
00000100
00000000
00010000
00001000
,
00010000
00000000
00001000
00100000
,
00001000
00000000
00022000
00000000
,
00000000
00000000
00000000
00000000
,
00033000
00000000
00010000
00001000
,
00010000
00000000
00000100
00000000
,
00000010
00000010
00000001
00001000
,
00000001
00000000
00001000
00000000
,
00000100
00000100
00010000
00001000
,
00010000
00000000
00001000
00000000
,
01000000
00000000
00010000
10000000
,
00010000
00000000
10000000
00010000
,
10000000
00010000
00000000
20020000
,
00000000
00000000
00000000
00000000
,
00000000
30030000
00000000
00000000
;

//--------------- dance-double - 8Chasey - 2025 chart ----------------
#NOTES:
     dance-double:
     8Chasey - 2025 chart:
     Medium:
     4:
     0,0,0,0,0:
00000000
00000000
00000000
00000000
,
00000000
00000000
00000000
00000000
,
00000000
00000000
00000000
00000000
,
00000000
00000000
00000000
00000000
,
00000000
00000000
00010000
00100000
,
00010000
00100000
01000000
00010000
,
00001000
00000000
00010000
00000100
,
00000010
00000000
00000100
00010000
,
00001000
00010000
00001000
00000000
01000000
00000000
00010000
00000000
,
00000000
00010000
10000000
01000000
,
00010000
00001000
00100000
00010000
,
00000000
00010000
10000000
01000000
,
10000000
00010000
01000000
00001000
,
00000000
00001000
00010000
00000100
,
00010000
00000100
00000020
00000000
,
00000130
00001000
00000200
00000000
,
00010300
00000000
00001000
00100000
,
00001000
00100000
02000000
00000000
,
03000000
00000000
10000000
00100000
,
10000000
00010000
02000000
00000000
,
03100000
00000000
10010000
10000000
,
00010000
00000000
01000000
00100000
01000000
00000000
00001000
00010000
,
00000000
00000100
00000110
00000000
,
00000010
00000000
00000001
00000100
,
00000001
00001000
00001001
00000000
,
00000100
00000000
00010000
00001000
,
00100000
00010000
01000000
00010000
,
10000000
10000000
01000000
00010000
,
00001000
00000000
00000000
00000000
00011000
00000000
00000000
00000020
,
00000000
00000000
00000000
00000230
00000000
00000000
00000301
00000000
,
00001000
00000000
00000100
00000000
00010000
00001000
00010000
00000000
,
00001000
00100000
01000000
00010000
,
00001000
00000000
00000100
00000000
00000001
00000100
00000001
00000000
,
00001000
00000010
00001000
00000000
00000100
00000000
00010000
00000000
,
00001000
01000000
00020000
00100000
,
00000000
00130000
01000000
10000000
,
01000000
00010000
00002000
00000000
,
00013000
00000100
00000000
00000020
00000000
00000000
00000030
00000000
,
00000100
00001000
00000002
00000000
,
00001003
00000100
00020000
00000000
,
00031000
00100000
00010000
00000000
,
01000000
00010000
20000000
00000000
,
31000000
00010000
00011000
00000000
,
00100000
00001000
00010000
00000000
,
00000100
00001000
00000100
00000000
,
00000010
00000100
00001000
00000001
,
00000100
00000001
00000100
00000000
00000010
00000000
00001000
00000000
,
00000100
00001000
00000100
00000000
00020000
00000000
00000000
00000000
,
00031000
00000000
00100000
00001000
00100000
00000000
00010000
00000000
,
01000000
00010000
01000000
00000000
00200000
00000000
00000000
00000000
,
10300000
00010000
10010000
10000000
,
01000000
00000000
00010000
00000000
00001000
00000000
00010000
00000100
,
00010000
00000010
00010000
00001000
,
00100000
01000000
20020000
00000000
,
00000000
00000000
00000000
00000000
,
00000000
30030000
01000000
10000000
,
01000000
00000000
00010000
00000000
00001000
00010000
00001000
00000000
,
00000100
00000020
00001030
00000100
,
00001000
00000000
00000001
00000000
00000100
00000010
00000100
00000000
,
00001000
00020000
00031000
00100000
,
02000000
00000000
10000000
00100000
,
10000000
13000000
00010000
00100000
,
00002000
00000000
01000000
00013000
,
00000100
00000000
00000010
00000100
00000000
00000000
00002002
00000000
,
00000000
00000000
00000000
00000000
,
00000000
00003003
00000000
00000000
;

//--------------- dance-double - 8Chasey - 2025 chart ----------------
#NOTES:
     dance-double:
     8Chasey - 2025 chart:
     Hard:
     8:
     0,0,0,0,0:
00000000
00000000
00000000
00000000
,
00000000
00000000
00000000
00000000
,
00000000
00000000
00000000
00000000
,
00000000
00000000
00000000
00000000
,
00000000
00000000
00000000
00000000
00000001
00000100
00001000
00020000
,
00000000
00000000
00030100
00000000
00010000
00001000
00100000
00000000
,
00010000
10000000
00010000
00000000
10000000
01000000
00010000
00002000
,
00000000
00000000
00103000
00000000
00001000
00010000
00000010
00000100
,
00000001
00000000
00001000
00000001
00001000
00000000
00000100
00000000
00020000
00000000
00000000
00000000
00100000
00000000
00000000
00000000
,
00031000
00000000
01000000
00000000
00010000
00000000
00100000
00000000
01000000
00000000
00000000
10000000
01000000
00000000
10000000
00000000
,
00010000
00100000
00001000
00000000
00020000
00000000
00000100
00000000
,
00031000
00000000
00000100
00000000
00000001
00000000
00000000
00000000
00000010
00000000
00000000
00000001
00000010
00000000
00000001
00000000
,
00001000
00000000
00000000
00000100
00000000
00000000
00000200
00000000
00010000
00000000
00000000
00000000
00010300
00000000
00000000
00000000
,
00001000
00000000
00100000
00000000
00001000
00000000
01000000
00000000
00010000
00000000
00000000
10000000
00010000
00000000
10000000
00000000
,
01000000
00000000
00000000
00100000
01000000
00000000
00100000
00000000
00020000
00000000
00000000
00000000
10000000
00000000
00000000
00000000
,
10030000
00000000
01000000
00010000
00001000
00000000
00010000
00000100
,
00002000
00000000
00000000
00000000
00003010
00000000
00000100
00000001
00000100
00000000
00000000
00000001
00001000
00000000
00000001
00000000
,
00000010
00000000
00000000
00000100
00000000
00000000
00000020
00000000
00000001
00000000
00000000
00000000
00000001
00000000
00000000
00000000
,
00000130
00000000
00000000
00000000
00010000
00000000
00001000
00000000
00010000
00000000
00000000
00001000
00000000
00000000
00100000
00000000
,
00010000
00000000
00000000
10000000
00000000
00000000
02000000
00000000
00100000
00000000
00000000
00000000
10000000
00000000
00000000
00000000
,
03100000
00001000
00011000
00010000
,
00000100
00001000
00000010
00000100
00000200
00000000
00000301
00000001
,
00000010
00000000
00000001
00000000
00001000
00000100
00001000
00000000
00001001
00000000
00000000
00000000
00000001
00000000
00000100
00000000
,
00002000
00000000
00013000
00000000
00001000
00100000
00001000
01000000
,
00020000
00000000
10030000
00000000
10010000
00000000
10000000
01000000
,
00020000
00000000
00031000
00000000
00010000
00000100
00010000
00000010
,
00002000
00000000
00003001
00000000
00000011
00000000
00000100
00001000
,
00000100
00000000
00010000
00000000
00001000
00000000
00100000
00000000
00100000
00000000
00000000
00010000
00000000
00000000
10000000
00000000
,
01000000
00000000
00000000
10000000
00000000
00000000
01000000
00000000
00200000
00000000
00000000
00000000
00301000
00000000
00020000
00000000
,
00000000
00030100
00000010
00000200
00000000
00001300
00000020
00000000
,
00000130
00000001
00001000
00000100
00010000
00000000
00011000
00000000
,
00001000
00000000
00100000
00000000
01000000
00000000
00000000
00000000
10000000
00000000
00000000
01000000
00000000
00000000
00010000
00000000
,
00001000
00100000
00010000
00000000
00100000
00001000
00010000
00000200
,
00001000
00000000
00001000
00000000
00001300
00000000
00000010
00000000
00000100
00000000
00000000
00000001
00000100
00000000
00000010
00000000
,
00001000
00000000
00000000
00000100
00000000
00000000
00010000
00000000
00002000
00000000
00000000
00000000
00100000
00000000
00000000
00000000
,
00010000
00000000
00103000
00001000
00020000
00000000
00000010
00000000
,
00001000
00000000
00030100
00000010
00000002
00000000
00000103
00001000
,
00010000
00000000
00010000
00000000
00001000
00000000
00200000
00000000
00000000
00000000
01300000
00000000
10000000
01000000
00000000
10000000
,
01000000
00000000
00100000
01000000
00100000
00000000
00001000
00000000
00021000
00000000
00000000
00000000
00030100
00000000
00001000
00000000
,
00000010
00000100
00000001
00000202
00000000
00000303
00000100
00000010
,
00001000
00000100
00010000
00001000
00012000
00000000
01003000
00010000
,
00100000
01000000
10000000
22000000
00000000
33000000
01000000
00100000
,
00010000
00000000
00000000
00100000
00010000
00000000
10000000
00000000
02000000
00000000
00000000
00000000
03100000
00000000
01000000
00000000
,
10000000
00000000
00000000
10000000
00010000
00000000
01000000
00000000
00001000
00000000
00000000
00010000
00000000
00000000
00001000
00000000
,
00200000
00000000
01300000
00000000
00010000
00000100
00010000
00000000
,
00000100
00000000
00000010
00000000
00000001
00000000
00000100
00000000
00000020
00000000
00000000
00000000
00001030
00000000
00000000
00000100
,
00010000
00001000
00100000
00010000
10020000
00000000
01030000
00100000
,
10000000
01000000
00100000
00020000
01000000
00000000
10030000
01000000
,
00010000
00001000
00100000
00001000
00020000
00000000
00030010
00000100
,
00000001
00000010
00000100
00002000
00000100
00000000
00003002
00000000
,
00000013
00000100
00000010
00000000
00000100
00000000
00010000
00001000
,
00100000
00000000
00000000
00000000
00020000
00000000
00000000
00000000
01030000
00000000
00000000
00010000
00100000
00000000
00010000
00000000
,
10000000
10000000
01000000
00000000
10000000
01000000
00100000
00010000
,
01000000
00000000
00001000
00000000
00010000
00001000
00010000
00000000
00000200
00000000
00000000
00000000
00000020
00000000
00000000
00000030
,
00000000
00000000
00002000
00000000
00000000
00003000
00000000
00000000
00000002
00000000
00000000
00000003
00000000
00000000
00020300
00000000
,
00000000
00031000
00001000
00100000
00010000
10000000
01000000
00100000
,
00010000
00010000
10000000
00000000
00100000
00000000
01000000
00000000
,
00001000
00010000
00022000
00033000
00010000
00000100
00001000
00000010
,
00000100
00000100
00000001
00000000
00001000
00000100
00000010
00000000
,
00000100
00010000
00022000
00033000
00001000
00100000
00010000
02000000
,
00100000
03100000
10000000
01000000
,
00010000
00001000
00010000
00000000
00000100
00010000
00000100
00000020
,
00000001
00000000
00000000
00000000
00000031
00000000
00000000
00000000
00000100
00000000
00000000
00000000
00000010
00000000
00000000
00001000
,
00000010
00000100
00001000
00100000
00020000
00000000
20000000
00000000
,
00000000
00000000
00000000
00000000
,
00000000
30030000
00000000
00000000
;
