#TITLE:HAPPY BIRTHDAY!!;
#SUBTITLE:(With A Million Kisses);
#ARTIST:ツッチーニときんぐ;
#TITLETRANSLIT:;
#SUBTITLETRANSLIT:;
#ARTISTTRANSLIT:Tuccini & King;
#GENRE:Neat;
#CREDIT:8Chasey;
#MUSIC:HAPPY BIRTHDAY!! (With A Million Kisses).ogg;
#BANNER:HAPPY BIRTHDAY!! (With A Million Kisses)-bn.png;
#BACKGROUND:HAPPY BIRTHDAY!! (With A Million Kisses)-bg.png;
#CDTITLE:;
#SAMPLESTART:70.950;
#SAMPLELENGTH:12.000;
#SELECTABLE:YES;
#OFFSET:-0.767;
#BPMS:0.000=147.000;
#STOPS:;
#BGCHANGES:;
#FGCHANGES:;

//--------------- dance-single - 8Chasey ----------------
#NOTES:
     dance-single:
     8Chasey:
     Beginner:
     1:
     0,0,0,0,0:
0000
0000
0000
0000
,
0000
0000
0000
0000
,
0000
0000
0000
0000
,
0000
0000
0000
0000
,
0000
0001
0000
0000
,
0000
0000
1000
1000
,
0000
0000
0010
0000
,
0100
0000
0010
0000
,
0100
0000
0000
0000
,
0000
0000
0000
0000
,
0001
0000
1000
0000
,
0001
0000
0000
0000
,
1000
0000
1000
0000
,
1000
0000
0000
0000
,
0010
0000
0000
0000
,
0100
0000
0000
0000
,
1000
0000
0001
0000
,
1000
0000
0000
0000
,
0001
0000
0001
0000
,
0001
0000
0000
0000
,
0100
0000
0000
0000
,
0010
0000
0000
0000
,
1000
0000
0000
1000
,
0000
0000
0000
0000
,
0001
0000
0000
0001
,
0000
0000
0000
0000
,
0000
0000
0000
0000
,
1000
0000
0010
0000
,
1000
0000
0000
0001
,
0001
0000
1000
0000
,
0001
0000
0000
0000
,
0100
0000
0000
0000
,
0010
0000
0000
0000
,
1000
0000
0001
0000
,
1000
0000
0001
0000
,
0100
0000
0000
0000
,
0001
0000
0000
1000
,
1000
0000
0001
0000
,
1000
0000
0000
0000
,
0010
0000
0000
0000
,
0100
0000
0000
0000
,
0001
0000
1000
0000
,
0001
0000
1000
0000
,
1001
1001
0000
0000
,
0001
0000
0001
0000
,
1000
0000
0001
0000
,
1000
1000
1000
0000
,
0010
0000
1000
0000
,
0010
0000
1000
0000
,
0100
0000
0000
0000
,
0001
0000
1000
0000
,
0010
0010
0010
0000
,
0100
0100
0100
0000
,
0001
0000
1000
0000
,
0001
0001
0001
0000
,
0100
0000
0001
0000
,
0100
0000
0001
0000
,
0010
0000
0000
0000
;

//--------------- dance-single - 8Chasey ----------------
#NOTES:
     dance-single:
     8Chasey:
     Easy:
     3:
     0,0,0,0,0:
0000
0000
0000
0000
,
0000
0000
0000
0000
,
0001
0000
0000
0000
1000
0000
0000
0001
,
0000
1000
0000
0001
0000
0000
0100
0000
,
0010
0200
0000
0310
,
0100
0100
0001
1000
,
0200
0000
1300
0000
,
0001
0000
1000
0000
0001
0000
0000
0020
,
0000
0000
0100
0000
,
0100
0000
0130
0010
,
1000
0000
1000
0000
,
0001
0000
0001
0000
,
0200
0000
0301
0000
,
1000
1000
0010
0000
,
1000
0000
0001
0000
,
0010
0001
0010
0001
,
0020
0000
0000
0030
,
0010
0000
0100
0000
,
0200
0000
1300
0000
,
0010
1000
0010
0000
,
0100
0000
0100
0000
,
1000
0100
1000
0100
,
1000
0000
0000
0010
0000
0000
0020
0000
,
0000
0000
1030
0000
,
0001
0000
0000
0010
0000
0000
0200
0000
,
0000
0000
0000
0300
,
0010
0100
0010
0000
,
0002
0000
1003
0000
,
0001
0000
1000
1000
,
1000
0000
0010
0000
,
1000
0001
1000
0000
,
0200
0000
1300
0000
,
0020
0000
1030
0000
,
0001
0000
0001
0000
,
1000
0001
0010
0100
,
2000
0000
3001
0000
,
1000
0000
0001
0001
,
0001
0000
0010
0000
,
0001
1000
0001
0000
,
0200
0000
0301
0000
,
0020
0000
0031
0000
,
1000
0000
1000
0000
,
0001
1000
0001
1000
,
0001
2002
0000
3003
,
0001
0000
0001
0000
,
0010
0000
0001
0000
,
1000
0001
1000
0001
,
1000
0200
0000
0300
,
0010
0001
0010
0001
,
0020
0000
0000
0030
,
0001
1000
0001
0000
,
1000
0000
0010
0000
,
1000
0010
1000
0000
,
0001
0000
0100
0000
,
0001
0100
0001
0000
,
1000
0000
0001
0000
,
0001
0000
0000
0000
1000
0000
0000
2002
,
0000
0000
0000
0000
,
0000
0000
0000
0000
0000
0000
0000
3003
;

//--------------- dance-single - 8Chasey ----------------
#NOTES:
     dance-single:
     8Chasey:
     Medium:
     5:
     0,0,0,0,0:
0000
0000
0000
0000
,
0000
0000
0000
0000
,
0001
0000
1000
0010
0000
0010
0000
1000
,
0000
0001
0100
0001
0000
1000
0001
0000
,
2000
0100
0000
3001
,
0010
0000
0001
0000
1000
0001
1000
0002
,
0000
0100
0000
1003
,
0010
0000
1000
0000
0010
0100
0010
0200
,
0000
0000
0302
0000
,
2003
0000
3010
0100
,
0001
0000
0000
0100
0000
0000
0001
0000
,
0010
0001
1000
0001
,
1000
0100
0010
0001
,
0010
0000
0100
0010
0000
0000
0001
0000
,
0200
0000
0301
1000
,
0020
0000
1030
0010
,
0200
0000
0310
0000
,
0100
0000
0001
0000
0100
0000
0000
0001
,
0010
0001
1000
0010
,
0100
0000
0100
0000
0001
1000
0001
0000
,
2000
0000
0000
0100
0000
0000
3100
0000
,
1000
0000
0001
1000
0000
0001
1000
0000
,
0010
0000
0000
0020
0000
0000
2000
0000
,
0030
0001
0000
3010
,
0100
0000
0000
0200
0000
0000
0002
0000
,
0000
0000
0303
0101
,
1000
0001
1000
0000
0001
0000
1001
0000
,
0020
0001
0100
0031
,
1000
0010
1000
0000
0100
0000
1000
0000
,
2200
3300
1000
0001
,
0100
0000
0001
1000
0000
0010
1000
0010
,
0000
0000
1000
0000
0100
0010
0001
0010
,
0000
0000
0001
0000
0100
0010
0100
0010
,
0000
0110
0000
0100
0000
0100
0000
0001
,
0000
1000
0100
0001
0000
0100
0010
0000
,
0002
0000
0100
0000
1003
0000
0010
1000
,
0100
0000
2000
0000
3001
1000
0001
0000
,
0202
0000
0303
0000
0001
0010
0001
0000
,
0100
0000
0010
0000
1000
0010
1000
0100
,
0000
0000
1000
0000
0001
0010
0001
0100
,
0000
0000
0001
1000
0000
0100
1000
0100
,
0000
1000
0010
0100
,
0002
1000
0010
1003
,
0100
0100
0002
0000
0013
0000
0001
1000
,
0000
1000
0000
0002
0000
0000
0103
0001
,
0100
0000
0010
1000
0000
0100
1000
0010
,
0000
1000
0001
0200
0000
0001
0301
0000
,
0010
0000
1001
0000
0010
1000
0000
0001
,
0000
0100
0001
1000
0000
0100
0000
0200
,
0000
0000
0310
0001
0000
0101
0000
1000
,
0000
0010
1000
0001
0000
0100
0001
0000
,
1000
0010
1000
0000
0010
0000
1000
0001
,
0000
0100
0001
1000
0000
0100
0010
0000
,
0001
0010
0001
0000
1000
0000
0010
1000
,
0000
0100
1000
0010
0000
0100
0001
0000
,
1000
0100
0001
1000
,
0010
0000
0001
0000
1000
0001
0000
2002
,
0000
0000
0000
0000
,
0000
0000
0000
0000
0000
0000
0000
3003
;

//--------------- dance-single - 8Chasey ----------------
#NOTES:
     dance-single:
     8Chasey:
     Hard:
     8:
     0,0,0,0,0:
0000
0000
0000
0000
,
0000
0000
0000
0000
,
0100
0001
1000
0001
1000
1000
0001
0010
,
0000
0001
1000
0100
0000
0010
0100
0010
,
0002
0000
1000
0000
0000
0100
0103
0010
,
0000
1000
0100
1000
0010
0001
1000
0200
,
2000
0000
3300
1100
0000
0011
0000
1001
,
0000
0100
0001
1000
0000
0010
1000
0200
,
0000
0000
0000
0300
0020
0000
0000
0030
,
0002
0000
1003
1001
,
0020
0000
0000
1030
0000
0001
0100
0001
,
1000
0100
2000
0000
0010
0000
3001
0100
,
0001
0010
0002
0000
1003
0010
2000
0000
,
3100
1000
0010
0100
0000
0001
1000
0000
,
0101
0000
1000
0200
0000
0310
0100
0010
,
0001
0000
1000
0010
0200
0000
0310
0000
,
2002
0000
3003
1000
0100
1000
0001
0000
,
0010
0001
0200
0000
0310
1000
0001
0000
,
2000
0000
3100
1000
0001
0010
0001
0100
,
0010
1000
0010
1000
0000
0100
1000
0002
,
0100
0000
0000
1003
0000
0010
1000
0001
,
0100
0000
0001
1000
0000
1001
0000
0100
,
0001
0010
0001
1000
0000
0010
0200
0000
,
0000
0000
0010
0000
0310
0000
1000
0000
0001
0000
0000
0100
0001
0000
1000
0100
,
1000
0010
0100
0001
0000
1000
2002
0000
,
0000
0000
0000
3003
0002
0000
0100
0003
,
0100
0000
0000
0001
1000
0000
0010
1000
0010
0000
1000
0001
1000
0000
0001
0000
,
0100
0001
1000
0100
0010
0000
0100
0000
,
1000
0010
0100
0001
1000
0000
1010
0000
,
0012
0000
0103
0001
0000
1000
0100
1000
,
0010
0010
1000
0020
0000
1030
0001
0100
,
0000
0001
0100
0001
0000
1000
0010
1000
,
0200
0000
0310
0001
1000
0010
0100
0002
,
0000
0013
0001
2000
0000
3100
1000
0020
,
0000
0000
0130
0000
0000
0000
0110
0000
0000
0000
1001
0000
1000
0010
1000
0000
,
0002
0000
0010
0010
1003
0100
1000
0010
,
1000
0000
1100
0000
0010
0001
1000
0000
,
0200
0000
1300
0001
0100
0001
0000
0020
,
0000
0031
1000
0200
0000
1300
0100
0020
,
0000
0130
0010
0000
0001
0100
0001
2000
,
0000
3100
1000
0010
0000
0100
0010
0200
,
0000
0001
0301
0010
0001
1000
0100
0000
,
2000
0000
3010
0200
0000
0301
0010
0100
,
1000
0001
1000
0001
1000
0000
0000
0000
0001
0000
0010
0000
0001
0000
1000
0000
,
0000
1001
0000
0100
0200
0000
0301
1000
,
0100
0000
1000
0010
0000
1000
0001
0010
,
0000
0011
0000
1100
0000
1000
0100
2000
,
0000
0000
3001
1000
0010
1000
0000
0002
,
0000
0100
0000
1003
0000
0010
0100
0020
,
0000
0100
0130
0001
0000
1000
0100
0010
,
0000
0100
0100
0010
0000
0100
1000
0001
,
1000
0100
0010
0100
1000
0001
0100
0002
,
0000
0010
0000
1003
0010
0100
0001
0100
,
0002
1000
0000
1003
0010
1000
0100
2000
,
0000
0001
0000
3001
0010
0100
1000
0100
,
0010
0001
1000
0001
0100
0010
0010
2000
,
0000
0100
0000
3001
0100
0010
1000
2002
,
0000
0000
0000
0000
,
0000
0000
0000
0000
0000
0000
0000
3003
;

//--------------- dance-single - 8Chasey - 2025 chart ----------------
#NOTES:
     dance-single:
     8Chasey - 2025 chart:
     Challenge:
     9:
     0,0,0,0,0:
0000
0000
0000
0000
,
0000
0000
0000
0000
,
0100
1000
0001
1001
0100
0100
0001
0010
,
0000
0000
1100
0000
1000
0000
0101
0000
0000
0000
1000
0010
1000
0000
0001
0000
,
0100
0010
2001
0000
0100
0000
0100
3001
,
0010
0001
0100
0001
1001
1000
1000
0002
,
0020
0000
0030
0010
0000
1003
0100
0020
,
0000
0031
0010
0100
0000
1100
0010
0202
,
0000
0000
0000
0000
0000
0000
0000
0000
0000
0000
0000
0000
0000
0000
0000
0000
0000
0000
0300
0000
0000
0000
0000
0000
2000
0000
0000
0000
0000
0000
0003
0000
0000
0000
0000
0000
0000
0000
0000
3000
0000
0000
0000
0000
0010
0000
1000
0000
,
0020
0000
0000
0000
0130
0010
1001
0000
,
0110
0100
0001
0020
0000
0001
0031
0100
,
0010
0000
1000
0000
0002
0000
0000
0000
0100
0000
1000
0000
1003
0000
0010
1000
,
0010
0000
0100
0000
0001
0000
0010
0001
0010
0000
0100
0000
1000
0000
0010
0000
,
1000
0100
0010
0011
0000
1010
1000
0001
,
0020
0000
0100
0130
0000
1000
0010
0100
,
0001
0000
0100
0000
0110
0000
0100
0000
0010
0000
0010
0000
1000
0000
0001
0010
,
0200
1000
1300
0010
0100
0001
0101
0000
,
1000
0010
2000
0000
0100
0100
3001
0010
,
0001
0100
1000
0100
0010
1000
0100
0010
,
0001
1000
0001
1001
0000
0001
0010
0010
,
0200
0000
0000
0000
1000
0000
1300
0000
0000
0000
0010
1000
0010
0000
0100
0000
,
0001
0010
0001
1000
0010
0110
0100
0001
,
1100
1000
0001
0101
0100
0010
0120
0000
,
1030
0000
0001
0000
0100
0000
0001
0100
0001
0000
0000
0001
1000
0100
1000
0000
,
1010
0010
0100
0001
0000
1000
2002
0000
,
3000
0000
0020
0003
0230
0000
0020
0300
,
0031
0000
1000
0100
1000
0000
0001
0100
0001
0010
0001
1000
0010
0100
0010
1000
,
0001
1000
0100
0001
0100
0020
0001
0031
,
0010
0001
1000
0100
0120
0000
0031
0000
,
2001
0000
3100
0010
0100
1000
0001
0010
,
0010
0001
0100
0002
0000
1003
0010
1020
,
0000
0130
0001
0010
0001
1000
0100
0020
,
0001
0000
0130
1000
0000
0010
1000
0102
,
0000
0013
0001
1100
0000
1001
0000
0110
,
0000
0000
0101
0000
1000
0000
0100
0000
0010
0000
0001
0000
0100
0001
0100
0000
,
0120
0000
0000
0000
1030
0000
0100
0010
0002
0000
0100
0000
0103
0000
0010
0000
,
1000
0100
0001
0200
1000
0000
0310
0001
,
2001
0000
3100
1000
0010
0100
0001
0020
,
0001
0031
0010
0001
1000
0010
0100
0110
,
0000
0000
0010
0000
1000
0000
0010
0100
0002
0000
0100
0000
0103
0000
0020
0000
,
0000
1030
0100
0110
0100
1000
0001
0020
,
0000
0001
0031
2000
0000
0100
3100
0010
,
0110
0000
1000
0100
0001
0100
0010
0001
,
0010
0001
0010
0001
2000
0000
0100
0000
3100
0000
1000
0000
0001
0000
0201
0000
,
0000
0310
1000
0002
0010
0000
0103
0001
,
2001
0000
3010
0200
0000
0301
0010
0002
,
0000
1003
0100
0020
0000
0100
0130
0010
,
0001
0000
1001
1000
0010
1000
0100
0020
,
0000
0031
0010
0001
1000
0010
0100
0002
,
1000
0000
0000
0000
0013
0000
0001
0000
0010
0100
0010
0000
0100
0000
2000
0000
,
0000
3010
0100
0002
0000
1000
1003
0100
,
0010
0001
1001
1000
0001
0100
0001
0020
,
0000
0100
0000
0031
1000
0010
0010
1000
,
0100
1000
0001
0020
0000
0130
0010
0002
,
0000
0103
0010
2000
0000
3010
0010
0100
,
0001
1000
1001
0001
0100
0100
0010
1000
,
0000
0100
1000
0001
0010
0011
1010
0202
,
0000
0000
0000
0000
,
0000
0000
0000
0000
0000
0000
0000
0303
;

//--------------- dance-double - 8Chasey - 2025 chart ----------------
#NOTES:
     dance-double:
     8Chasey - 2025 chart:
     Easy:
     3:
     0,0,0,0,0:
00000000
00000000
00000000
00000000
,
00000000
00000000
00000000
00000000
,
00000000
00000000
00000000
00000000
,
00000000
00000000
00000000
00000000
00000000
00010000
00001000
00000000
,
00010000
00000100
00000000
00000000
,
00001000
00000001
00000100
00000010
,
00010000
00000000
00001000
00000000
,
00100000
01000000
00100000
00000000
,
02000000
00000000
00000000
00000000
,
03000000
00000000
00000000
00000000
,
10000000
00000000
00100000
00000000
,
01000000
00000000
00010000
00000000
,
00100000
00000000
00001000
00000000
,
00010000
00000000
00000100
00000000
,
00000010
00000000
00000010
00000000
,
00000001
00001000
00000001
00001000
,
00000001
00000000
00000100
00000000
,
00000010
00000000
00001000
00000000
,
00000100
00000000
00010000
00000000
,
00001000
00000000
00100000
00000000
,
01000000
00000000
01000000
00000000
,
10000000
00000000
00010000
00000000
,
00200000
00000000
00000000
00000000
,
00310000
00000000
01000000
00000000
,
00002000
00000000
00000000
00000000
,
00003000
00010000
00000000
00010000
,
00000000
00000100
00001000
00000100
,
00001000
00000000
00000010
00000000
,
00001000
00000000
00000001
00000000
,
00000100
00000000
00000010
00000000
,
00001000
00000100
00001000
00000000
,
00000100
00000000
00010000
00000000
,
00001000
00000000
00001000
00000000
,
01000000
00000000
00100000
00000000
,
01000000
00000000
00100000
00000000
,
10000000
00000000
00010000
00000000
,
10000000
00000000
00010000
00000000
,
01000000
00000000
00100000
00000000
,
10000000
00000000
00010000
00000000
,
00100000
00000000
00001000
00000000
,
00010000
00000000
00000100
00000000
,
00001000
00000001
00001000
00000000
,
00000001
00000000
00000100
00000000
,
00000010
00000100
00000000
00000000
,
00000001
00000000
00001000
00000000
,
00000100
00000000
00001000
00000000
,
00000100
00000000
00001000
00000000
,
00000000
00000100
00010000
00000000
,
00001000
00000000
00010000
00000000
,
00001000
00000000
00100000
00000000
,
00010000
00000000
10000000
00000000
,
00100000
10000000
00100000
00000000
,
10000000
00000000
00100000
00000000
,
01000000
00010000
01000000
00000000
,
00010000
00000000
00100000
00000000
,
00001000
00000000
00010000
00000000
,
00001000
00000000
00010000
00001000
,
00010000
00000000
00000000
00000000
;

//--------------- dance-double - 8Chasey - 2025 chart ----------------
#NOTES:
     dance-double:
     8Chasey - 2025 chart:
     Medium:
     5:
     0,0,0,0,0:
00000000
00000000
00000000
00000000
,
00000000
00000000
00000000
00000000
,
00001000
00000000
00000000
00100000
00000000
00010000
00000000
00100000
,
00000000
01000000
00000000
10000000
00000000
00010000
10000000
00000000
,
00200000
01000000
00000000
01300000
,
00010000
00000000
10000000
00000000
01000000
00100000
01000000
00100000
,
00000000
00000000
00001000
00010000
00000000
00000100
00000000
00001000
,
00000000
00000001
00000000
00000100
00000000
00000001
00001000
00000002
,
00000000
00000003
00000020
00000030
,
00000200
00000300
00020000
00032000
,
00013000
00000000
00000000
00001000
00000000
00010000
00001000
00000000
,
00100000
00010000
10000000
00000000
,
01000000
00000000
10000000
00000000
00100000
10000000
00100000
00000000
,
01000000
00000000
00010000
00100000
00000000
00001000
00010000
00000000
,
00000200
00000000
00000000
00001300
00000000
00000100
00001000
00000000
,
00000010
00000100
00000001
00000000
00000100
00000000
00001000
00000000
,
00011000
00000000
00000000
00010000
00000000
00001000
00100000
00000000
,
00010000
01000000
00010000
00000000
10000000
00100000
10000000
00000000
,
01000000
00000000
00100000
00000000
00001000
00010000
00001000
00000000
,
00000100
00000000
00000001
00001000
00000000
00000010
00001000
00000000
,
00000002
00000000
00000000
00000100
00000000
00000000
00000103
00000000
,
00000010
00001000
00000010
00000000
00000100
00000000
00001000
00000000
,
00020000
00000000
00000000
00001000
00000000
00000000
00000200
00000000
,
00030000
00001000
00010000
00010300
,
00002000
00000000
00000000
00010000
00000000
00000000
02000000
00000000
,
00003000
00010000
00000000
03010000
,
10000000
00100000
01000000
00001000
,
00011000
00000000
00000000
00000000
00010000
00000100
00010000
00000000
,
00000001
00001000
00000001
00000100
,
00000020
00000000
00001030
00000000
,
00000010
00000000
00000100
00000000
00000001
00000000
00000000
00001100
,
00000000
00000100
00010000
00001000
,
00011000
00000000
01000000
00010000
,
00100000
00010000
10000000
10000000
,
00010000
00000000
00010000
00000000
01000000
00100000
01000000
00000000
,
00020000
00100000
10030000
01000000
,
00010000
00001000
00010000
00000000
00000100
00000000
00000010
00000000
,
00000220
00000000
00000330
00000000
00000001
00000010
00000001
00000000
,
00001000
00000000
00000100
00000000
00000010
00000000
00000100
00020000
,
00000000
00001000
00031000
00100000
,
00010000
00100000
00010000
00000000
10000000
00000000
01000000
20000000
,
00000000
30100000
01000000
00010000
,
00100000
00000000
00001000
00000000
00010000
00001000
00010000
00000000
,
00000200
00000000
00000310
00000000
00000100
00000000
00000000
00001000
,
00000000
00000001
00000000
00001000
00000000
00000000
00000001
00000100
,
00000001
00001000
00000100
00000010
,
00000100
00000000
00010000
00000000
00001000
00010000
00002000
00000000
,
00003000
00100000
00010000
10000000
,
00100000
00000000
01000000
00000000
00100000
00000000
01000000
00200000
,
00000000
00000000
10000000
00000000
,
01300000
01000000
00010000
00100000
,
00001000
00010000
00001000
00000000
00010000
00000000
00000100
00000000
,
00001000
00000001
00000002
00000003
,
00000010
00000001
00000100
00000010
,
00001000
00000100
00001000
00000000
00000100
00000000
00010000
00001000
,
00010000
00001000
00100000
00010000
,
10000000
00000000
00100000
00000000
01000000
00100000
00000000
02000000
,
00000000
00000000
00000000
00000000
,
00000000
00000000
00000000
00000000
00000000
00000000
00000000
03000000
;

//--------------- dance-double - 8Chasey - 2025 chart ----------------
#NOTES:
     dance-double:
     8Chasey - 2025 chart:
     Hard:
     7:
     0,0,0,0,0:
00000000
00000000
00000000
00000000
,
00000000
00000000
00000000
00000000
,
00000010
00000100
00000010
00000000
00001000
00000000
00000100
00010000
,
00000000
00001000
00100000
00001000
00000000
00100000
01000000
00000000
,
00100000
00000000
20010000
00000000
00000000
01000000
00000000
30010000
,
00000000
00100000
00010000
00000000
00100000
01000000
00100000
00020000
,
00000000
00000000
01000000
01030000
00000000
00010000
00100000
01000000
,
00000000
10000000
00100000
01000000
00000000
00001000
00010000
00000200
,
00000000
00000000
00001000
00000000
,
00000001
00000000
00010300
00011000
,
00002000
00000000
00000000
00103000
00000000
00010000
01000000
00000000
,
00100000
10000000
00200000
00000000
01300000
00010000
02000000
00000000
,
03001000
00000000
00010000
00000000
00000100
00001000
00000100
00000000
,
00001000
00000000
00000010
00000100
00000000
00000001
00000100
00000001
,
00000200
00000000
00000000
00000010
00000000
00000000
00000310
00000000
,
00001000
00000100
00010000
00000000
00001000
00000000
00120000
00000000
,
02030000
00000000
00000000
03100000
00000000
01000000
00010000
00000000
,
10000000
01000000
10000000
00000000
01000000
00000000
00010000
00000000
,
00001000
00010000
00001000
00000000
00000100
00000010
00000100
00000000
,
00000001
00000100
00001000
00010000
00000000
00001000
00010000
00000000
,
00000200
00000000
00000000
00000310
00000000
00000100
00010000
00000000
,
00001000
00100000
00000000
00010000
00000000
10000000
00010000
00000000
,
10000000
00100000
00000000
01000000
00010000
00000000
00200000
00000000
,
00000000
00001000
01000000
01300000
,
00010000
00001000
00000000
00010000
00000100
00000000
00000020
00000000
,
00000000
00000100
00000000
00000100
,
00000000
00000100
00000130
00000000
00000010
00000100
00000010
00000000
,
00001001
00000000
00000001
00000000
00000010
00000001
00000100
00000000
,
00001000
00100000
00001000
01000000
00010000
00000000
10000000
00000000
,
10200000
00000000
00000000
01300000
00000000
00010000
00000000
00100000
,
00001000
00010000
00001000
00010000
00000000
00000100
00001000
00000020
,
00000000
00000000
00000100
00000000
00000130
00000000
00000001
00001000
,
00000200
00000000
00010300
00000000
00001000
00100000
00001000
00100000
,
00000000
00110000
00000000
00010000
00000000
10010000
00000000
10000000
,
00000000
10100000
00000000
00100000
00000000
01000000
00100000
01000000
,
00002000
00000000
00023000
00000000
00030100
00001000
00000010
00001000
,
00000000
00000001
00000010
00000001
00000100
00000000
00000010
00000000
,
00002002
00000000
00003003
00000000
00000001
00001000
00000100
00000000
,
00010000
00001000
00010000
00100000
01000000
00000000
00010000
00100000
,
00000000
00001000
00100000
00000000
00001000
00000000
00010000
00000100
,
00000000
00001000
00000010
00001000
00000000
00000001
00000100
00000010
,
00000000
00001000
00000100
00000000
00010000
00001000
00010000
00000000
,
00100000
00000000
01000000
00010000
00000000
20000000
01000000
00000000
,
30010000
10000000
10010000
00000000
00010000
00100000
00010000
02000000
,
00000000
00001000
00000000
03001000
00020000
00000000
00030100
00010000
,
00000100
00000000
00001000
00000010
00000000
00001000
00000001
00001000
,
00000000
00000001
00000100
00000010
00000000
00001000
00000100
00020000
,
00000000
00000000
00031000
00000000
00100000
00001000
00000000
01000000
,
00000000
00010000
00000000
10000000
00000000
00100000
01000000
02200000
,
00000000
03300000
00100000
01000000
00000000
00010000
00000000
10000000
,
00000000
01000000
00010000
00001000
00000000
00010000
00000100
00000000
,
00001000
00000010
00001000
00000000
00000010
00000100
00000001
00000200
,
00000000
00000001
00000000
00000310
00000000
00001000
00000100
00000000
,
00010000
00001000
00010000
00001000
00100000
00010000
10000000
02000000
,
00000000
13000000
01000000
00200000
00000000
00310000
00100000
00000000
,
01000000
00010000
00001000
00010000
00001000
00000000
00000100
00000010
,
00000000
00000100
00000001
00001000
00000000
00000001
00001000
00002002
,
00000000
00000000
00000000
00000000
,
00000000
00000000
00000000
00000000
00000000
00000000
00000000
00003003
;
