#TITLE:Greatest Genie;
#SUBTITLE:(CG5 Remixed Cover);
#ARTIST:CG5 feat. DAGames & Swiblet;
#TITLETRANSLIT:;
#SUBTITLETRANSLIT:;
#ARTISTTRANSLIT:;
#GENRE:;
#CREDIT:8Chasey 2026;
#MUSIC:Greatest Genie (CG5 Remixed Cover).ogg;
#BANNER:Greatest Genie (CG5 Remixed Cover)-bn.png;
#BACKGROUND:Greatest Genie (CG5 Remixed Cover)-bg.png;
#CDTITLE:cdtitle.png;
#SAMPLESTART:33.840;
#SAMPLELENGTH:15.000;
#SELECTABLE:YES;
#OFFSET:-0.033;
#BPMS:0.000=110.000;
#STOPS:51.500=1.091;
#BGCHANGES:0=Greatest Genie (CG5 Remixed Cover).avi=1.000=1=0=0=,
195.5=Greatest Genie (CG5 Remixed Cover)-bg.png=1.000=1=0=0=,;
#FGCHANGES:;

//--------------- dance-single - 8Chasey ----------------
#NOTES:
     dance-single:
     8Chasey:
     Beginner:
     1:
     0,0,0,0,0:
0000
0000
0000
0000
,
0000
0000
0000
0000
,
0001
0000
0000
0000
,
0001
0001
0001
0000
,
1000
0000
0000
0000
,
1000
1000
1000
0000
,
0001
0000
1000
0000
,
0001
0000
0000
0000
,
1000
0000
0001
0000
,
1000
0000
0000
0000
,
0010
0000
0010
0000
,
0100
0000
0100
0000
,
0010
0010
0010
0010
,
0000
0000
0010
0000
,
0010
0000
0010
0000
,
1000
1000
1000
0000
,
0001
0000
1000
0000
,
0001
0000
0001
0000
,
1000
0000
1000
0000
,
0001
0001
0001
0000
,
1000
0000
0001
0000
,
1000
0000
1000
0000
,
0001
0000
0001
0000
,
0000
0000
0000
0000
,
0001
0000
1000
0000
,
0010
0000
0000
0000
,
1000
0000
0001
0000
,
0100
0000
0000
0000
,
0001
0000
0000
0000
,
1000
0000
0000
0000
,
0001
0000
1000
0000
,
0010
0010
0010
0000
,
1000
1000
1000
0000
,
1000
0000
1000
0000
,
0010
0000
0100
0000
,
0100
0000
0010
0000
,
1000
1000
1000
0000
,
0001
0000
1000
0000
,
0010
0000
0010
0000
,
0100
0100
0100
0000
,
0001
0001
0001
0000
,
0001
0000
0001
0000
,
0100
0000
0010
0000
,
0010
0000
0100
0000
,
0001
0001
0001
0000
,
1000
0000
0001
0000
,
1000
0000
0001
0000
,
0100
0100
0100
0000
,
0000
0000
1001
1001
;

//--------------- dance-single - 8Chasey ----------------
#NOTES:
     dance-single:
     8Chasey:
     Easy:
     3:
     0,0,0,0,0:
0000
0000
0000
0000
,
0000
0000
0000
0000
,
0001
0100
0001
0000
,
1000
0100
1000
0000
,
0010
0000
0100
0000
,
0010
0100
0010
0000
,
1000
1000
0001
0000
,
0010
0001
0010
0000
,
0001
0001
1000
0000
,
0010
1000
0010
0000
,
0100
0000
0010
0000
,
0100
0001
0100
0000
,
0010
0100
0010
0100
,
0000
0000
1001
0000
,
1000
0100
0010
0001
,
1000
0010
0100
0100
,
0001
0010
0001
0000
,
0100
0010
0100
0000
,
0010
0010
0100
0000
,
0001
0010
0100
0100
,
1000
0010
1000
0000
,
0001
1000
0001
0000
,
1000
1000
0001
0000
,
0200
0300
0020
0030
,
0001
1000
0001
0000
,
0010
0100
1000
0001
,
0020
0030
0001
1000
,
0100
0100
0010
0000
,
0002
0000
1003
0000
,
2000
0000
3001
0000
,
0010
0000
0100
0000
,
1000
1000
0001
0001
,
1000
0100
0010
0010
,
0001
0010
0001
0000
,
1000
0010
1000
0000
,
0010
0010
0100
0000
,
0001
1000
0100
0100
,
1000
0001
1000
0000
,
0010
1000
0100
0000
,
0010
0001
0100
1001
,
0001
0100
0010
0010
,
1000
0010
1000
0000
,
0100
0010
0001
0000
,
0100
0100
0010
0000
,
1000
0001
0100
0100
,
0001
1000
0001
0000
,
0010
0000
0100
0000
,
1000
0001
1000
0001
,
2000
0000
3001
2002
,
0000
3003
0000
0000
;

//--------------- dance-single - 8Chasey ----------------
#NOTES:
     dance-single:
     8Chasey:
     Medium:
     5:
     0,0,0,0,0:
0000
0000
0000
0000
,
0000
0000
0000
0000
,
0001
0000
0010
0000
0001
0000
0100
0001
,
1000
0000
0010
0000
1000
0000
0100
1000
,
0010
0000
0100
0000
0001
0010
0001
0000
,
0010
0100
0010
0000
0100
0000
1000
0000
,
0001
0000
0100
0000
0001
0010
0000
0001
,
1000
0000
0100
0000
1000
0010
1000
0000
,
0010
0000
0100
0000
0010
0010
0010
0000
,
0100
0010
0100
0000
0220
0000
0330
0000
,
0010
0000
1000
0000
0100
0010
0000
0110
,
0000
0010
0001
0000
1000
0000
0001
0000
,
1000
0100
0010
0000
0001
0010
0200
0000
,
0310
0000
0100
0010
0001
0000
1000
0000
,
0001
0000
1000
0100
0010
0000
0100
0000
,
0010
0000
0001
0000
0100
0001
0100
0000
,
0010
0000
1000
0100
1000
0000
0001
0000
,
0100
0000
0001
0010
0001
0000
1000
0000
,
0010
1000
0010
0000
1000
0000
1100
0000
,
0100
0000
1000
0000
0010
1000
0010
0000
,
0100
0000
0001
0010
0001
0000
1000
0000
,
0100
1000
0100
0000
0110
0000
0000
0000
,
0010
0001
0010
0000
0100
0000
1100
0000
,
0200
0000
0020
0330
,
0001
0000
0100
0000
0001
1000
0000
0001
,
1000
0000
0100
1000
0100
0000
2000
0000
,
3002
0000
0103
0000
0010
0100
0000
0010
,
0100
0000
0001
0010
0001
0000
1000
0100
,
2000
0100
0000
3010
,
0002
0100
0000
0013
,
0100
0000
0010
0100
0010
0000
0100
0000
,
1100
0000
0011
0000
1000
0001
1000
0001
,
1000
0000
0010
0000
0100
0010
0100
0000
,
0001
0000
0010
0100
0010
0000
0011
0000
,
0001
0000
1000
0010
1000
0000
0100
0000
,
0010
0100
0010
0000
0001
0000
1001
0000
,
1000
0000
0010
0000
0100
0001
0010
0000
,
0001
0000
0100
0010
1000
0000
1010
0000
,
0010
0000
0100
0001
0100
0000
0001
0000
,
1000
0100
1000
0000
0010
0010
0100
0000
,
0001
0000
0100
0000
0010
0100
0010
0000
,
1000
0000
0100
0010
0100
0000
1100
0000
,
1000
0000
0010
0100
0010
0000
0100
0000
,
0001
0010
0001
0000
0100
0000
0101
0000
,
0001
0000
0100
0000
0010
1000
0100
0000
,
1000
0000
0010
0100
0001
0000
0101
0000
,
0100
0010
0100
0000
0010
0000
1000
0000
,
0100
0010
0100
0000
0010
0000
0011
0000
,
0020
0230
1300
2002
,
0000
3003
0000
0000
;

//--------------- dance-single - 8Chasey ----------------
#NOTES:
     dance-single:
     8Chasey:
     Hard:
     6:
     0,0,0,0,0:
0000
0000
0000
0000
,
0000
0000
0000
0000
,
0001
0000
0010
0001
0100
0000
0010
0010
,
1000
0000
0010
1000
0100
0000
0110
0000
,
0100
0000
1000
0010
0100
0000
0001
1000
,
0001
0010
0100
1000
0001
0000
1001
0000
,
1000
0100
1000
0000
0100
0010
0000
0010
,
0001
0100
0001
1000
0001
0000
1010
0000
,
1000
0100
1000
0010
0100
0100
0001
0000
,
1000
0001
0010
0100
0020
0000
0130
0000
,
1000
0100
0001
0100
0010
0010
0000
0110
,
0000
0100
1000
0010
0100
0000
1001
0000
,
0001
0010
0001
1000
0100
1000
0010
0200
,
0301
0000
1000
0100
0020
0000
0130
0000
,
0010
0001
0100
0010
2000
0001
3001
0000
,
1000
0000
0100
0000
0010
0000
0001
0000
0010
0000
0000
0010
0000
0000
0000
0000
,
0001
0010
0100
1000
0100
0000
0110
0000
,
0100
0000
1000
0000
0010
0000
1000
0000
0001
0000
0000
0001
0000
0000
1000
0000
,
0001
0100
1000
0100
0001
0010
0001
0000
,
0010
0000
0100
0000
1000
0000
0001
0000
1000
0000
0000
1000
0000
0000
0000
0000
,
0100
0010
0001
1000
0001
0000
1001
0000
,
1000
0010
0100
0001
0100
0000
0010
1000
,
0010
0000
0100
0001
0100
0000
0110
0000
,
0020
0000
0200
0330
,
0001
0010
0100
1000
0100
0100
0000
0010
,
0100
1000
0001
0100
0020
0000
1030
0100
,
0020
0000
0031
0100
0001
1000
0000
1000
,
0100
0010
0001
0100
0020
0100
0100
0130
,
0002
0000
0000
0100
0100
0000
1003
0010
,
2000
0000
0000
0100
0100
0000
3001
0010
,
0100
0000
1000
0001
1000
0000
0001
0000
,
0101
0000
1100
0000
0100
0010
2002
3003
,
0001
0000
0010
0000
0100
0000
1000
0000
0010
0000
0000
0010
0000
0000
0000
0000
,
1000
0010
0100
0001
0100
0000
0110
0000
,
0010
0000
1000
0000
0100
0000
0010
0000
0100
0000
0000
0100
0000
0000
1000
0000
,
0001
0010
1000
0010
0001
0100
0010
0000
,
0100
0000
0001
0000
0010
0000
0100
0000
1000
0000
0000
1000
0000
0000
0000
0000
,
0100
1000
0010
0100
0001
0000
0011
0000
,
0010
0100
1000
0000
1100
0000
0100
0010
,
0001
0100
0010
1000
0001
0001
1001
0000
,
1000
0000
0100
0000
0010
0000
0100
0000
0001
0000
0000
0100
0000
0000
0000
0000
,
0010
0001
0100
0010
1000
0000
1001
0000
,
0001
0000
0010
0000
1000
0000
0010
0000
0001
0000
0000
0001
0000
0000
1000
0000
,
0100
0001
0100
1000
0010
0100
0110
0000
,
0001
0000
0010
0000
0100
0000
0010
0000
1000
0000
0000
0010
0000
0000
0000
0000
,
0100
1000
0010
0100
0001
0000
1001
0000
,
1000
0100
1000
0000
0100
0010
0100
0000
,
0010
0001
0010
0001
0100
0010
0100
0000
,
0020
0100
0100
0130
0001
1000
2002
0000
,
0000
3003
0000
0000
;

//--------------- dance-single - 8Chasey ----------------
#NOTES:
     dance-single:
     8Chasey:
     Challenge:
     8:
     0,0,0,0,0:
0000
0000
0000
0000
,
0000
0000
0000
0000
,
0001
0000
0010
0000
0001
0000
0100
0000
0010
0000
0000
0010
0000
0100
0010
0000
,
1000
0100
1000
0010
0100
0000
0101
0000
,
0001
0000
0010
0000
1000
0000
0010
0000
0100
0000
0000
0100
0000
1000
0100
0000
,
1000
0010
0100
0001
0010
0100
0110
0000
,
0100
1000
0010
0100
0001
0010
0000
0010
,
0001
0000
0100
0000
0010
0000
1000
0000
1000
0000
0001
1000
0000
0001
1000
0000
,
0001
0000
0100
0000
0010
0000
1000
0100
1000
0000
0100
0000
0010
0000
0001
0000
,
0100
0000
0100
0000
0010
0100
0000
0000
0120
0000
0000
0000
1030
0000
0000
0000
,
0100
0000
0010
0000
0001
0000
1000
0001
1000
0000
0001
0000
0100
0000
0110
0000
,
0010
0000
1000
0100
1000
0000
0001
0000
0200
0000
0001
0000
0301
0000
0010
0001
,
0010
0000
0100
1000
0100
0000
1000
0010
1000
0000
0001
0100
0001
0000
0020
0130
,
0010
0001
1000
0100
0020
0001
0031
0000
,
0100
0001
0000
0100
0010
0000
1000
0000
0100
0000
0010
0000
0110
0000
0000
0000
,
0011
0000
0001
0000
1000
0000
0010
0000
1000
0000
0001
0100
0000
0001
0010
0100
,
1000
0000
0001
0000
0010
0000
0100
0000
0100
0000
1000
0010
1000
0000
0100
0000
,
0010
0000
0001
0000
0100
0000
0010
0000
1000
0000
1000
0100
0000
0100
0010
0001
,
0100
0000
0001
0000
0010
0000
0100
0000
1000
0000
0100
0010
0200
0000
1300
0000
,
1010
0000
1000
0000
0001
0000
0010
0000
0001
0000
1000
0010
0000
1000
0100
0010
,
0001
0000
1000
0000
0010
0000
0100
0000
0100
0000
0001
0010
0001
0000
1000
0000
,
0100
0000
0010
0000
0001
0000
0001
0000
0101
0000
0000
0100
0001
0000
0100
0000
,
0010
0000
1000
0000
0100
0000
0010
0000
0001
0000
1000
0100
1000
0000
0001
0000
,
0020
0000
0000
0000
0000
0000
0000
0000
0200
0000
0000
0330
2002
0000
3003
0000
,
0001
0000
0100
0000
0010
0000
1000
0010
1000
0000
0100
0000
0010
0000
0001
0010
,
0000
0010
0001
0000
0100
0000
0010
0000
1000
0000
0000
0001
0000
1000
0100
0000
,
0120
0000
0000
0000
0031
0000
0100
0010
0100
0000
0010
0000
1000
0000
0100
0000
,
0110
0000
0010
0000
0001
0000
0001
0000
1000
0000
0100
1000
0100
0000
1000
0000
,
0010
0000
0000
0100
0000
0001
0010
0000
0110
0000
0000
1100
0000
0000
1000
0000
,
0100
0010
0100
0000
0010
0000
0001
0000
2000
0000
0100
0000
3100
0000
0010
0000
,
0001
0000
0000
0100
0001
0000
0010
0000
0100
0000
0000
0110
0000
0000
0000
0000
,
2100
0000
3010
0000
0102
0000
0013
0000
0100
0010
0100
0010
0200
0000
1300
0000
,
1010
0000
0010
0000
0100
0000
0001
0000
0010
0000
0001
0010
0000
0001
0010
0100
,
1000
0000
0010
0100
0010
0000
0100
0000
0001
0000
0010
0000
0110
0000
0000
0000
,
0100
0000
1000
0000
0010
0000
0100
0000
0001
0000
0001
0010
0000
0010
0100
1000
,
0010
0000
1000
0000
0100
0000
0010
0000
0001
0000
0010
0100
0020
0000
0031
0000
,
0011
0000
0010
0000
0100
0000
1000
0000
0010
0000
1000
0010
0000
1000
0100
0010
,
0001
0000
0010
0100
0010
0000
0100
0000
1000
0000
0010
0000
0110
0000
0000
0000
,
0100
0000
0010
0000
1000
0000
0100
0000
1100
0000
0000
1000
0001
0000
0010
0000
,
0001
0000
0100
0000
0010
0000
1000
0000
0001
1000
0001
1000
0010
0000
0100
0000
,
0101
0000
0001
0000
1000
0000
0010
0000
1000
0000
0100
1000
0000
0100
0010
0001
,
0010
0000
0100
0000
1000
0100
1000
0000
1001
0000
0001
0000
0010
0000
0001
0000
,
0100
0000
0010
0000
1000
0000
0100
0000
0010
0000
0001
0010
0000
0001
0010
0100
,
0010
0000
0100
0000
1000
0000
0001
1000
0001
0000
0101
0000
2020
0000
3030
0000
,
1100
0000
1000
0000
0001
0000
0010
0000
0001
0000
0100
0001
0000
0100
0010
1000
,
0010
0000
0100
0000
0001
0100
0001
0000
1001
0000
1000
0000
0010
0000
1000
0000
,
0100
0010
0000
0100
0000
0010
0100
0000
1000
0001
0000
1000
0000
0001
1000
0000
,
0100
0000
0010
0000
0001
0000
1000
0100
1000
0000
0001
0000
0201
0000
0000
0000
,
0010
1000
0010
0301
0011
1100
2002
0000
,
0000
3003
0000
0000
;
