#TITLE:Google Translate Song Compilation;
#SUBTITLE:;
#ARTIST:Random Typek;
#TITLETRANSLIT:;
#SUBTITLETRANSLIT:;
#ARTISTTRANSLIT:;
#GENRE:;
#CREDIT:8Chasey 2025/Funny Mix 3;
#MUSIC:Google Translate Song Compilation.ogg;
#BANNER:Google Translate Song Compilation-bn.png;
#BACKGROUND:Google Translate Song Compilation-bg.png;
#CDTITLE:cdtitle.png;
#SAMPLESTART:60.53;
#SAMPLELENGTH:12;
#SELECTABLE:YES;
#OFFSET:-0.1;
#BPMS:0=191
,16=94
,32=170
,64=90
,78=94
,80=100
,94=95
,95.5=140
,110=128
,111=124
,123=84
,138=74
,139=80
,147=88
,163=84
,179=86
,185=144
,217=136
,230=120
,231=146
,247=123.5
;
#STOPS:111.500=0.484
,112.500=0.484
,113.500=0.484
,147.000=1.126
,179.000=0.480
;
#BGCHANGES:-0.125=Google Translate Song Compilation.avi=1.000=0=0=0=StretchNoLoop====,
264=Google Translate Song Compilation-bg.png=1.000=0=0=0=StretchNoLoop====,
99999.000=-nosongbg-=1.000=0=0=0=StretchNoLoop====
;
#FGCHANGES:;

//--------------- dance-single - BEGINNER ----------------
#NOTES:
     dance-single:
     BEGINNER:
     Beginner:
     3:
     0,0,0,0,0:
0000
0000
0000
0000
,
0000
0000
0000
0000
,
0000
0000
0000
0000
,
0000
0000
0000
0000
,
0001
0000
0001
0000
,
1000
0000
1000
0000
,
0010
0000
0100
0000
,
0010
0000
0100
0000
,
0001
0001
0001
0000
,
0001
0000
0100
0000
,
1000
1000
1000
0000
,
1000
0000
0100
0000
,
0010
0000
0010
0000
,
0100
0100
0000
0000
,
0010
0010
0010
0010
,
0010
0000
0100
0000
,
0001
0001
0001
0000
,
1000
1000
1000
0000
,
0001
0000
0000
0000
,
1000
0000
0000
0000
,
0001
0001
1000
1000
,
0001
0001
1000
1000
,
0010
0000
0000
0000
,
0110
0000
0000
0000
0000
0000
0000
0001
,
0000
0000
0000
0000
0000
0000
0000
1000
,
0000
0000
0000
0000
0000
0000
0000
0001
,
0000
0000
0000
0000
0000
0000
0000
1000
,
0000
0000
0000
0010
,
0010
0010
0010
0010
,
0000
0000
0100
0100
,
0000
0010
0000
1000
,
1000
1000
0000
0001
,
0001
0001
0000
1000
,
0000
0001
0000
0010
,
0000
0100
0000
0001
,
0001
0001
0001
1000
,
1000
1000
1000
0001
,
0001
0000
0001
0000
,
1000
0000
1000
0000
,
0010
0010
0000
0100
,
0100
0100
0000
0001
,
0000
0000
0001
0000
,
0000
0001
0000
1000
,
0000
0000
1000
0000
,
0000
1000
0000
0000
,
0100
0100
0100
0100
,
0100
0000
0000
0001
,
0000
0000
0000
0100
,
0000
0000
0000
1000
,
0000
0000
0000
0010
,
0010
0000
0000
1000
,
0000
0000
0010
0010
,
0010
0000
0100
0000
,
0100
0100
0000
0001
,
0000
1000
1000
1000
,
0000
0000
1000
1000
,
0000
0001
0001
0001
,
0000
0000
1001
1000
,
0000
0100
0000
1000
,
1000
1000
0000
0001
,
0000
0010
0000
0001
,
0001
0001
0000
1000
,
0000
1000
0000
0001
,
0000
0001
0000
1000
,
0000
0001
0000
0100
,
0000
1001
1001
0000
;

//--------------- dance-single - NOVICE ----------------
#NOTES:
     dance-single:
     NOVICE:
     Easy:
     5:
     0,0,0,0,0:
0000
0000
0000
0000
,
0000
0000
0000
0000
,
1000
0000
0000
0000
,
0001
0000
0000
0000
,
1000
0001
1000
0001
,
0100
0010
0100
0010
,
1000
0100
0010
0001
,
0001
0010
0100
1000
,
0010
0010
0100
0100
,
0001
0000
1000
0100
,
0010
0010
0100
0100
,
1000
0000
0001
0000
,
0100
0000
0001
0000
0100
0000
0000
0010
,
0000
1000
0010
0000
,
1000
0100
0010
0001
,
0100
0000
0010
0010
,
1000
0100
0001
0100
,
1000
0010
0001
0010
,
0100
0010
0000
1000
,
1001
0000
0000
0000
,
0001
0010
0001
1000
,
0010
0000
1000
0100
0000
0000
0100
0000
,
0100
0000
0010
0000
,
0100
0000
0010
0100
0000
0000
0000
1000
,
0000
0000
0000
0010
0000
0000
0000
0001
,
0000
0000
0000
0100
0000
0000
0000
0010
,
0000
0100
0000
0010
0000
0000
0000
1001
,
0000
1001
0000
1000
,
0100
0010
0001
1001
,
0000
0100
0010
0100
,
0000
0010
0010
1000
,
1000
0001
0001
0100
,
0010
1000
1000
0001
,
0001
0000
1000
0000
0001
0001
0000
1000
,
1000
0000
0100
0100
0000
0000
1000
0000
,
0001
0100
0010
1000
,
0001
0100
0010
1001
,
1000
0001
0001
1000
,
0001
0000
1000
0000
1000
0000
0001
0010
,
0001
0100
0000
0010
,
0100
0000
0000
0000
0110
0000
0000
0000
0000
0000
0000
0000
0010
0000
0000
0010
,
0000
0000
0010
0000
0000
0010
0000
0000
0010
0000
0000
0010
0000
0000
0010
0000
,
0000
0010
0000
0000
0010
0000
0000
0010
0000
0000
0010
0000
0100
0000
0000
0100
,
0000
0000
0100
0000
0000
0100
0000
0000
0100
0000
0000
0100
0000
0000
0100
0000
,
0000
0100
0000
0000
0100
0000
0000
0100
0000
0000
0100
0000
0001
0000
0000
0000
,
1000
0001
1001
0110
,
1001
0100
0001
0010
,
0000
0100
0000
1001
,
0000
1000
0010
1000
,
0000
0010
0000
0100
,
0110
0001
0010
0001
,
1000
0100
1000
1001
,
1001
0000
0001
0000
0000
0001
0000
0000
,
1000
0001
1000
1000
,
0010
0100
0001
0100
,
0000
0010
1000
0010
,
0000
1000
0001
1000
,
0000
0010
0110
0100
,
0001
0100
0000
0001
,
1000
0001
0000
1000
,
0100
0010
0000
0100
,
1000
0100
0000
1000
,
1000
0001
0001
1000
,
0001
1000
0001
0100
,
0100
0010
0010
0100
,
0010
0100
1001
0000
;

//--------------- dance-single - REAL ----------------
#NOTES:
     dance-single:
     REAL:
     Medium:
     6:
     0,0,0,0,0:
0000
0000
0000
0000
,
0000
0000
0000
0000
,
0000
0000
0001
0000
0001
0000
0000
1000
,
0000
1000
0000
0000
0010
0000
0000
0000
,
0100
0000
0001
0000
0100
0001
0100
0000
,
0010
0000
1000
0000
0010
1000
0010
0000
,
1000
0100
1000
0000
0001
0100
0001
0000
,
0100
0010
0100
0000
0010
0000
1001
0000
,
0100
0001
0100
0000
0001
1000
0001
0000
,
1000
0000
0010
1010
,
1000
0010
1000
0000
0001
0100
0001
0000
,
0010
0000
0100
0110
,
1000
0000
0000
0010
0000
0000
1000
0000
,
0001
0010
0100
0000
,
1000
0000
0100
0000
0010
0000
0001
0010
,
0001
0000
1000
1001
,
0010
0001
0010
0100
,
1000
0100
1000
0010
,
0100
0100
0001
0000
1000
0000
0010
1000
,
0100
0100
1000
0000
0000
0000
0001
0000
,
0100
0001
0100
0001
1000
0001
1000
0001
,
1000
0010
1000
0010
0000
0000
0010
0000
,
0110
0000
0000
0000
0100
0100
0000
0000
,
0010
0100
0010
0100
0000
0000
0010
1000
,
0100
0000
0000
1000
0000
1001
0000
0001
,
0010
0000
0001
1000
0000
0010
0000
0100
,
0010
0000
0010
0100
0000
0001
0000
1100
,
0000
0000
0101
0000
0000
0000
1000
0010
,
0100
0001
0010
0100
1000
0001
1001
0000
,
0001
0000
1000
0010
1000
0000
0010
0000
,
0000
0100
0001
0000
0100
0000
0010
1000
,
0001
0000
0100
0001
0100
0000
0001
1000
,
0001
1000
0000
0100
1000
0000
1000
0010
,
1000
0000
0001
0001
0001
1000
0000
0001
,
1000
0000
0010
0100
0010
0010
0100
0001
,
0100
1000
0100
0001
0100
1000
0010
0001
,
0010
1000
0010
0001
0010
1000
0100
0010
,
0100
0000
0001
0010
0001
0000
1000
0100
,
1000
0000
0001
1000
0001
0000
0100
0010
,
1000
0000
0101
0000
1000
0000
0100
1000
,
0100
0000
0000
0000
0010
0000
0001
0000
0100
0000
0000
0000
1000
0000
0000
1000
,
0000
0000
0010
0000
0000
0010
0000
0000
0100
0000
0000
0100
0000
0000
0001
0000
,
0000
0001
0000
0000
0010
0000
0000
0010
0000
0000
0100
0000
0010
0000
0000
0010
,
0000
0000
0100
0000
0000
0100
0000
0000
1000
0000
0000
1000
0000
0000
0001
0000
,
0000
0001
0000
0000
0100
0000
0000
0100
0000
0000
0010
0000
0100
0000
0000
0000
,
0001
0100
0010
0000
1100
0000
0011
0000
,
1001
0000
1000
0010
1000
0000
0001
0000
,
0000
0100
0000
0000
0100
0000
0110
0000
,
0000
0000
0010
0100
0010
0000
0100
0000
,
0000
0001
0000
0000
1000
0000
0100
0000
,
0010
0010
0100
1000
0100
0000
0010
0000
,
0001
0010
0001
0000
1000
0000
1001
0000
,
0110
0000
0000
0000
0100
0000
0000
0100
0000
0000
0100
0000
0000
0000
0000
0000
,
0001
0000
1000
0000
0010
0100
0010
0000
,
0110
0000
1000
0000
0100
0000
1000
1000
,
1000
0000
0100
0000
0001
0100
1000
0000
,
0100
0000
0010
0001
0010
0000
0001
0001
,
0001
0100
1001
1000
,
0010
0000
1000
0000
0100
1000
0100
0000
,
0010
0000
0001
0000
0100
0000
0001
0010
,
0001
0000
0100
0000
0001
0100
0001
0000
,
1000
0000
0100
1000
0100
0000
1000
0000
,
0010
0100
0101
0001
,
0010
0000
0100
0000
1100
0000
1000
0010
,
1000
0000
0001
0100
0001
0000
0100
0000
,
0010
0110
1001
0000
;

//--------------- dance-single - MASTER ----------------
#NOTES:
     dance-single:
     MASTER:
     Hard:
     9:
     0,0,0,0,0:
0000
0000
0000
0000
,
0000
0000
0000
0000
,
0001
0000
0010
0000
0100
0000
1000
0010
,
0000
1000
0000
1000
0010
0000
0000
0000
,
0100
0000
0001
0100
0001
0000
1000
0000
0010
0000
1000
0000
0001
0000
0010
0000
,
0100
0000
1000
0100
1000
0000
0010
0000
1000
0000
0001
0000
0100
0000
0100
0000
,
0001
0000
0010
0001
0010
0000
0100
0000
1000
0000
0010
0000
1000
0000
0001
0000
,
0100
0000
0010
1000
0010
0000
1000
0000
0100
0000
0010
0001
0010
0000
0100
1000
,
0100
0000
0000
1000
0100
0000
0000
1000
0001
0000
0000
0010
0001
0000
0100
0000
,
0010
0100
0010
0000
1010
0000
0101
0000
,
0010
0000
0000
0001
0010
0000
0000
0001
1000
0000
0000
0001
0010
0000
0100
0000
,
0010
0001
1000
0000
1001
0000
0110
0000
,
1001
0000
0001
0100
0000
0001
1000
0100
,
0000
0000
1000
0000
0010
0000
1000
0000
0001
0000
0100
0000
0010
1000
0010
0000
,
0100
0000
0001
0000
0100
0000
0000
0001
0010
0000
0000
0001
1000
0000
0100
0000
,
1000
0010
0100
0000
0101
0000
1010
0000
,
0100
1000
0010
0010
0100
0001
0010
0010
,
0001
0100
0001
0000
1000
0000
0010
0000
1000
0100
1000
0000
0001
0000
0010
0000
,
0100
0000
0100
0000
0010
0000
0000
0001
0000
0000
1000
0000
0001
0000
0100
0001
,
0100
0010
1000
0001
,
1000
1000
0010
0010
0100
0001
0100
0100
,
0001
0001
0010
0011
0000
1000
1100
0000
,
1001
0000
0000
0000
1000
0000
0000
0001
1000
0001
1000
0000
0010
0000
0100
0000
,
0001
0100
0001
0100
0001
0000
0101
0000
0000
0000
0000
0000
1010
0000
0010
0000
,
0100
0000
0001
0000
0010
0000
0001
1000
0001
0000
1000
0000
0010
0000
1000
0000
,
0000
0000
0100
0000
1000
0000
0010
0100
0010
0000
0100
0000
0100
0000
0001
0000
,
0010
0100
0100
1000
0001
0100
0100
0110
,
0010
0000
1001
0000
0000
0000
0001
0101
,
1000
1010
0100
1100
0010
0011
1001
0000
,
0100
0000
0001
0000
0100
0000
1000
0000
0100
0010
0000
0000
1001
0000
0000
0000
,
1000
0010
0100
0001
0010
0000
0100
1000
,
0100
0000
1000
0000
0100
0000
0001
0000
0100
0000
1000
0000
0010
0100
0000
0001
,
0000
1000
0001
0000
1000
0000
0101
0000
0001
0000
0100
0010
0100
0000
0010
0000
,
1000
0000
0100
0000
1100
0000
0011
0000
0100
0010
0000
1000
0000
0000
0010
0000
,
0100
0000
0000
0001
0000
0000
0100
0000
0000
0000
0000
0000
0001
0000
0000
0010
0000
0000
0100
0000
0000
0000
0000
0000
1000
0000
0000
0000
0000
0000
1001
0000
0000
0000
0000
0000
0001
0000
0000
0000
0100
0000
0000
0000
0001
0000
0000
0000
,
1000
0010
1000
0100
1000
0010
0100
0001
0010
0100
0100
1000
,
0100
0000
0100
0000
0010
0000
0001
0000
0010
0000
0100
0000
1000
0000
0001
0000
1000
0000
1001
0000
0000
0001
0000
0000
,
0100
0000
0001
0000
1000
0000
1000
0000
0010
0000
1000
0000
0100
0000
1000
0010
,
1000
0001
0001
0100
0001
0010
0110
0100
,
1000
0000
0010
0000
0010
0000
0000
0000
1000
0000
0000
0001
0100
0001
0100
0000
,
0001
0000
1000
0000
0010
0000
1000
0010
1000
0000
0001
0000
0010
0001
0010
0001
,
0000
0000
0100
0001
0100
0000
0010
0000
1000
0010
1000
0000
0100
0000
1000
0001
,
1000
0000
0010
1000
0010
0000
0100
0000
0001
0010
0001
0000
0010
0100
0010
0100
,
0000
0000
1000
0100
1000
0000
0010
0000
0010
0100
0010
0000
0100
0000
0001
0010
,
0001
0000
1000
0010
1000
0100
1000
0000
0010
0000
0100
0000
0010
0000
0000
0000
,
0010
0000
0100
0001
0010
0000
0100
1000
0010
0000
0100
0001
1000
0000
0100
1000
,
0001
0010
0001
0100
0001
1000
0010
0000
,
1000
0000
0100
0000
1000
0010
0000
0000
0101
0000
0000
0000
1000
0001
0000
0000
,
1000
1000
0010
1000
0001
0001
0100
0010
,
0010
0000
1000
0000
0100
0000
1000
0000
1000
0010
0000
0000
0110
0000
0000
0000
,
0001
0100
0001
0000
0010
0000
0001
0000
1000
0000
0100
0000
1000
0000
0000
0000
,
0010
1000
0001
0100
0001
0000
1100
1000
,
0101
0000
0001
0000
1000
0000
0000
1000
0000
0000
1000
0000
0000
0001
0000
0000
,
0001
0000
0010
0000
0001
0100
0000
0000
0010
0000
0010
0000
0110
0000
0000
0000
,
0100
0010
0100
0000
0001
0000
1000
0000
1000
0000
0010
0000
1000
0100
0000
1000
,
0000
0000
0100
0000
0010
0000
0001
0000
0100
0000
0100
0000
0010
1000
0000
0100
,
1000
0000
0001
0000
1000
0000
0001
0000
0001
0000
0010
0000
0001
0100
0000
0001
,
0000
0010
0100
1000
1001
0000
0001
0100
,
0001
0010
0100
0000
1000
0100
1000
0100
,
1000
0010
0100
0000
0010
0010
0100
0001
,
1000
0000
1001
0000
1000
1000
0001
0100
,
0010
0000
0110
0100
0001
0001
1000
1000
,
0010
0010
0100
0100
0101
0000
0001
0001
,
0010
0010
0100
0100
1100
0000
0010
1000
,
0010
0000
0100
0001
0100
0000
0010
1000
,
0001
0010
0100
0010
1001
1001
0000
0000
;

//--------------- dance-double - DOUBLE ----------------
#NOTES:
     dance-double:
     DOUBLE:
     Easy:
     4:
     0,0,0,0,0:
00000000
00000000
00000000
00000000
,
00000000
00000000
00000000
00000000
,
00000000
00000000
00001000
00000000
00010000
00000000
00000000
00001000
,
00000000
00010000
00000000
00000000
00011000
00000000
00000000
00000000
,
00100000
00010000
00100000
00010000
,
10000000
01000000
10000000
01000000
,
00010000
00001000
00010000
00001000
,
00000100
00000010
00000100
00000010
,
00001000
00000100
00001000
00000100
,
00010000
00000000
00001000
00000000
,
00100000
00010000
00100000
00010000
,
01000000
00000000
00100000
00000000
,
10000000
00000000
00000000
10000000
00000000
00000000
00000000
00010000
,
00000000
00010000
00000000
00000000
,
00100000
00001000
00100000
00001000
,
00010000
00000000
00000100
00000100
,
00000010
00000001
00000100
00001000
,
00010000
01000000
10000000
00100000
,
01100000
00000000
00000000
00001000
,
00011000
00000000
00000000
00000000
,
00010000
00000100
00010000
00000100
,
00001000
00000000
00000001
00000100
00000000
00000000
00000100
00000000
,
00000100
00000000
00000000
00000000
,
00000010
00000000
00000000
00001001
00000000
00000000
00000000
00000100
,
00000000
00001000
00000000
00010000
00000000
00000000
00000000
00001000
,
00000000
00100000
00000000
00001000
00000000
00000000
00000000
10000000
,
00000000
01000000
00000000
00010000
00000000
00000000
00000000
00011000
,
00000000
00001001
00000000
00001000
,
00000010
00000100
00000001
00000010
,
00000000
00000100
00010000
00001000
,
00000000
00011000
00000000
00100000
,
00001000
00100000
00001000
00100000
,
00001000
01000000
00010000
01000000
,
00010000
10000000
00010000
00100000
,
00100000
00000000
01000000
01000000
00000000
00000000
00010000
00000000
,
00001000
00010000
00011000
00001000
,
00010000
00001000
00011000
00000100
,
00001000
00000010
00001000
00000001
,
00000010
00000100
00000010
00000100
,
00010000
00001000
00000000
00100000
,
00010000
00100000
00000000
00001000
,
00010000
00001000
00001000
00010000
,
00001000
00010000
00011000
00010000
,
00001000
00010000
00010000
00001000
,
00010000
00001000
00011000
00000000
,
00100000
00100000
00001000
00010000
,
00000100
00001000
00000010
00001000
,
00000000
00000000
00000000
00000101
,
00000000
00000001
00000010
00000001
,
00000000
00000000
00000000
00001100
,
00001001
00000100
00001000
00010000
,
01000000
00010000
00001000
00100000
,
01000000
00000000
00000000
00000000
10000000
00000000
00000000
10000000
00000000
00000000
10000000
00000000
00000000
00000000
00000000
00000000
,
00010000
01000000
00001000
00010000
,
00011000
00010000
00000100
00010000
,
00000000
00000000
00000100
00000010
,
00000010
00000001
00000100
00000001
,
00000000
00000000
00001001
00001000
,
00000010
00001000
00000000
00000100
,
00010000
00001000
00000000
00100000
,
00100000
00100000
00000000
00010000
,
10000000
00010000
00000000
01000000
,
00010000
00100000
00000000
01000000
,
10000000
01000000
00000000
00010000
,
00000000
00001000
00000000
00010000
,
00001000
00010000
00011000
00000000
;
