#TITLE:Go To Sleep!;
#SUBTITLE:;
#ARTIST:Arthur and Friends;
#TITLETRANSLIT:;
#SUBTITLETRANSLIT:;
#ARTISTTRANSLIT:;
#GENRE:;
#CREDIT:;
#MUSIC:Go To Sleep!.ogg;
#BANNER:;
#BACKGROUND:;
#CDTITLE:;
#SAMPLESTART:46.620;
#SAMPLELENGTH:12.000;
#SELECTABLE:YES;
#OFFSET:-0.600;
#BPMS:0.000=160.000
,28.000=190.000
,32.000=189.150
,140.000=185.000
,144.000=189.150
,164.000=190.000
,168.000=189.200
,184.000=188.900
,188.000=189.100
,220.000=187.900
,232.000=189.100
,252.000=190.200
,256.000=189.500
,260.000=187.000
,268.000=189.400
,280.000=190.400
,284.000=189.600
,316.000=187.900
,328.000=188.200
,340.000=196.600
,342.000=187.200
,343.000=182.200
,344.000=188.300
,346.000=189.000
,347.000=175.500
,349.000=146.400
,350.000=120.800
,351.000=118.400
,352.000=136.500
,353.000=145.500
,354.000=140.200
,355.000=116.200
,356.000=80.400
,357.000=87.800
;
#STOPS:;
#DISPLAYBPM:190.000;
#BGCHANGES:;
#FGCHANGES:;

//--------------- dance-single - 8Chasey ----------------
#NOTES:
     dance-single:
     8Chasey:
     Beginner:
     3:
     0,0,0,0,0:
0000
0000
0000
0000
,
0000
0000
0000
0000
,
0000
0000
0000
0000
,
0000
0000
0000
0000
,
0000
0000
0000
0000
,
0000
0000
0000
0000
,
0000
0000
0000
0000
,
0001
0000
0000
0000
,
1000
0000
0000
0000
,
0001
0000
1000
0000
,
1001
0000
0000
0000
,
0100
0100
0100
0000
,
0001
0000
0001
0000
,
0100
0100
0100
0000
,
1000
0000
1000
0000
,
0010
0010
0010
0000
,
0100
0000
0100
0000
,
0010
0000
0110
0000
,
0100
0100
0100
0000
,
0001
0001
0001
0000
,
1000
1000
1000
0000
,
0001
0000
1000
0000
,
0001
0000
0000
0000
,
1000
0000
0000
0000
,
0010
0000
0000
0000
,
1000
0000
1000
0000
,
0100
0000
0000
0000
,
0001
0000
0000
0000
,
0010
0000
0000
0000
,
0001
0000
0001
0000
,
0100
0000
0000
0000
,
0010
0010
0010
0000
,
0100
0100
0100
0000
,
0010
0000
0100
0000
,
0010
0000
0000
0000
,
1000
1000
1000
0000
,
0100
0000
1000
0000
,
0001
0001
0001
0000
,
0100
0000
0001
0000
,
0010
0010
0010
0000
,
0100
0000
1000
0000
,
0100
0100
0100
0000
,
0010
0000
0001
0000
,
1000
1000
1000
0000
,
0001
0001
0001
0000
,
1000
0000
0001
0000
,
1000
0000
0000
0000
,
1001
0000
0001
0000
,
1000
0000
0010
0000
,
0100
0000
0000
0000
,
0100
0100
0100
0000
,
0010
0000
0010
0000
,
1000
1000
1000
0000
,
0010
0000
0010
0000
,
0001
0001
0001
0000
,
0110
0000
0000
0000
,
0100
0000
0010
0000
,
1001
0000
1001
0000
,
0001
0001
0001
0001
,
0001
0000
0000
0000
,
0100
0000
0000
0000
,
0010
0000
0010
0000
,
0010
0000
0000
0000
,
1000
1000
1000
1000
,
1000
0000
0000
0000
,
0000
1001
0000
1001
,
0000
1001
0000
1001
,
0000
0001
0001
0000
,
1000
0000
0001
0000
,
0000
1000
1000
0000
,
0001
0000
1000
0000
,
0010
0010
0010
0000
,
0100
0000
0000
0010
,
0010
0010
0000
1001
,
0000
0000
0100
0000
,
0010
0000
0010
0000
,
0100
0000
0100
0000
,
0010
0010
0010
0000
,
0010
0000
0000
0000
,
0100
0000
0100
0000
,
0010
0000
0010
0000
,
0100
0100
0100
0000
,
0100
0000
0000
0000
,
0001
0000
1000
0000
,
0010
0000
0100
0000
,
1001
0000
0000
0000
,
0110
0000
0000
0000
,
0000
0000
0000
0000
,
0000
0000
0000
0000
,
0000
1001
0000
0000
;

//--------------- dance-single - 8Chasey ----------------
#NOTES:
     dance-single:
     8Chasey:
     Easy:
     4:
     0,0,0,0,0:
0000
0000
0000
0000
,
0000
0000
0000
0000
,
0000
0000
0000
0000
,
0000
0000
0000
0000
,
0000
0000
0000
0000
,
0000
0000
0000
0000
,
0000
0000
0000
0000
,
0001
0000
0001
0000
,
1000
0000
1000
0000
,
0001
0001
1000
1000
,
0020
0000
0000
0030
,
1000
0000
0100
0000
,
1000
0010
1000
0000
,
0001
0000
0100
0000
,
0001
0010
0001
0000
,
0100
0000
0100
0000
,
0010
0100
0010
0000
,
0110
0000
1001
0000
,
1000
0010
1000
0000
,
0001
0100
0001
0000
,
0100
0000
0010
0000
,
2002
0000
0000
3003
,
1001
0000
0100
0100
,
0001
0000
1000
0100
,
0010
0000
0100
0000
,
0010
0000
0010
0000
,
0100
0010
0001
0000
,
1000
0010
1000
0000
,
0001
0000
1001
0000
,
0100
0001
1000
0000
,
0001
0010
0100
0000
,
0010
0000
0010
0000
,
0001
1000
0001
0000
,
0220
0000
0000
0330
,
0110
0000
0010
0010
,
1000
0000
0010
0000
,
1000
0100
1000
0000
,
0001
0000
0010
0000
,
0001
0100
0001
0000
,
0100
0000
0100
0000
,
0010
1000
0001
0000
,
0010
0000
0100
0000
,
0100
1000
0001
0000
,
1001
0000
0010
0000
,
1001
0000
0100
0000
,
0020
0000
0230
0000
,
0301
1000
0001
1000
,
0001
0001
0001
0010
,
0100
0100
0100
0000
,
1000
0010
1000
0000
,
0001
1000
0100
0000
,
0010
0000
0001
0000
,
0010
0100
1000
0000
,
0010
0000
1000
0000
,
0010
0100
0001
0000
,
1000
1000
0010
0000
,
0100
0100
0001
0000
,
0200
0000
0320
0000
,
1030
0001
1000
0001
,
0100
0000
0001
0000
,
0020
0000
0031
0010
,
0100
0000
1000
0000
,
0020
0000
1030
0010
,
0100
0000
0100
0000
,
0010
0000
0100
0000
,
0000
1001
0000
0110
,
0000
1001
0000
0110
,
0100
0000
0001
0000
,
0100
0010
1000
0000
,
0100
0000
1000
0000
,
0100
0010
0001
0000
,
1000
0000
1001
0000
,
0001
0000
0000
1001
,
1001
1001
0000
1001
,
0000
0000
1000
0001
,
0010
0000
0100
0000
,
0010
0000
0100
0100
,
0020
0000
0000
0000
,
0130
0000
1001
0000
,
0100
0001
1000
0000
,
0001
0000
0010
0000
,
0200
0000
0000
0000
,
0310
0000
0100
0010
,
0100
1000
0010
0000
,
0100
0001
0010
0000
,
1001
0000
0001
0000
,
1000
0000
0000
0200
0000
0000
0000
0000
,
0000
0300
0020
0000
,
0000
0000
0030
0000
,
0000
2002
3003
0000
;

//--------------- dance-single - 8Chasey ----------------
#NOTES:
     dance-single:
     8Chasey:
     Medium:
     6:
     0,0,0,0,0:
0000
0000
0000
0000
,
0000
0000
0000
0000
,
0000
0000
0000
0000
,
0000
0000
0000
0000
,
0000
0000
0000
0000
,
0000
0000
0000
0000
,
0000
0000
0000
0000
,
0001
0010
0001
0001
,
1000
0100
1000
1000
,
0010
0010
0100
0010
,
1001
1001
0100
0010
,
1000
0010
1010
0000
,
1000
0001
0010
0010
,
0001
0010
0011
0000
,
0001
1000
0010
0010
,
0100
0001
1001
0000
,
0100
0010
0100
1000
,
0001
1000
1001
0000
,
1000
0010
0100
0001
,
0010
0010
0100
0100
,
1000
0001
0100
0010
,
0200
0000
0310
0100
,
0020
0000
1030
0001
,
1000
0100
1000
0000
,
0010
1000
0002
0000
,
0013
0010
0001
0000
,
1000
0100
0010
0010
,
0001
0100
0001
0000
,
0010
0002
1000
1003
,
0010
0010
1000
0000
,
0001
0100
0010
0010
,
1000
0001
1001
0000
,
0200
0010
0310
0000
,
2000
0000
3002
0000
,
0203
0010
0310
0110
,
1000
0100
1100
0000
,
1000
0010
0100
0000
,
0001
0100
0101
0000
,
0001
0010
0100
0000
,
0010
0010
0110
0000
,
0100
1000
0001
0100
,
0010
0010
1001
0000
,
1000
0001
1000
0001
,
0010
0001
0101
0000
,
0010
1000
1100
0000
,
0200
0000
0310
0100
,
0020
0000
0031
1000
,
2010
0000
3001
0010
,
0012
0000
1003
0100
,
0200
0010
0310
0100
,
1000
0001
0100
0010
,
2000
0100
3100
1000
,
0002
0100
0103
0001
,
0020
0100
0000
0130
,
0010
0001
1000
0010
,
0100
0001
0100
0000
0001
0000
0010
0000
,
0100
1000
0100
0000
1000
0000
0010
0000
,
0100
0001
0100
1000
,
0100
0010
0100
0000
0010
0000
0110
0000
,
0001
0001
0010
0002
,
0000
0010
2003
3100
,
1000
1000
0010
0010
,
2000
0000
3002
0103
,
0010
1000
0010
0000
1000
0000
0100
0000
,
0010
0001
0010
0000
0001
0000
0100
0000
,
0000
2002
3003
0220
,
0330
1001
0110
1001
,
1000
0001
0011
0000
,
0010
0100
0010
0100
,
1000
0010
1010
0000
,
0100
0001
0010
0000
,
0100
1000
0010
0000
,
0100
0001
1000
0110
,
1001
0220
0330
2002
,
3003
0010
0010
0100
,
1000
0010
1000
0000
,
0001
0100
0001
0000
,
2000
0000
3200
0000
,
0310
0100
0010
0010
,
0001
0010
0001
0000
,
1000
0100
1000
0000
,
0002
0000
0023
0000
,
0130
0010
0100
0100
,
1000
0010
0100
0100
,
0001
0010
0100
0100
,
0020
0000
0000
0030
,
0001
0000
1000
0200
0000
0000
0000
0000
,
0000
0000
0020
0000
,
0000
0000
0000
0330
,
0000
2002
3003
0000
;

//--------------- dance-single - 8Chasey ----------------
#NOTES:
     dance-single:
     8Chasey:
     Hard:
     8:
     0,0,0,0,0:
0000
0000
0000
0000
,
0000
0000
0000
0000
,
0000
0000
0000
0000
,
0000
0000
0000
0000
,
0000
0000
0000
0000
,
0000
0000
0000
0000
,
0000
0000
0000
0000
,
0001
0000
0100
0001
0000
0100
0010
0000
,
1000
0000
0100
1000
0000
0100
0010
0000
,
0001
1000
0001
1000
0000
0100
0010
0000
,
0011
0000
1010
0000
0110
0000
0100
0010
,
0100
0000
0001
0000
0010
0001
1000
0010
,
0000
1000
0001
0000
1010
0000
0110
0000
,
1000
0000
0100
0000
1000
0100
1000
0010
,
0000
0100
0001
0000
0011
0000
1001
0000
,
0100
0001
1000
0000
0010
0000
1000
0010
,
0000
0100
0001
0000
1100
0000
0011
0000
,
0010
0100
0010
0000
0001
0000
1000
0010
,
0000
1000
0100
0000
0010
0100
0010
0001
,
1000
0000
1010
0000
0101
0000
0010
0001
,
0100
0000
0001
0000
1000
0001
0100
0000
,
0020
0000
1000
0000
0100
0000
1030
0100
,
0020
0000
0031
0000
0100
0001
1000
0000
,
0110
0200
0001
0301
,
0010
0001
1000
0000
0002
0000
0103
0000
,
0110
0020
1000
1030
,
0100
1000
0010
0000
2000
0000
3001
0000
,
0101
0000
1010
0000
1000
0100
0010
0000
,
0001
0100
0020
0000
0100
0000
0130
0000
,
0001
0100
0001
0000
1000
0100
0010
0100
,
0010
0001
1000
0110
,
0100
0001
0010
0000
0001
0000
0011
0000
,
0100
1000
0010
0000
1000
0000
1010
0000
,
1002
0100
0013
2000
,
0020
0000
3030
0000
0100
0001
0100
0010
,
1000
0001
1000
0000
0001
0010
0001
1000
,
0000
0100
1000
0000
1100
0000
1001
0000
,
0100
0001
0100
0000
0001
0010
0001
1000
,
0000
0010
1000
0000
0101
0000
0110
0000
,
0100
0010
1000
0000
0001
0010
0001
0100
,
0000
0010
1000
0000
1010
0000
0101
0000
,
0200
0000
0310
0000
1010
0000
1000
0100
,
0000
1000
0200
0000
0310
0000
0011
0000
,
1001
0000
1000
0001
0200
0000
0310
0000
,
1010
0000
0100
0001
0020
0000
0130
0000
,
0200
1000
0010
1300
,
0001
0000
1000
0010
0100
0010
1000
0100
,
0010
0001
1010
0110
,
0200
0000
0001
0000
0310
1000
0100
2000
,
0000
3010
0100
0101
,
0001
0010
0001
0000
1000
0100
0010
0200
,
0000
0310
0001
0000
0010
0100
1000
0000
,
0010
1000
0020
0000
1030
0001
0020
0000
,
0230
0000
1300
0000
0001
0100
0010
0200
,
0000
0000
0001
0300
0010
0100
0010
0000
,
1100
0120
0001
0130
,
0010
0001
1000
0100
0010
0100
0010
0000
,
0001
0100
1000
0000
0100
0010
1000
0000
,
1001
0000
0001
0010
0001
1000
0100
0010
,
0100
0000
1000
0001
1000
0000
0020
0000
,
1030
0000
0100
1000
0000
0001
0010
0000
,
1001
0000
0100
0001
0010
0000
0001
2000
,
0010
0000
3010
0200
0000
0301
0100
0001
,
0010
0011
1010
1001
,
0100
0001
0100
0010
1000
0010
0100
0000
,
0001
0010
0002
0000
1003
0100
2000
0000
,
3010
0100
0020
0000
1030
0010
0200
0000
,
0301
0000
1010
0000
0101
0000
1000
0100
,
0000
1000
0010
0100
0001
0000
0010
0000
,
0011
0000
0110
0000
1000
0100
1000
0010
,
0000
0100
0001
0000
1010
0000
1001
0000
,
0100
0001
0010
0000
0001
0000
1000
0100
,
0000
1000
0010
0100
0010
0000
0101
0000
,
1010
1001
1000
0110
,
0100
0001
1000
0100
0010
0100
0010
0100
,
0010
0000
0001
0000
1010
0000
1000
0001
,
0020
0000
0130
0000
1000
0100
1000
0000
,
0002
0010
0100
0013
,
0200
0000
1300
0000
0010
1000
0001
0000
,
0110
0000
1001
0000
0100
0000
0001
1000
,
0100
0000
1000
0000
0010
0100
0010
0000
,
2000
0010
0100
3010
,
0200
0301
0010
1001
,
1000
0010
1000
0000
0100
1000
0001
0000
,
0020
0000
0031
0000
1000
0100
1000
0000
,
0020
0000
0000
0030
,
1000
0001
0010
0200
0000
0000
0000
0000
,
0000
0000
0020
0000
,
0000
0000
0000
0000
0000
0000
0000
0330
,
0000
2002
3003
0000
;

//--------------- dance-double - 8Chasey ----------------
#NOTES:
     dance-double:
     8Chasey:
     Easy:
     3:
     0,0,0,0,0:
00000000
00000000
00000000
00000000
,
00000000
00000000
00000000
00000000
,
00000000
00000000
00000000
00000000
,
00000000
00000000
00000000
00000000
,
00000000
00000000
00000000
00000000
,
00000000
00000000
00000000
00000000
,
00000000
00000000
00000000
00000000
,
00001000
00000000
00000000
00000000
,
00010000
00000000
00000000
00000000
,
00001000
00000000
00010000
00000000
,
00011000
00000000
00000000
00000000
,
00100000
00010000
00100000
00000000
,
00010000
00000000
00010000
00000000
,
10000000
01000000
10000000
00000000
,
00100000
00000000
00100000
00000000
,
01000000
00000000
00010000
00000000
,
00100000
00000000
00001000
00000000
,
00010000
00001000
00010000
00000000
,
00001000
00000000
00010000
00000000
,
00000100
00001000
00000100
00000000
,
00001000
00000000
00000001
00000000
,
00000020
00000000
00000000
00000000
,
00000230
00000000
00000310
00000000
,
00000100
00000000
00001000
00000000
,
00000001
00001000
00000001
00000000
,
00000100
00000000
00000001
00000000
,
00001000
00000001
00001000
00000000
,
00000100
00000000
00010000
00000000
,
00001000
00010000
00001000
00000000
,
00100000
00000000
00010000
00000000
,
00100000
01000000
00100000
00000000
,
01000000
01000000
01000000
00000000
,
10000000
00000000
00010000
00000000
,
02000000
00000000
00000000
00000000
,
03200000
00000000
01300000
00000000
,
00010000
00100000
00010000
00000000
,
00100000
00000000
00001000
00000000
,
00010000
00001000
00010000
00000000
,
00000100
00000000
00001000
00000000
,
00000010
00001000
00000010
00000000
,
00000100
00000000
00000001
00000000
,
00001000
00000001
00000010
00000000
,
00000100
00000000
00000100
00000000
,
00001000
00000001
00000010
00000000
,
00000100
00000000
00010000
00000000
,
00002000
00000000
00000000
00003000
,
00020000
00000000
00000000
00030000
,
00100000
10000000
00100000
00000000
,
10000000
00000000
01000000
00000000
,
00100000
00010000
00100000
00000000
,
00010000
00000000
01000000
00000000
,
00020000
00000000
00130000
00000000
,
00001000
00000000
00010000
00000000
,
00000100
00000000
00001000
00000000
,
00000001
00000100
00000001
00000000
,
00002000
00000000
00003010
00000000
,
00010000
00000000
00001000
00000000
,
00100000
00010000
00100000
00000000
,
01000000
10000000
01000000
10000000
,
00100000
00000000
00200000
00000000
,
00301000
00000000
00010000
00000000
,
00001000
00000000
00002000
00000000
,
00013000
00000000
00000100
00000000
,
00000010
00000000
00000020
00000000
,
00000031
00000000
00001000
00000000
,
00000000
00001001
00000000
00001001
,
00000000
00001001
00000000
00001001
,
00000001
00001000
00000001
00000000
,
00000100
00000000
00000001
00000000
,
00001000
00000001
00001000
00000000
,
00000100
00000000
00010000
00000000
,
00001000
00010000
00001000
00000000
,
00100000
00000000
00010000
10000000
,
00010000
10000000
00000000
02000000
,
00000000
03100000
01000000
00100000
,
00010000
01000000
00001000
00000000
,
00010000
00001000
00010000
00000000
,
00002000
00000000
00103000
00000000
,
00020000
00000000
10030000
00000000
,
00100000
00001000
00010000
00000000
,
00000100
00010000
00001000
00000000
,
00020000
00000000
00030010
00000000
,
00002000
00000000
00003001
00000000
,
00000100
00000010
00000100
00000000
,
00000001
00001000
00000001
00000000
,
00000110
00000000
00001000
00000000
,
00000001
00000000
00000000
00000200
00000000
00000000
00000000
00000000
,
00000000
00000300
00000020
00000000
,
00000000
00000000
00000030
00000000
,
00000000
00002002
00003003
00000000
;

//--------------- dance-double - 8Chasey ----------------
#NOTES:
     dance-double:
     8Chasey:
     Medium:
     5:
     0,0,0,0,0:
00000000
00000000
00000000
00000000
,
00000000
00000000
00000000
00000000
,
00000000
00000000
00000000
00000000
,
00000000
00000000
00000000
00000000
,
00000000
00000000
00000000
00000000
,
00000000
00000000
00000000
00000000
,
00000000
00000000
00000000
00000000
,
00001000
00000000
00001000
00000000
,
00010000
00000000
00010000
00000000
,
00001000
00100000
01000000
10000000
,
00200000
00000000
01000000
01300000
,
00001000
00100000
00001000
00000000
,
00010000
00000000
00000100
00000000
,
00010000
00000010
00010000
00000000
,
00001000
00000000
01000000
00000000
,
00100000
10000000
00100000
00000000
,
10000000
00000000
00010000
00000000
,
00100000
00010000
00100000
00000000
,
00001000
00000000
00010000
00000000
,
00000100
00000010
00000100
00000000
,
00000010
00000001
00001000
00000000
,
00002002
00000000
00000000
00003003
,
00001001
00000000
00000100
00000100
,
00000010
00001000
00000010
00000000
,
00000100
00000001
00001000
00000000
,
00000100
00010000
00001000
00000000
,
00100000
00010000
00100000
00000000
,
10010000
10000000
00010000
00100000
,
01000000
00100000
01000000
00000000
,
10000000
00010000
01000000
00010000
,
00100000
00001000
00010000
00000100
,
00000010
00000010
00000100
00000000
,
00001000
00000001
00000100
00000000
,
00000220
00000000
00000000
00000330
,
00000110
00000000
00000001
00001000
,
00000100
00001000
00000010
00000000
,
00010000
00000000
00001000
00000000
,
01000000
00010000
00100000
00000000
,
00001000
00000000
00010000
00000000
,
00000100
00001000
00000100
00000000
,
00010000
00000000
00001000
00000000
,
01000000
00010000
01000000
00000000
,
00001000
00000000
00010000
00000000
,
00001000
00100000
00010000
00000000
,
10000000
00100000
01000000
00000000
,
00200000
00000000
00000000
00000000
,
01300000
00010000
10000000
00010000
,
00100000
00001000
00010000
00000000
,
00000100
00000010
00000100
00000000
,
00001000
00000010
00001000
00000000
,
00000001
00000100
00000001
00000000
,
00000010
00000010
00000001
00000000
,
00001000
00001000
00000100
00000000
,
00001000
00000010
00000100
00000000
,
00001000
00000000
00010000
00000000
00001000
00010000
00001000
00000000
,
00100000
00010000
01000000
00100000
,
10000000
01000000
10000000
00010000
,
00100000
00001000
00010000
00000100
,
00000010
00000010
00000100
00000100
,
00001000
00000010
00001000
00000002
,
00000000
00000100
00000103
00000000
,
00000001
00000010
00000001
00000000
,
00002000
00000100
00003100
00000000
,
00010000
00001000
00001000
00000000
,
00100000
01000000
00100000
01000000
,
00000000
00110000
00000000
00011000
,
00000000
00001010
00000000
00000100
,
00001000
00010000
00001000
00000000
,
00100000
00010000
10000000
00000000
,
01000000
10000000
00100000
00000000
,
10000000
01000000
00010000
00000000
,
00001000
00100000
00001000
00000000
,
00010000
00000100
00001000
00001010
,
00000011
00001001
00000000
00001001
,
00000100
00000001
00000100
00000000
,
00000010
00001000
00000010
00000010
,
00010000
00000100
00010000
00010000
,
00002000
00000000
00023000
00000000
,
00031000
00100000
00010000
00010000
,
10000000
01000000
00100000
00000000
,
01000000
00100000
00001000
00001000
,
00020000
00000000
00032000
00000000
,
00013000
00000100
00000010
00000010
,
00000001
00000100
00001000
00000000
,
00010000
01000000
10000000
00100000
,
02000000
00000000
00000000
03000000
,
00001000
00000000
00010000
00000200
00000000
00000000
00000000
00000000
,
00000000
00000000
00000020
00000000
,
00000000
00000000
00000000
00000330
,
00000000
00002002
00003003
00000000
;

//--------------- dance-double - 8Chasey ----------------
#NOTES:
     dance-double:
     8Chasey:
     Hard:
     9:
     0,0,0,0,0:
00000000
00000000
00000000
00000000
,
00000000
00000000
00000000
00000000
,
00000000
00000000
00000000
00000000
,
00000000
00000000
00000000
00000000
,
00000000
00000000
00000000
00000000
,
00000000
00000000
00000000
00000000
,
00000000
00000000
00000000
00000000
,
00001000
00000000
00010000
00001000
00100000
00000000
00010000
00000000
,
00100000
00000000
01000000
10000000
00100000
00000000
01000000
00000000
,
00010000
00100000
00010000
10000000
01000000
10000000
00100000
01000000
,
00010000
00101000
00010100
00001010
,
00000100
00000001
00000020
00000000
00000130
00001000
00000001
00000100
,
00000000
00000010
00001000
00000010
00000100
00000000
00000011
00000000
,
00000010
00000100
00001000
00000000
00000010
00000100
00001000
00010000
,
00000000
00000100
00010000
00001000
00100000
00000000
00110000
00000000
,
10000000
00100000
01000000
00000000
10000000
01000000
00010000
00100000
,
00000000
01000000
00100000
00001000
00010000
00000100
00010000
00000000
,
00010100
00000000
01001000
00000000
00011000
00000000
00010000
00000100
,
00000000
00000010
00000100
00000010
00000001
00000100
00001000
00000000
,
00000100
00000010
00001000
00000000
00000100
00000000
00001000
00000001
,
00000010
00000100
00000010
00000000
00000001
00000100
00001000
00000000
,
00020000
00000100
00032000
00100000
,
00203000
00000000
00310000
10000000
01000000
00100000
01000000
10000000
,
00100000
00000000
01010000
00000000
00100000
00001000
00010000
00000000
,
00000100
00001000
00000010
00000000
00000100
00000001
00001000
00000000
,
00000010
00000100
00001000
00000000
00010000
00001000
00100000
00000000
,
00010000
00100000
01000000
10000000
00100000
01000000
00010000
00000000
,
01100000
00000000
10000000
01000000
10000000
00000000
00010000
00100000
,
01000000
00100000
00002000
00000000
00010000
00000000
00013000
00000000
,
00000100
00001000
00000010
00000000
00000100
00001000
00010000
00000000
,
00100000
01000000
00010000
00000000
00100000
00001000
00010000
00000000
,
00010100
00000000
00010100
00000000
00011000
00000000
00100000
00001000
,
00010000
00000000
00100000
10000000
01000000
00100000
01000000
00000000
,
00200000
00010000
02300000
10000000
,
13000000
00000000
00100000
01000000
00010000
00100000
00001000
00000100
,
00000010
00000000
00001010
00000000
00000011
00000000
00000010
00000001
,
00000000
00001000
00000100
00000010
00000100
00001000
00000010
00000000
,
00000110
00000000
00001100
00000000
00000101
00000000
00001000
00000010
,
00000000
00000100
00000001
00000010
00000100
00001000
00000010
00000000
,
00001010
00000000
00000110
00000000
00001100
00000000
00010000
00001000
,
00000000
00100000
01000000
00100000
00010000
10000000
00100000
00000000
,
01010000
00000000
10100000
00000000
01100000
00000000
01000000
00100000
,
00000000
00100000
10000000
01000000
00100000
01000000
00100000
00001000
,
00010000
00000000
00010010
00000000
00001100
00000000
00000010
00000001
,
00000100
00000000
00001000
00000100
00000001
00000010
00000200
00000000
,
00002300
00000010
00003002
00000100
,
00000103
00000010
00001000
00000010
00000100
00001000
00010000
01000000
,
00100000
00010000
20000000
00000000
30100000
10000000
02000000
00000000
,
03100000
00001000
00020000
00000000
00030100
00001000
00000010
00000200
,
00000001
00000000
00000320
00000000
00001030
00000100
00001000
00000010
,
00010000
00000000
00011000
00000000
00100000
00010000
00100000
01000000
,
00000000
10000000
00100000
00000000
10000000
00010000
00100000
00000000
,
01000000
00100000
00010000
01000000
10000000
01000000
00010000
00000000
,
00200000
00000000
00301000
00000000
00010000
00000100
00000010
00000100
,
00000000
00001000
00000001
00000000
00000100
00000010
00001000
00000000
,
00000100
00000010
00000100
00001000
00000010
00000100
00001000
00010000
,
00001000
00100000
00010000
00000000
00100000
01000000
10000000
00000000
,
00100000
10010000
01000000
00101000
,
00010000
00000100
00010000
00001000
01000000
00001000
00010000
00100000
,
10000000
01000000
00010000
00000000
01000000
00100000
00020000
00000000
,
01000000
00000000
10030000
01000000
00000000
10000000
00100000
00000000
,
10000000
01000000
10000000
00000000
01000000
00010000
00001000
00000000
,
00020000
00000000
00030100
00001000
00000000
00000010
00001000
00000001
,
00000010
00000001
00000100
00000000
00001000
00000100
00000010
00000000
,
00001000
00000100
00010000
00001000
00000000
00100000
00010000
00000000
,
10000000
11000000
00010000
00110000
,
00100000
00000000
00011000
00000000
00010000
00000100
00000010
00000100
,
00001000
00000010
00000100
00000000
00000101
00000000
00000010
00000001
,
00000000
00000100
00000010
00001000
00000000
00000001
00000100
00001000
,
00000100
00000010
00001000
00000000
00010100
00000000
00010000
00001000
,
00000000
00100000
00010000
00100000
01000000
10000000
00100000
01000000
,
00010000
00000000
00101000
00000000
00010010
00000000
00010000
00001000
,
00000000
00010000
00000100
00001000
00000010
00000000
00000101
00000000
,
00001010
00011000
00100000
01100000
,
10000000
00100000
10000000
00000000
01000000
00010000
01000000
00100000
,
00001000
00000000
00010000
00000000
00010100
00000000
00001000
00000010
,
00000100
00000000
00001000
00010000
00000100
00000000
00010000
00000000
,
00002000
00100000
00023000
00000100
,
00031000
00100000
00010000
00000000
10000000
01000000
10000000
00100000
,
01000000
00010000
00100000
00000000
00001000
00010000
00000100
00000000
,
00001000
00000010
00000100
00000000
00001000
00010000
00000100
00000000
,
00020000
00000010
00032000
01000000
,
00103000
00010000
00100000
01000000
00000000
00100000
00010000
10000000
,
00100000
00000000
01010000
00000000
10100000
00000000
01000000
00010000
,
00100000
00001000
00010000
00000000
00000100
00010000
00001000
00000000
,
00200000
00000000
00000000
00000000
00301000
00010000
00000100
00000000
,
00000010
00000001
00001000
00000200
00000000
00000000
00000000
00000000
,
00000000
00000000
00000020
00000000
,
00000000
00000000
00000000
00000000
00000000
00000000
00000000
00000330
,
00000000
00002002
00003003
00000000
;
