#TITLE:Give me your pain ~Winter Edition~;
#SUBTITLE:;
#ARTIST:Haya-P & Maru;
#TITLETRANSLIT:;
#SUBTITLETRANSLIT:;
#ARTISTTRANSLIT:;
#GENRE:;
#CREDIT:;
#MUSIC:Give me your pain (WINTER EDITION from pop'n music 3 APPEND DISC).mp3;
#BANNER:Give me your pain (WINTER EDITION from pop'n music 3 APPEND DISC)-bn.png;
#BACKGROUND:Give me your pain (WINTER EDITION from pop'n music 3 APPEND DISC)-bg.png;
#CDTITLE:;
#SAMPLESTART:60.740;
#SAMPLELENGTH:12.000;
#SELECTABLE:YES;
#OFFSET:-0.728;
#BPMS:0.000=130.000
,127.000=65.000
,160.000=130.000
,239.000=3.140
,239.500=50.000
,240.000=32.000
;
#STOPS:127.000=1.385
,176.000=1.846
;
#DISPLAYBPM:65.000:130.000;
#BGCHANGES:239.075=thank you for playing.png=1.000=1=0=1===CrossFade==,
239.450=dark.png=1.000=1=0=1===CrossFade_Faster==,
240.000=end 8chasey logo.png=1.000=1=0=1===CrossFade==,
243.500=dark.png=1.000=1=0=1===CrossFade==,
99999=-nosongbg-=1.000=0=0=0 // don't automatically add -songbackground- ;;
#FGCHANGES:;

//--------------- dance-single - ----------------
#NOTES:
     dance-single:
     :
     Easy:
     2:
     0,0,0,0,0:
0000
0000
0000
0000
,
0000
0000
0000
0000
,
0000
0000
0000
0000
,
0000
0000
0000
0000
,
2000
0000
0000
0000
,
3010
0000
0000
0000
,
0002
0000
0000
0000
,
0103
0000
0000
0000
,
0020
0000
0000
0000
,
0031
0000
0000
0000
,
0200
0000
0000
0000
,
1300
0000
0000
0000
,
0020
0000
1030
0000
,
0002
0000
0003
0000
,
2000
0000
3010
0000
,
0200
0000
0300
0000
,
0001
0000
0010
0000
,
0001
0000
1000
0000
,
0100
0000
1000
0000
,
0010
0000
0100
0000
,
0010
0000
0000
0000
,
0000
0000
0000
0000
,
0100
0000
0001
0000
,
0000
0000
0001
0000
,
1000
0000
1000
0000
,
0000
0100
1000
0000
,
0001
0000
0001
0000
,
0000
0100
0001
0000
,
0010
0000
0001
0000
,
1000
0000
0010
0000
,
0200
0000
0300
0000
,
0001
0000
1000
1000
,
0200
0000
2300
0000
,
3002
0000
0203
0300
,
0010
1000
0001
1000
,
0200
0000
0000
0300
0200
0000
0000
0300
,
0010
0001
1000
0001
,
0100
0010
1000
0100
,
2000
3010
0002
0103
,
0001
1000
0100
0010
,
0001
0000
0001
0000
,
0010
0001
1000
0000
,
0100
0000
1000
0000
,
0010
1000
0001
0001
,
2000
0000
0000
3000
,
0001
0000
0010
0000
,
0002
0000
0000
0003
,
0100
0000
0010
0000
,
0200
0000
0000
0300
,
0001
1000
0100
0000
,
0020
0000
0000
0030
,
0001
0000
0100
0000
,
0010
1000
0100
0000
,
0000
1000
0001
0000
,
0010
0001
0100
0000
,
0000
0001
1000
0000
,
0100
0000
1000
0000
,
0010
0000
1000
0000
,
0001
0000
0010
0000
,
0001
1000
0100
0100
,
0020
0000
0000
0030
;

//--------------- dance-double - ----------------
#NOTES:
     dance-double:
     :
     Easy:
     2:
     0,0,0,0,0:
00000000
00000000
00000000
00000000
,
00000000
00000000
00000000
00000000
,
00000000
00000000
00000000
00000000
,
00000000
00000000
00000000
00000000
,
00020000
00000000
00000000
00000000
,
00030100
00000000
00000000
00000000
,
00002000
00000000
00000000
00000000
,
00103000
00000000
00000000
00000000
,
00020000
00000000
00000000
00000000
,
00030010
00000000
00000000
00000000
,
00002000
00000000
00000000
00000000
,
00103000
00000000
00000000
00000000
,
00000020
00000000
00010030
00000000
,
00002000
00000000
00003000
00000000
,
00200000
00000000
00301000
00000000
,
00020000
00000000
00030000
00000000
,
00001000
00000000
00010000
00000000
,
01000000
00000000
10000000
00000000
,
00100000
00000000
01000000
00000000
,
00001000
00000000
00010000
00000000
,
00001000
00000000
00000000
00000000
,
00000000
00000000
00000000
00000000
,
00000100
00000000
00000010
00000000
,
00000000
00000000
00000001
00000000
,
00000100
00000000
00001000
00000000
,
00000000
00010000
00001000
00000000
,
00010000
00000000
00010000
00000000
,
00000000
00001000
00100000
00000000
,
00010000
00000000
10000000
00000000
,
01000000
00000000
00100000
00000000
,
00020000
00000000
00030000
00000000
,
10000000
00000000
01000000
01000000
,
00200000
00000000
00302000
00000000
,
00023000
00000000
00030200
00000300
,
00000010
00000001
00001000
00000100
,
00020000
00000000
00000000
00030000
00020000
00000000
00000000
00030000
,
00001000
00100000
01000000
00010000
,
01000000
10000000
00100000
01000000
,
02000000
03010000
00200000
01300000
,
10000000
01000000
00010000
01000000
,
00100000
00000000
00100000
00000000
,
00001000
00010000
00001000
00000000
,
00000100
00000000
00000010
00000000
,
00001000
00000001
00000100
00000100
,
00000020
00000000
00000000
00000030
,
00001000
00000000
00001000
00000000
,
00000200
00000000
00000000
00000300
,
00001000
00000000
00000100
00000000
,
00020000
00000000
00000000
00030000
,
00001000
00100000
00100000
00000000
,
00020000
00000000
00000000
00030000
,
10000000
00000000
00010000
00000000
,
01000000
00010000
01000000
00000000
,
00000000
00010000
10000000
00000000
,
01000000
10000000
01000000
00000000
,
00000000
10000000
00010000
00000000
,
00100000
00000000
00010000
00000000
,
01000000
00000000
00001000
00000000
,
00010000
00000000
00000100
00000000
,
00001000
00000001
00000100
00000100
,
00000020
00000000
00000000
00000030
;
