#VERSION:0.83;
#TITLE:Gimme! Gimme! Gimme! (A Man After Midnight);
#SUBTITLE:;
#ARTIST:ABBA;
#TITLETRANSLIT:;
#SUBTITLETRANSLIT:;
#ARTISTTRANSLIT:;
#GENRE:;
#ORIGIN:;
#CREDIT:;
#BANNER:Gimme! Gimme! Gimme! (A Man After Midnight).png;
#BACKGROUND:;
#PREVIEWVID:;
#JACKET:;
#CDIMAGE:;
#DISCIMAGE:;
#LYRICSPATH:;
#CDTITLE:;
#MUSIC:song.ogg;
#OFFSET:0.000000;
#SAMPLESTART:68.125000;
#SAMPLELENGTH:15.000000;
#SELECTABLE:YES;
#DISPLAYBPM:115.000000;
#BPMS:0.000=112.500,
4.000=114.000,
8.000=115.000,
12.000=118.000,
15.000=113.999,
18.000=115.000,
30.000=122.999,
31.000=104.999,
32.000=121.999,
34.000=120.000,
39.000=116.000,
41.000=121.999,
42.000=120.000,
44.000=119.000,
48.000=118.000,
50.000=118.999,
54.000=121.000,
56.000=118.000,
58.000=121.999,
60.000=116.999,
61.000=120.999,
68.000=112.999,
73.000=116.000,
74.000=119.000,
84.000=120.000,
88.000=116.000,
90.000=119.000,
93.000=120.000,
96.000=117.000,
98.000=120.000,
103.000=118.000,
105.000=119.000,
111.000=120.000,
115.000=119.000,
120.000=120.000,
123.000=119.000,
143.000=120.000,
146.000=119.000,
152.000=120.900;
#STOPS:30.000=0.975;
#DELAYS:;
#WARPS:;
#TIMESIGNATURES:0.000=4=4;
#TICKCOUNTS:0.000=4;
#COMBOS:0.000=1;
#SPEEDS:0.000=1.000=0.000=0;
#SCROLLS:0.000=1.000;
#FAKES:;
#LABELS:0.000=Song Start;
#LASTSECONDHINT:94.101944;
#BGCHANGES:;
#KEYSOUNDS:;
#ATTACKS:
;

//---------------dance-single - ----------------
#NOTEDATA:;
#CHARTNAME:;
#STEPSTYPE:dance-single;
#DESCRIPTION:;
#CHARTSTYLE:;
#DIFFICULTY:Beginner;
#METER:1;
#RADARVALUES:0.100624,0.159519,0.082867,0.000000,0.000000,68.000000,60.000000,8.000000,0.000000,0.000000,0.000000,0.000000,0.000000,0.000000,0.100624,0.159519,0.082867,0.000000,0.000000,68.000000,60.000000,8.000000,0.000000,0.000000,0.000000,0.000000,0.000000,0.000000;
#CREDIT:8Chasey;
#DISPLAYBPM:115.000000;
#NOTES:
0000
0000
0000
0000
,
0000
0000
0000
0000
,
0000
0000
0000
0000
,
0000
0000
0000
0000
,
0001
0000
0000
0000
,
0000
0000
0000
0000
,
1000
0000
0000
0000
,
0000
0000
1001
0000
,
0010
0000
0000
0000
,
0100
0000
0000
0000
,
0001
0000
0000
0000
,
1000
0000
0000
0000
,
0110
0000
0000
0000
,
0110
0000
0000
0000
,
1001
0000
0000
0000
,
1001
0000
0000
0000
,
0100
0000
0100
0000
,
0010
0000
0010
0000
,
0001
0000
0000
0000
,
0001
0000
0000
0000
,
1000
0000
0000
0000
,
1000
0000
0000
0000
,
0010
0000
0100
0000
,
1000
0000
0000
0000
,
1000
0000
0000
0000
,
0001
0000
0000
0000
,
0001
0000
0000
0000
,
1001
0000
0000
0000
,
0010
0000
0100
0000
,
0110
0000
0000
0000
,
1000
0000
0001
0000
,
0100
0100
0100
0000
,
0010
0010
0010
0000
,
1000
0000
1000
0000
,
0001
0000
0001
0000
,
0010
0000
0010
0000
,
0100
0000
0100
0000
,
1000
0000
0001
0000
,
0010
0000
0100
0000
,
0010
0010
0010
0000
,
0100
0100
0100
0000
,
0010
0000
0000
0000
,
0100
0000
0000
0000
,
0001
0000
1000
0000
,
1001
0000
0000
0000
;

//---------------dance-single - ----------------
#NOTEDATA:;
#CHARTNAME:;
#STEPSTYPE:dance-single;
#DESCRIPTION:;
#CHARTSTYLE:;
#DIFFICULTY:Easy;
#METER:3;
#RADARVALUES:0.195330,0.302983,0.145018,0.145018,0.000000,132.000000,118.000000,14.000000,14.000000,0.000000,0.000000,0.000000,0.000000,0.000000,0.195330,0.302983,0.145018,0.145018,0.000000,132.000000,118.000000,14.000000,14.000000,0.000000,0.000000,0.000000,0.000000,0.000000;
#CREDIT:8Chasey;
#DISPLAYBPM:115.000000;
#NOTES:
0000
0000
0000
0000
,
0000
0000
0000
0000
,
0000
0000
0000
0000
,
0000
0000
0000
0000
,
0001
0000
0001
0000
,
1000
0000
1000
0000
,
0010
0000
0100
0000
,
0001
1000
1001
0000
,
0001
0000
0010
0000
,
0100
0100
1000
0000
,
0010
0000
1000
0000
,
0100
0100
0001
0000
,
0010
0000
0100
0000
,
0001
1000
1001
0000
,
1000
0000
0001
0000
,
0100
0010
0110
0000
,
1000
0100
0010
0001
,
2000
3000
0200
0300
,
0001
0001
0010
0000
,
1000
1000
0100
0000
,
0001
0010
0100
1000
,
2002
0000
3003
0000
,
0002
0003
0200
0300
,
1000
1000
0010
0000
,
0001
0001
0100
0000
,
0100
1000
0001
0010
,
0220
0000
0330
0000
,
0020
0030
0200
0300
,
1000
1000
0001
0001
,
0200
0300
0020
0030
,
1000
1000
0001
0001
,
1000
1001
0001
1001
,
0010
0110
0100
0110
,
1000
1000
0001
0010
,
0100
0100
0010
1000
,
0001
0001
1000
1000
,
0110
0000
1001
0000
,
0001
0001
1000
0100
,
0010
0010
0100
0001
,
1000
1000
0001
0001
,
0110
0000
1001
0000
,
0010
0010
0001
0000
,
0100
0100
1000
0000
,
0010
0100
0001
1000
,
0220
0000
0000
0000
,
0330
0000
0000
0000
;

//---------------dance-single - ----------------
#NOTEDATA:;
#CHARTNAME:;
#STEPSTYPE:dance-single;
#DESCRIPTION:;
#CHARTSTYLE:;
#DIFFICULTY:Medium;
#METER:5;
#RADARVALUES:0.300394,0.326290,0.455770,0.321110,0.000000,203.000000,159.000000,44.000000,31.000000,0.000000,0.000000,0.000000,0.000000,0.000000,0.300394,0.326290,0.455770,0.321110,0.000000,203.000000,159.000000,44.000000,31.000000,0.000000,0.000000,0.000000,0.000000,0.000000;
#CREDIT:;
#DISPLAYBPM:115.000000;
#NOTES:
0000
0000
0000
0000
,
0000
0000
0000
0000
,
0000
0000
0000
0000
,
0000
0000
0000
0000
0000
0100
0001
1000
,
0020
0000
0100
0130
,
0001
0001
1000
1000
,
0200
0000
0010
0310
,
1000
0001
1001
1000
,
0101
0000
1100
0000
,
0010
0000
0100
0001
1000
0000
1001
0000
,
0001
1000
0010
0101
,
1000
0100
0010
1001
,
1010
0000
0011
0000
,
0001
0000
1000
0010
0100
0000
0110
0000
,
0001
1010
0100
0011
,
1001
0000
1001
0000
,
0010
1000
0010
0000
0100
0001
0100
0000
,
1002
0100
0013
1100
,
0001
0000
0100
0000
0010
0100
0010
0000
,
1000
0000
0100
0000
0010
0100
0010
0000
,
1002
0000
0100
0103
,
2020
0000
3030
0000
,
2001
0010
3100
0011
,
1000
0000
0010
0000
0100
0010
0100
0000
,
0001
0000
0010
0000
0100
0010
0100
0000
,
2001
0000
0100
3100
,
0022
0000
0033
2000
,
3002
0000
0203
0000
,
0000
0000
0010
0010
0310
0000
0110
0000
,
2002
3003
0120
0000
,
0000
0000
0100
0100
0130
0000
0110
0000
,
0102
0103
2100
3100
,
0120
0130
0210
0310
,
0001
1000
0001
0000
0100
0000
0010
0100
,
0000
0001
1000
0000
1001
0000
1001
0000
,
0010
0100
0001
0000
1000
0100
0010
0000
,
0220
0000
0330
2002
0000
3003
1001
0000
,
1000
0001
1000
0000
0010
0000
0100
0010
,
0000
1000
0001
0000
1001
0000
1001
0000
,
0100
0010
0001
0000
1000
0010
0100
0000
,
0220
0000
0330
2002
0000
3003
1001
0000
,
0101
0000
1100
0000
,
0011
2010
0000
3001
,
0001
0100
0001
1000
0100
1000
0001
0000
,
2002
0000
0000
0000
,
3003
0000
0000
0000
;

//---------------dance-single - ----------------
#NOTEDATA:;
#CHARTNAME:;
#STEPSTYPE:dance-single;
#DESCRIPTION:;
#CHARTSTYLE:;
#DIFFICULTY:Hard;
#METER:8;
#RADARVALUES:0.401018,0.421846,0.486845,0.642221,0.093226,271.000000,224.000000,47.000000,62.000000,0.000000,0.000000,0.000000,0.000000,0.000000,0.401018,0.421846,0.486845,0.642221,0.093226,271.000000,224.000000,47.000000,62.000000,0.000000,0.000000,0.000000,0.000000,0.000000;
#CREDIT:;
#DISPLAYBPM:115.000000;
#NOTES:
0000
0000
0000
0000
,
0000
0000
0000
0000
,
2100
0000
0000
0001
0000
0000
3010
0000
,
0102
0000
0000
0000
1000
0000
1003
0000
0000
0000
1000
0100
1000
0000
0001
0100
,
0002
0000
1000
1000
0010
0000
1003
0000
,
2100
0000
0001
0001
0010
0000
3001
0000
,
0110
0000
0001
2000
0100
0000
3020
0000
,
0130
0001
1000
0000
1002
0000
1003
0000
,
1100
0101
1002
0013
,
0100
0010
0100
0000
0020
0000
0000
0000
0001
0000
0001
0000
0031
0000
0000
0000
,
2001
0000
0100
0000
3020
0100
0130
0000
,
0102
1003
2100
3001
,
0101
1100
2001
3100
,
0010
0100
0010
0000
0200
0000
0000
0000
1000
0000
1000
0000
1300
0000
0000
0000
,
1002
0000
0010
0000
0203
0010
0310
0000
,
2100
3001
0102
1003
,
1000
0000
0100
0010
0001
0000
0000
0000
0100
0000
0010
1000
0001
0000
0000
0000
,
1002
0013
2100
3001
,
0200
0000
0001
0000
0301
0000
0000
0010
0000
0000
0110
0000
0000
0000
2000
0000
,
3002
0000
0000
0000
0010
0000
0000
0100
0003
0000
0010
0000
0010
0000
0201
0000
,
0002
0000
0300
0000
1000
0000
0000
1000
0003
0000
1000
0000
0001
0000
0000
0000
,
2100
0000
0000
0100
0000
0000
0001
0000
3001
0000
0000
0000
1001
0000
0000
0000
,
2001
3010
0102
1003
,
0200
0000
1000
0000
1300
0000
0010
0001
0000
0000
0011
0000
0000
0000
0001
0000
,
2000
0000
0100
0000
0100
0000
0000
0001
3000
0000
0020
0000
0130
0000
0002
0000
,
2003
0000
0000
0000
3020
0000
0000
0230
0000
0000
0001
0000
0301
0000
0000
0000
,
1002
0203
0310
0110
,
1002
0000
0000
0000
0100
0000
0100
0000
0010
0000
0000
0010
0000
0000
2003
0000
,
0000
0000
0100
0000
0000
0100
0000
0000
3100
0000
0000
0000
0110
0000
0000
0000
,
0012
0000
0000
0000
1000
0000
1000
0000
0100
0000
0000
0100
0000
0000
0023
0000
,
0000
0000
0100
0000
0000
0100
0000
0000
0130
0000
0000
0000
0110
0000
0000
0000
,
2001
3200
0310
0000
0012
2003
3100
0000
,
1001
0000
0101
0000
1000
0010
1001
0000
,
0100
0001
1000
0100
0010
0002
0000
0010
,
0000
0100
0100
1000
0000
0023
0000
0000
,
0130
0000
0210
0000
0301
2000
3001
0000
,
0101
0010
2000
0002
0000
3003
1001
0000
,
0010
1000
0001
0010
0100
2000
0000
0100
,
0000
0010
0010
0001
0000
3200
0000
0000
,
0310
0000
1001
0000
0010
0100
0110
0000
,
1000
0001
0000
1002
0000
0203
0310
2000
,
3002
0000
0010
0000
0023
0130
0110
0000
,
1000
0100
1000
0000
1002
0000
0000
0000
0100
0000
0100
0000
0013
0000
0000
0000
,
1100
0000
0000
0101
0000
0010
0100
0002
,
2000
0000
0000
0000
,
0000
3003
0000
0000
;

//---------------dance-single - ----------------
#NOTEDATA:;
#CHARTNAME:;
#STEPSTYPE:dance-single;
#DESCRIPTION:;
#CHARTSTYLE:;
#DIFFICULTY:Challenge;
#METER:9;
#RADARVALUES:0.547515,0.679641,0.279677,0.310752,0.372902,370.000000,343.000000,27.000000,30.000000,0.000000,0.000000,0.000000,0.000000,0.000000,0.547515,0.679641,0.279677,0.310752,0.372902,370.000000,343.000000,27.000000,30.000000,0.000000,0.000000,0.000000,0.000000,0.000000;
#CREDIT:;
#DISPLAYBPM:115.000000;
#NOTES:
0000
0000
0000
0000
,
0000
0000
0000
0000
,
0000
0000
0000
0000
,
0000
0000
0000
0000
0000
0000
0000
0000
0000
0000
1000
0010
1000
0001
0100
0010
,
0200
0001
0301
0000
0002
1000
1003
0000
,
0020
0100
0130
0000
2000
0100
3100
0000
,
0010
0000
0100
0000
0001
0000
0000
1000
0100
0000
1000
0000
0010
0000
0000
0100
,
0001
0000
0010
0000
0001
0000
0000
1000
0002
0000
0000
0000
0103
0000
0000
0000
,
0010
0000
1000
0100
1000
0000
0001
0000
0001
0000
0010
0001
0010
0000
0100
0000
,
1000
0100
0010
0100
0010
0000
0000
0000
0001
0000
0100
0001
0100
0000
0000
0100
,
0010
0000
0010
0000
0110
0000
0000
0000
1000
0000
0100
1000
0001
0000
0000
0000
,
0011
0000
0000
0000
0100
0001
0100
0000
0010
0000
1000
0100
0010
0000
0010
0100
,
1000
0000
0001
0000
1001
0000
0000
0000
0010
0000
0100
0010
1000
0000
1000
0000
,
0001
0100
0010
0100
0010
0000
0000
0000
1000
0000
0100
0000
1100
0000
0010
0000
,
0010
0000
0000
0000
0001
0000
0100
0000
0010
0000
1000
0100
1000
0001
0100
0000
,
0020
1000
1030
0100
0020
0001
0031
0100
,
0001
0000
1000
0100
1000
0000
0001
0100
0001
0000
0010
0100
0010
0000
0001
1000
,
0002
0000
2003
0000
3020
0000
0130
0010
,
0110
0000
0000
0000
0001
0000
0100
0001
0010
0000
0010
0000
1010
0000
0100
0000
,
0001
0000
0000
0000
0001
0000
0010
0001
0100
0000
0010
0000
1000
0000
1100
0000
,
1001
0000
0000
0000
0010
0000
0100
0010
0000
0100
0010
0000
1000
0000
0001
0000
,
2000
0000
0010
0010
3100
1000
0010
0000
,
0101
0000
0000
0000
1100
0000
0000
0000
0010
0000
0100
0010
1000
0001
1000
0000
,
0001
0000
0000
0000
0100
0000
0001
0010
0001
0000
0100
0000
0010
0000
2000
0000
,
3001
0000
0001
0000
0001
0010
0001
0100
0001
0000
1000
0000
1000
0000
0010
0000
,
0110
0000
0100
0000
0001
0000
0010
0001
0000
0010
0001
0000
1000
0000
0100
0000
,
0020
0000
0100
0000
0031
0001
2001
0000
,
3010
0000
0100
0000
0001
0000
0010
0001
0010
0000
0000
1001
0000
0000
0101
0000
,
0000
0000
2010
0000
0000
0001
0000
0000
3200
0000
0000
0320
0000
0000
1000
0000
,
1030
0000
0001
0000
0100
0000
0001
0010
0001
0000
1000
0000
0100
0000
2000
0000
,
0001
0000
3002
0000
0000
0023
0000
0000
0032
0000
0000
1000
0000
0000
0103
0000
,
0010
1000
0010
1000
0100
1000
0001
0000
0010
0001
0010
0001
0100
0001
1000
0000
,
0100
0010
1000
0001
0100
0001
0100
0000
0010
1000
0001
0100
0010
1000
0100
0000
,
0001
0011
1000
1010
0010
0110
0001
0200
,
0000
0310
1000
0100
1000
2200
3300
0001
,
0010
0001
0010
0000
0100
0000
0010
1000
0000
0010
1000
0000
0100
0000
0100
0000
,
1001
0000
0010
0000
0100
0000
0002
0000
0000
0000
1003
0100
1000
0000
0001
0100
,
0001
0011
0001
1001
0001
0101
0010
0200
,
0000
0000
1300
0000
0001
0000
0100
0010
0100
0000
0002
0000
0000
0000
0103
0000
,
0010
0000
0100
0000
0010
0000
1000
0100
1000
0000
0001
0000
0001
0000
0010
0000
,
0011
0000
1000
0000
0100
0000
1001
0000
0000
0000
1000
0010
0100
0000
0001
0010
,
0200
0000
0000
0000
1000
0000
1000
0000
1300
0000
0001
1000
0001
0000
0010
0100
,
0010
0100
0010
0000
0110
0000
0000
0000
0001
0000
0100
0000
0010
0000
0010
0000
,
1000
0100
1000
0000
0010
0100
0010
0000
1000
0001
0100
0010
1000
0001
0100
0000
,
0220
0000
0000
0000
,
0000
0330
0000
0000
;

//---------------dance-double - ----------------
#NOTEDATA:;
#CHARTNAME:;
#STEPSTYPE:dance-double;
#DESCRIPTION:;
#CHARTSTYLE:;
#DIFFICULTY:Easy;
#METER:2;
#RADARVALUES:0.159815,0.209758,0.103584,0.155376,0.000000,108.000000,98.000000,10.000000,15.000000,0.000000,0.000000,0.000000,0.000000,0.000000,0.159815,0.209758,0.103584,0.155376,0.000000,108.000000,98.000000,10.000000,15.000000,0.000000,0.000000,0.000000,0.000000,0.000000;
#CREDIT:;
#DISPLAYBPM:115.000000;
#NOTES:
// measure 0
00000000
00000000
00000000
00000000
,  // measure 1
00000000
00000000
00000000
00000000
,  // measure 2
00000000
00000000
00000000
00000000
,  // measure 3
00000000
00000000
00000000
00000000
,  // measure 4
00001000
00000000
00010000
00000000
,  // measure 5
00001000
00000000
00010000
00000000
,  // measure 6
00001000
00000000
00010000
00000000
,  // measure 7
00001000
00010000
00011000
00000000
,  // measure 8
00100000
00000000
00010000
00000000
,  // measure 9
00100000
00000000
00010000
00000000
,  // measure 10
01000000
00000000
00100000
00000000
,  // measure 11
01000000
01000000
00010000
00000000
,  // measure 12
00100000
00000000
00001000
00000000
,  // measure 13
00010000
00000000
00000100
00000000
,  // measure 14
00001000
00000000
00000001
00000000
,  // measure 15
00000100
00000010
00000110
00000000
,  // measure 16
00000001
00000010
00000100
00001000
,  // measure 17
00020000
00030000
02000000
03000000
,  // measure 18
00010000
00000000
00100000
00000000
,  // measure 19
00001000
00000000
00010000
00000000
,  // measure 20
00000100
00001000
00000001
00000010
,  // measure 21
00000020
00000000
00000000
00000030
,  // measure 22
00020000
00030000
00000200
00000300
,  // measure 23
00010000
00000000
00001000
00000000
,  // measure 24
00100000
00000000
01000000
00000000
,  // measure 25
10000000
10000000
00010000
00010000
,  // measure 26
00200000
00000000
00300000
00000000
,  // measure 27
00200000
00300000
02000000
03000000
,  // measure 28
00001000
00000000
00010000
00000000
,  // measure 29
00022000
00000000
00033000
00000000
,  // measure 30
00001000
00010000
00001000
00010000
,  // measure 31
00001000
00010000
00011000
00000000
,  // measure 32
00100000
00010000
10000000
01000000
,  // measure 33
00100000
00000000
00010000
00000000
,  // measure 34
10010000
00000000
00100000
00000000
,  // measure 35
00001000
00010000
00011000
00000000
,  // measure 36
00010000
00000100
00001000
00000000
,  // measure 37
00000001
00000001
00001000
00001000
,  // measure 38
00000020
00000000
00000030
00000000
,  // measure 39
00001000
00000100
00010000
00001000
,  // measure 40
00011000
00000000
10010000
00000000
,  // measure 41
00200000
00000000
00310000
00000000
,  // measure 42
00100000
00002000
00003000
00010000
,  // measure 43
00001000
00000000
00011000
00000000
,  // measure 44
02200000
00000000
00000000
00000000
,  // measure 45
03300000
00000000
00000000
00000000
;

//---------------dance-double - ----------------
#NOTEDATA:;
#CHARTNAME:;
#STEPSTYPE:dance-double;
#DESCRIPTION:;
#CHARTSTYLE:;
#DIFFICULTY:Medium;
#METER:4;
#RADARVALUES:0.267839,0.326290,0.113942,0.341827,0.000000,181.000000,170.000000,11.000000,33.000000,0.000000,0.000000,0.000000,0.000000,0.000000,0.267839,0.326290,0.113942,0.341827,0.000000,181.000000,170.000000,11.000000,33.000000,0.000000,0.000000,0.000000,0.000000,0.000000;
#CREDIT:;
#DISPLAYBPM:115.000000;
#NOTES:
// measure 0
00000000
00000000
00000000
00000000
,  // measure 1
00000000
00000000
00000000
00000000
,  // measure 2
00000000
00000000
00000000
00000000
,  // measure 3
00000000
00000000
00000000
00000000
00000000
00001000
00010000
00000000
,  // measure 4
00000200
00001000
00000000
00001300
,  // measure 5
00000100
00010000
00001000
00100000
,  // measure 6
02000000
00100000
00000000
03100000
,  // measure 7
00010000
00100000
00001000
00011000
,  // measure 8
00010000
00000100
00001000
00000100
,  // measure 9
00010000
00001000
00020000
00000000
00000000
00000000
00031000
00000000
,  // measure 10
00010000
10000000
00100000
01010000
,  // measure 11
10000000
01000000
00100000
10010000
,  // measure 12
00100000
01000000
00010000
00100000
,  // measure 13
00001000
00020000
00000000
00031000
,  // measure 14
00010000
00000100
00001000
00000010
,  // measure 15
00002002
00000000
00003003
00000000
,  // measure 16
00000001
00001000
00000001
00000000
00001000
00000001
00001000
00000000
,  // measure 17
00000020
00000230
00000320
00000030
,  // measure 18
00001000
00000100
00010000
00000000
00001000
00010000
00001000
00000000
,  // measure 19
00100000
00010000
10000000
00000000
00100000
10000000
00010000
00000000
,  // measure 20
00200000
00301000
00020000
00030100
,  // measure 21
00022000
00000000
00033000
00000000
,  // measure 22
00020000
00000000
02030000
00000000
23000000
00000000
30010000
00100000
,  // measure 23
00001000
00000000
00010000
00000000
00000100
00001000
00000010
00000000
,  // measure 24
00000001
00001000
00000001
00000000
00000010
00000001
00000100
00000000
,  // measure 25
00000020
00001030
00000200
00010300
,  // measure 26
00022000
00000000
00033000
00200000
,  // measure 27
00320000
00000000
10000000
00000000
02030000
00000000
00000000
00010000
,  // measure 28
00000000
00010000
03100000
10010000
,  // measure 29
00110000
00000000
00001000
00000000
00020000
00000000
00000000
00000100
,  // measure 30
00000000
00001000
00031000
00110000
,  // measure 31
00100000
00001000
00010000
00000000
00000100
00010000
00001000
00000000
,  // measure 32
00010000
00000100
00001000
00000000
00000010
00000000
00001001
00000000
,  // measure 33
00000100
00001000
00000010
00000000
00000010
00000100
00000001
00001000
,  // measure 34
00000000
00000000
00000010
00000000
00001000
00000001
00000100
00000000
,  // measure 35
00000020
00001030
00000200
00010300
,  // measure 36
00001000
00000000
00010000
00002000
00000000
00000000
00013000
00000000
,  // measure 37
00010000
01000000
00100000
00000000
00010000
00100000
00001000
00010000
,  // measure 38
00000000
00000000
00010000
00000000
00010000
00001000
00010000
00000000
,  // measure 39
00000200
00001300
00000020
00000130
,  // measure 40
00000001
00000000
00000001
00002000
00000000
00000000
00003010
00000000
,  // measure 41
00010000
00001000
00100000
00010000
,  // measure 42
10000000
00010000
20000000
00000000
00000000
00000000
30010000
00000000
,  // measure 43
00100000
00001000
00010000
00000000
00000100
00001000
00000010
00000000
,  // measure 44
00000220
00000000
00000000
00000000
,  // measure 45
00000330
00000000
00000000
00000000
;
