#TITLE:Fury of the Storm;
#SUBTITLE:;
#ARTIST:DragonForce;
#TITLETRANSLIT:;
#SUBTITLETRANSLIT:;
#ARTISTTRANSLIT:;
#GENRE:Power Metal;
#CREDIT:8Chasey 2025;
#MUSIC:Fury of the Storm.ogg;
#BANNER:Fury of the Storm-bn.png;
#BACKGROUND:Fury of the Storm-bg.png;
#CDTITLE:cdtitle.png;
#SAMPLESTART:108.850;
#SAMPLELENGTH:12.000;
#SELECTABLE:YES;
#OFFSET:0.641;
#BPMS:0.000=200.000
,28.000=400.000
,34.000=200.000
,35.000=400.000
,156.000=100.000
,160.000=400.000
,280.000=200.000
,290.000=400.000
,482.000=200.000
,494.000=400.000
,502.000=200.000
,518.000=400.000
,638.000=100.000
,640.000=400.000
,696.000=200.000
,700.000=400.000
,732.000=200.000
,736.000=225.000
,738.000=180.000
,740.000=400.000
,860.000=200.000
,862.000=400.000
,926.000=200.000
,938.000=400.000
,946.000=200.000
,962.000=400.000
,1082.000=100.000
,1084.000=400.000
,1140.000=200.000
,1144.000=400.000
,1176.000=200.000
,1180.000=225.000
,1182.000=180.000
,1184.000=200.000
,1216.000=400.000
,1224.000=200.000
,1289.000=400.000
,1290.000=200.000
,1291.000=400.000
,1292.000=200.000
,1297.000=400.000
,1298.000=200.000
,1299.000=400.000
,1300.000=200.000
,1305.000=400.000
,1306.000=200.000
,1307.000=400.000
,1308.000=200.000
,1313.000=400.000
,1314.000=200.000
,1315.000=400.000
,1316.000=200.000
,1384.000=400.000
,1624.000=200.000
,1631.000=400.000
,1696.000=200.000
,1728.000=400.000
,1856.000=200.000
,1872.000=400.000
,2064.000=100.000
,2076.000=200.000
,2084.000=400.000
,2140.000=200.000
,2144.000=400.000
,2208.000=200.000
,2212.000=225.000
,2214.000=180.000
,2216.000=400.000
,2224.000=300.000
,2227.000=290.000
,2227.500=280.000
,2228.000=270.000
,2228.500=260.000
,2229.000=250.000
,2229.500=240.000
,2230.000=230.000
,2230.500=220.000
,2231.000=210.000
,2231.500=200.000
;
#STOPS:28.000=0.150
,29.000=0.150
,30.000=0.150
,31.000=0.150
,32.000=0.150
,33.000=0.150
,35.000=0.150
,289.000=0.600
,861.000=0.600
,1289.000=0.150
,1291.000=0.150
,1297.000=0.150
,1299.000=0.150
,1305.000=0.150
,1307.000=0.150
,1313.000=0.150
,1315.000=0.150
,1631.000=0.150
;
#DISPLAYBPM:*;
#BGCHANGES:;
#FGCHANGES:;

//--------------- dance-single - 8Chasey ----------------
#NOTES:
     dance-single:
     8Chasey:
     Easy:
     9:
     0,0,0,0,0:
0000
0000
0000
0000
,
1001
0000
1000
0000
0010
1000
0020
0000
,
0130
0000
0001
0000
0010
0001
0020
0000
,
0130
0000
0010
0100
0020
0000
0130
0000
,
1000
0010
1000
0000
0001
0100
0001
0000
,
1001
0000
0001
0000
0100
0010
0200
0000
,
0310
0000
1000
0000
0100
0010
0200
0000
,
1300
1000
0001
0001
,
0100
0000
0010
0000
0100
0010
0200
0000
,
0301
0100
0001
0000
,
0010
0000
0100
0000
,
1000
0010
1000
0000
,
0100
0000
0010
0000
,
0001
1000
0001
0000
,
1000
0001
1000
0000
,
1100
0000
0011
0000
,
1001
0000
0020
0000
,
0130
1000
0100
0000
,
1000
0000
0001
0000
,
0010
0001
0010
0000
,
0001
0000
1000
0000
,
0010
0100
0010
0000
,
1000
0001
1000
0000
,
1010
0000
0101
0000
,
0110
0000
0200
0000
,
0301
1000
0001
0000
,
0010
0000
0100
0000
,
1000
0001
1000
0000
,
0100
0000
0010
0000
,
0001
0010
0001
0000
,
1000
0100
1000
0000
,
1010
0000
0011
0000
,
0010
0100
0020
0000
,
0130
1000
0100
0000
,
1000
0000
0010
0000
,
0100
0001
0100
0000
,
0001
0000
0010
0000
,
0100
0010
0000
0100
,
0010
0000
0110
0000
,
2002
0000
0000
3003
,
0001
0000
0010
0000
,
0001
1000
0001
0000
,
1000
0000
0010
0000
,
1000
0001
1000
0000
,
0001
0000
0100
0000
,
0010
0100
0010
0000
,
1000
0000
0010
0000
,
0100
0010
0100
0000
,
0001
0000
0010
0000
,
0001
0100
0001
0000
,
1000
0000
0100
0000
,
1000
0010
1000
0000
,
0010
0000
0100
0000
,
0001
1000
0001
0000
,
1000
0100
1000
0000
,
0001
0100
0001
0000
,
0010
0000
0100
0000
,
1000
0010
1000
0000
,
0100
0000
0010
0000
,
0001
0100
0001
0000
,
0100
0000
0010
0000
,
1000
0001
1000
0000
,
0001
1000
0000
0001
,
1000
0000
1001
0000
,
0001
0000
0010
0000
,
0100
0010
0100
0000
,
1000
0000
0010
0000
,
0100
0010
0100
0000
,
0001
1000
0001
0000
,
1000
0001
1000
0000
,
0010
0100
0010
0000
1000
0000
0100
0000
,
0020
0000
0100
0130
,
0010
1001
0001
0000
,
0100
0001
0100
0000
,
0010
0000
1000
0000
,
0010
0100
0000
0110
,
0000
0000
0100
0001
,
0100
0000
0001
0000
,
1000
0100
1000
0000
,
0100
0020
0000
0000
,
0030
0000
1000
0000
,
0010
1000
0010
0000
,
0100
0000
0001
0000
,
0100
0010
0000
0110
,
0000
0000
0010
1000
,
0010
0000
1000
0000
,
0001
0010
0001
0000
,
0010
0200
0000
0000
,
0300
0000
1000
0000
,
0010
0000
0100
0010
,
0100
0000
0001
0000
,
0010
0000
0100
0010
,
0100
0000
1000
0000
,
0001
0000
0100
0010
,
0100
0000
0010
0000
,
0100
0000
0001
1000
,
0001
0000
1001
0000
,
1000
0000
0010
1000
,
0010
0000
1000
0000
,
0001
0000
0100
0001
,
0100
0000
0010
0100
,
0010
0000
0100
0010
,
0100
0000
0101
0000
,
0000
1100
0000
0000
,
1001
0000
1000
0000
,
0010
0100
0010
0000
,
0100
0000
0001
0000
,
0010
0001
0000
1001
,
0000
0000
1000
0100
,
1000
0000
0010
0000
,
0100
0001
0100
0000
,
0001
2000
0000
0000
,
3000
0000
0001
0000
,
0100
0010
0100
0000
,
0010
0000
1000
0000
,
0100
1000
0000
1001
,
0000
0000
0001
0010
,
0001
0000
0100
0000
,
0010
1000
0010
0000
,
1000
0002
0000
0000
,
0003
0000
0000
0000
0010
0000
0001
0100
,
0000
0000
0001
0000
1000
0000
0000
0001
,
0000
0000
1000
0000
0100
0000
0010
0100
,
0000
0010
0001
0000
,
0001
1000
0000
1000
,
0010
0000
0100
0001
,
0100
0000
0010
0000
1000
0000
0001
1000
,
0000
0000
0001
0000
0100
0000
0010
0100
,
0000
0000
0010
0000
1000
0000
0001
1000
,
0000
0001
1000
0000
0001
0000
0000
0000
,
0010
0000
0110
0000
,
0100
0020
0000
0000
,
0031
0000
0100
0000
,
0010
0000
1000
0000
,
0001
1000
0000
0000
,
1001
0000
0002
0000
,
0000
1003
0000
0000
,
0100
0000
0020
0000
,
0000
0130
0000
0000
,
1000
0000
0001
0000
,
0100
0000
0010
0000
,
0100
0000
0110
0000
,
0000
0002
0000
0000
,
1003
0000
0100
0000
,
0010
0200
0000
0000
,
0310
0000
1001
0000
,
0001
0000
1000
0000
,
1000
0000
0001
0000
,
0100
0020
0000
0000
,
0130
0000
0010
0000
,
1000
0002
0000
0000
,
1003
0000
0200
0000
,
0000
0000
0310
0000
,
0100
0000
2000
0000
,
0000
3001
0000
0000
,
0010
0000
0001
0000
,
1000
0001
0000
0000
,
1000
0000
1001
0000
,
0000
0001
0000
0000
,
1000
0000
0020
0030
,
0100
0000
0000
0001
,
0100
0000
0001
0000
,
1000
0001
0000
0000
,
1000
0000
0100
0000
,
0010
0000
0000
0100
,
0010
0000
0100
0000
,
1000
0001
0000
0000
,
0100
0000
0001
0000
,
0020
0000
0000
0130
,
0000
0000
0010
0000
,
0200
0000
0000
0310
,
0000
0000
0100
0000
,
1001
0000
0000
1000
,
0000
0000
0001
0000
,
0100
0000
0010
0000
1000
0001
1000
0000
,
0002
0000
0000
0013
,
0000
0000
0001
0000
,
1000
0001
0000
0000
,
1000
0000
0100
0000
,
2000
0000
0000
3010
,
0000
0000
1000
0000
,
0001
1000
0000
0000
,
0010
0000
0100
0000
,
0020
0000
0000
0130
0000
0000
0001
0000
,
2000
0000
3000
0000
,
1001
0000
0000
0001
,
0000
0000
0010
0000
,
0001
0000
0000
1000
,
0000
0000
0100
0000
,
0010
0000
0100
0010
,
0000
0000
0010
0000
,
0100
0000
0010
0100
,
0000
0000
0100
0000
,
1000
0000
0001
1000
,
0000
0000
0001
0000
,
0100
0000
0010
0100
,
0000
0000
0100
0000
,
0001
0000
0000
1001
,
0000
0000
1000
0000
,
0010
0000
0000
0110
,
0000
0000
0100
0000
,
0001
0000
0000
0110
,
0000
0000
1000
0000
,
0010
0100
0010
0100
,
0000
0000
0001
0000
,
1000
0001
1000
0001
,
0000
0000
0100
0000
,
0020
0000
0130
0010
,
0000
0000
0100
0000
,
0001
0000
0000
1001
,
0000
0000
1000
0000
,
0010
0000
0010
0100
,
0000
0100
0010
0000
,
1000
0001
1000
0000
,
0001
1000
0001
0000
,
0100
0110
0010
0000
,
1000
0100
1000
0000
,
0001
0000
0100
0000
,
0010
1000
0000
1001
,
0000
0000
0001
0000
,
0010
0001
0010
0000
,
0100
0000
1000
0000
,
0100
0020
0000
0000
,
0130
0000
0010
0000
,
0001
0010
0001
0000
,
1000
0000
0010
0000
,
0100
0001
0000
1001
,
0000
0000
1000
0000
,
0100
1000
0100
0000
,
0010
0000
0001
0000
,
0010
0200
0000
0000
,
0300
0000
0000
0000
0010
0000
1000
0010
,
0000
0000
0100
0000
0001
0000
0000
1000
,
0000
0000
0001
0000
0010
0000
0100
0010
,
0000
0100
1000
0000
,
0010
0100
0000
0010
,
0100
0000
0000
0000
0001
0000
0100
0010
,
0100
0000
0010
0000
1000
0000
0100
0010
,
0000
0000
0001
0000
0100
0000
0001
1000
,
0000
0001
1100
0101
,
0001
1000
0001
1000
0020
0000
0000
0000
,
0100
0000
0130
0000
,
0010
2000
0000
0000
,
3001
0000
0010
0000
,
0010
0000
0001
0000
,
1000
0002
0000
0000
,
0103
0000
0110
0000
,
0000
1001
0000
0000
,
1000
0000
0001
0000
,
0010
0200
0000
0000
,
0310
0000
0100
0000
,
1000
0000
0001
0000
,
0100
0000
0020
0000
,
0000
1030
0000
0000
,
0001
0000
0200
0000
,
0300
0100
0010
0000
,
0110
0000
0200
0000
,
0001
0000
0301
0000
,
0010
0000
0002
0000
,
0000
1003
0000
0000
,
0100
0000
1000
0000
,
0001
1000
0000
0000
,
0001
0000
0020
0000
,
0000
0000
0130
0000
,
0010
0000
0100
0000
,
1000
0200
0000
0000
,
1300
0000
0001
0000
,
0000
0020
0000
0000
,
0130
0000
0010
0100
,
0000
0100
0010
0000
,
0001
0000
0020
0030
,
0100
0000
0000
1000
,
0100
0000
1000
0000
,
0001
1000
0000
0000
,
0001
0000
0100
0000
,
0010
0000
0000
0100
,
0010
0000
0100
0000
,
0001
1000
0000
0000
,
0100
0000
1000
0000
,
0020
0000
0000
0130
,
0000
0000
0010
0000
,
0200
0000
0000
0310
,
0000
0000
0100
0000
,
1001
0000
0000
0001
,
0000
0000
1000
0000
,
0100
0000
0010
0000
0001
1000
0001
0000
,
2000
0000
0000
3010
,
0000
0000
1000
0000
,
0001
1000
0000
0000
,
0001
0000
0100
0000
,
0002
0000
0000
0013
,
0000
0000
0001
0000
,
1000
0001
0000
0000
,
0010
0000
0100
0000
,
0020
0000
0000
0130
0000
0000
1000
0000
,
0002
0000
0003
0000
,
1000
0000
0001
0000
,
1001
0000
0100
0100
,
0010
0000
1000
0000
0001
1000
0001
0000
,
1000
0010
0010
0100
,
0001
0000
1000
0000
0010
0100
0010
0000
,
0200
0000
0310
0010
,
1000
0000
0100
0000
1000
0001
1000
0000
,
0001
0010
0010
0110
,
0200
0000
0320
0000
,
0031
1000
0002
0000
,
1003
0000
0001
0000
1000
0100
1000
0000
,
0001
0000
1000
0000
0001
0100
0001
0000
,
0010
0100
0110
1001
,
1000
0001
0000
2000
0000
0000
3001
0000
,
0010
0000
0001
0000
0100
0010
0100
0000
,
0010
0000
1000
0010
0000
2000
0000
0000
,
3001
0000
1000
0001
0000
0000
0010
0000
,
0100
0000
0010
0100
0000
0000
0010
0000
,
0001
0100
0000
0001
0100
0000
0001
0000
,
0010
0100
1000
1001
,
1000
0000
0100
1000
0000
0100
1000
0000
,
0010
0100
0001
1001
,
0100
0000
0001
0000
0010
0001
0010
0000
,
0100
1000
0100
0000
1000
0000
0010
0000
,
0100
0000
0010
0100
0000
0002
0000
0000
,
1003
0000
0001
1000
0000
0001
0100
0000
,
0110
0010
0110
0100
,
0001
0010
0001
0000
1000
0010
1000
0000
,
1001
0001
1001
1000
,
0100
1000
0100
0000
0010
0001
0010
0000
,
0110
1000
0110
0001
,
0100
0001
0100
0000
0010
0010
0010
0000
,
1001
0100
1001
0010
,
1000
0100
1000
0000
0001
0000
0020
0000
,
0130
0000
1000
0000
0001
1000
0001
0000
,
0100
0010
0100
0000
0100
0000
0020
0000
,
1030
0100
0010
0001
,
1000
0001
1000
0000
0002
0000
0013
0000
,
0001
0000
0100
0001
0200
0000
0310
0000
,
1000
0000
0100
1000
0200
0000
0310
0000
,
0001
0010
0001
0000
1000
0100
1000
0000
,
0010
1001
0100
1001
,
0001
0000
0001
1000
0000
1000
0010
0000
,
0100
0010
0000
0200
0000
0000
0301
0020
,
0000
0130
1000
0001
,
1001
0000
0001
0200
0000
0000
0310
0000
,
1000
0000
0100
1000
0000
0001
1000
0000
,
0001
0000
0010
0001
0000
0100
0020
0000
,
0130
0000
0100
0001
0000
0001
1000
0000
,
1000
0010
1000
0000
0100
0010
0100
0000
,
0010
0001
0100
0000
,
0010
0100
0010
0100
,
0010
1000
0100
0000
,
0010
0100
0010
0100
,
1000
0010
1000
0000
,
0100
1000
0100
1000
,
0001
0010
0001
0000
,
0100
0001
0100
0001
,
0010
0100
0010
0000
,
0001
0100
0001
0100
,
0010
0100
0010
0000
,
1000
0100
1000
0100
,
0010
0100
1000
0000
,
0001
1000
0001
1000
,
0010
0100
0001
0000
,
1000
0001
1000
0001
,
0100
0000
0110
0000
,
0010
1000
0010
0000
,
1000
0000
1100
0000
,
1000
0001
1000
0000
,
0010
0000
0110
0000
,
0100
0001
0100
0000
,
0001
0000
0011
0000
,
0001
1000
0001
0000
,
1000
0000
1001
0000
,
0001
0100
0001
0000
,
1000
0000
1010
0000
,
0010
0010
0100
0000
,
0001
0000
1001
0000
,
1000
0010
1000
0000
,
0001
0000
0101
0000
,
0100
0100
0010
0000
,
0110
0000
0100
0001
,
0100
0001
0100
0000
,
0010
0000
1000
0001
,
1000
0000
0002
0000
,
1003
0000
0100
1000
,
0100
1000
0100
0000
,
0010
0000
0001
1000
,
0001
0000
2000
0000
,
3010
0000
0100
0010
,
0100
0010
0100
0000
,
0001
0100
0001
0000
,
1000
0010
1000
0000
,
1001
0000
0001
1000
,
0001
1000
0001
0000
,
0100
0010
0100
0000
,
0010
0100
0010
0000
,
0100
0000
0110
0000
,
0010
1000
0010
0000
,
1000
0000
1100
0000
,
1000
0001
1000
0000
,
0010
0000
0110
0000
,
0100
0001
0100
0000
,
0001
0000
0011
0000
,
0001
1000
0001
0000
,
1000
0000
1001
0000
,
0001
0100
0001
0000
,
1000
0000
1001
0000
,
0001
1000
0001
0000
,
0010
0010
0100
0100
,
1000
0001
1000
0002
,
0103
0000
0010
0000
,
1000
0000
0001
0000
,
1000
0001
0000
1000
,
0001
0000
1001
0000
,
1000
0001
1000
0000
,
0001
0000
0100
0000
,
0010
0020
0000
0030
,
0100
0200
0000
0300
,
0110
0000
0010
1000
,
0010
0000
1000
0001
,
1000
0000
0001
0100
,
0001
0000
0020
0000
,
0130
0100
0010
0000
,
0001
1000
0001
0000
,
1000
0000
0001
1000
,
0000
0001
1000
0000
,
0001
0100
0010
1000
,
0100
1000
0100
0000
0010
0000
0001
0000
,
1000
0001
0100
0010
,
0200
0000
0020
0330
,
1000
0000
0100
0000
0010
0001
0010
0000
,
0001
0200
0310
0020
,
1030
0000
0000
0001
0000
0000
1000
0000
,
0002
0000
1000
1003
,
0001
0000
0100
0000
,
0010
0100
0020
0000
,
1030
0000
0100
0000
,
0010
0010
0002
0000
,
1003
0000
0010
0000
,
0100
0000
0001
0000
,
1000
0000
1000
0002
,
1003
0000
1000
0002
,
0103
0000
0100
0010
,
0000
0010
0100
0000
,
0001
0000
0010
0001
,
0000
1000
0002
0000
,
0103
0000
0010
1000
,
0000
0100
0010
0000
,
0001
1000
0000
1000
,
0100
0000
0020
0000
,
0032
0003
0001
1000
,
0000
0100
1000
0000
,
0010
0000
1000
0001
,
0000
0100
0001
0000
,
0010
0000
0100
0000
,
0010
0100
0010
0000
,
0100
0000
1000
0001
,
1000
0000
0001
0000
,
0011
0000
1100
0000
,
1000
0001
1000
0000
,
1010
0000
0101
0000
,
0001
1000
0001
0000
,
0010
0000
0100
0010
,
0100
0000
1000
0000
,
1010
0000
0101
0000
,
0001
1000
0001
0000
,
0022
0033
0220
0330
,
2200
3300
2002
3003
,
2020
3030
0202
0303
,
2002
3003
0220
0330
,
0100
0002
0000
0013
,
0001
1000
0000
0000
0001
0000
1000
0000
,
0100
1000
0100
0000
,
0020
0000
0130
0000
,
0100
0010
0001
0000
,
0101
0000
0100
0010
,
0100
0000
0010
1000
,
0020
0000
1030
0000
,
0100
0010
0100
0000
,
0010
0000
0001
0100
,
0000
0001
1000
0000
,
2002
0000
3003
0000
,
0001
0100
0000
0001
,
0100
0000
0010
0000
,
1000
0001
1000
0000
,
0001
1000
0001
0000
,
0010
0000
0001
0100
,
0001
0000
1000
0000
,
0100
0000
0010
0100
,
0010
0000
0100
0000
,
0010
0001
0010
0000
,
0100
1000
0100
0000
,
1000
0001
0000
1000
,
0020
0000
0000
0000
,
0130
0000
0110
0000
,
0110
0000
0010
0000
,
1000
0001
1000
0002
,
0003
0001
1000
0000
,
0001
0100
0002
0000
,
0023
0000
0230
0000
,
1300
0100
1000
0000
,
0002
0000
0000
0000
,
0103
0000
0010
0000
,
1000
0000
0001
0000
,
0010
0001
0000
0010
,
0001
0000
1000
0000
,
0010
0100
0010
0000
,
0100
0010
0100
0000
,
0001
1000
0000
0001
,
1000
0000
0010
0000
,
0100
0000
0001
0100
,
0001
0000
1000
0000
,
0100
0000
1000
0010
,
1000
0000
0001
0000
,
0010
0001
0000
0100
,
0001
0000
1000
0010
,
0000
1000
0100
0000
,
0010
0000
0100
0000
,
1001
0000
0000
0001
0000
0000
1000
0000
0001
0000
0000
0000
0010
0000
0000
0000
,
0001
0000
0000
1000
0000
0000
0001
0000
1000
0000
0000
0000
0100
0000
0000
0000
,
0010
0000
0000
0010
0000
0000
0000
0000
0100
0000
0000
0100
0000
0000
0000
0000
,
0110
0000
0000
1001
0000
0000
1000
0000
,
0001
2000
0000
0000
3100
0000
1000
0000
,
0010
0000
0000
1000
,
0010
0000
1000
0000
,
0001
1000
0000
0000
,
0001
0000
0010
0000
,
0100
0000
0000
0010
,
0100
0000
0010
0000
,
0001
1000
0000
0000
,
0010
0000
1000
0000
,
0200
0000
0000
0310
,
0000
0000
0001
0000
,
0020
0000
0000
0130
,
0000
0000
1000
0000
,
1001
0000
0000
0001
,
0000
0000
1000
0000
,
0010
0100
0010
0000
0100
0001
0100
0001
,
2000
0000
0000
3100
,
0000
0000
1000
0000
,
0001
1000
0000
0000
,
0001
0000
0010
0000
,
0002
0000
0000
0103
,
0000
0000
0010
0000
,
1000
0100
0000
0000
,
0010
0000
0100
0000
,
0100
0000
0010
0001
,
0000
0000
1000
0000
,
0002
0000
0000
0000
,
0103
0000
0010
0000
,
0100
0000
0000
1001
,
0000
0000
1000
0000
,
0001
0000
0100
0000
,
0010
0100
0010
0000
,
0020
0000
0000
0130
0000
0000
0001
0000
,
2000
0000
3001
1000
,
0001
0000
0100
0020
,
0000
0000
1030
0000
,
0001
0001
1000
0002
,
0000
0000
0003
0000
;

//--------------- dance-single - 8Chasey ----------------
#NOTES:
     dance-single:
     8Chasey:
     Medium:
     10:
     0,0,0,0,0:
0000
0000
0000
0000
,
1000
0000
1000
0100
0010
0100
1000
0000
,
0001
0000
0001
0010
0100
0010
0001
0000
,
0100
0000
0100
0010
1000
0010
0100
0000
,
0001
0001
1000
1000
0100
0010
0200
0000
,
0310
0000
0001
0010
0100
1000
0010
0000
,
0010
0000
1000
0100
0010
0001
0100
0000
,
0101
1010
0101
1100
,
0011
0000
1100
0000
1001
0001
0020
0000
,
0130
1000
0100
0100
,
0010
0001
0010
0010
,
0001
0100
0010
0010
,
1000
0100
0010
0010
,
0001
0100
0001
0001
,
1000
0100
1000
1000
,
0010
1000
0000
0000
1000
0001
0000
0000
,
0001
0100
0000
0000
0020
0000
0000
0000
,
1030
0100
0010
0100
,
1000
0001
1000
1000
,
0001
0010
0100
0010
,
0001
1000
0001
0001
,
0100
0010
0100
0100
,
0010
0100
0010
0010
,
1000
0010
0000
0000
0010
0100
0000
0000
,
0100
0001
0000
0000
2000
0000
0000
0000
,
3100
0010
0100
1000
,
0010
0100
0001
0001
,
0010
0100
0010
0001
,
0100
0010
1000
1000
,
0010
1000
1000
0100
,
0010
0001
0001
0100
,
0001
0100
0000
0000
0100
0010
0000
0000
,
0010
1000
0000
0000
0002
0000
0000
0000
,
0103
0010
1000
0100
,
1000
0001
0100
0100
,
0010
0100
0001
0010
,
0001
1000
0100
0100
,
1000
0010
0000
0000
1000
0001
0000
0000
,
0001
0100
0000
0000
0001
1000
0000
0000
,
0002
0000
2003
0000
3020
0000
0000
0030
,
0110
0100
0001
0100
,
0010
0100
0001
0000
,
0010
0100
1000
0100
,
0010
0100
1000
0000
,
0001
0100
0010
0000
,
1000
0100
0010
0000
,
0011
0000
1100
0000
,
1001
1000
0001
0000
,
0100
0010
1000
0010
,
0100
0010
1000
0000
,
0100
0010
0001
0010
,
0100
0010
0001
0000
,
1000
0010
0100
0000
,
0001
0010
0100
0000
,
1100
0000
0011
0000
,
1001
0001
1000
0000
,
0010
1000
0100
1000
,
0010
0100
0001
0000
,
0010
0001
0100
0001
,
0010
0100
1000
0000
,
0010
1000
0010
0000
,
0100
0001
0100
0000
,
1000
0100
0000
0010
,
0001
0000
0100
0010
,
0110
0000
0100
0001
,
0100
0000
0010
0000
,
1000
0000
0100
1000
,
0100
0000
0010
0000
,
0001
0100
0000
0000
0001
1000
0000
0000
,
1000
0010
0000
0000
1000
0001
0000
0000
,
0010
0001
0100
1000
0100
0001
1000
0100
,
0020
0000
0001
0000
1000
0000
0130
0010
,
0001
1001
1000
0000
,
0100
1000
0100
0000
,
0010
0000
0110
0000
,
0100
1000
0000
0001
,
1000
0000
0010
0100
,
0010
0000
0100
0000
,
0001
0100
0001
0000
,
2000
0002
0000
0000
,
3003
0000
0001
0000
,
0010
0100
0010
0000
,
0001
0000
1000
0000
,
0010
0100
0000
0100
,
0001
0000
1000
0100
,
1000
0000
0010
0000
,
0100
0010
0100
0000
,
0002
2000
0000
0000
,
3003
0000
1000
0010
,
0100
0010
1000
0010
,
0100
0000
0001
0010
,
0100
0010
0001
0010
,
0100
0000
1000
0010
,
0100
0000
0001
0010
,
0100
0000
1000
0010
,
1000
0001
0100
0001
,
0010
0000
0110
0000
,
0100
1000
0010
1000
,
0100
0000
0100
0000
,
0010
0001
0100
0001
,
0010
0000
0001
0100
,
0001
0000
1000
0100
,
1000
0000
0010
0100
,
0010
1000
0001
1000
,
0010
0000
0110
0000
,
0100
0001
0100
0000
,
0001
0000
0010
0000
,
0001
0100
0000
0001
,
1000
0000
1001
0000
,
0001
0010
0001
0000
,
0100
0000
0001
0000
,
0020
0200
0000
0000
,
0330
0000
1100
0000
,
1000
0010
0100
0100
,
0001
0000
0010
0000
,
0001
1000
0000
1000
,
0100
0000
0011
0000
,
0001
0100
0010
0010
,
1000
0000
0001
0000
,
0200
0020
0000
0000
,
0330
0000
0000
0000
0100
0000
0001
0010
,
0000
0010
0001
0000
1000
0000
0010
1000
,
0000
0000
0100
0000
1000
0000
0010
0100
,
0010
0100
0001
0010
,
0100
1000
0010
0100
,
0001
0000
0000
0000
1001
0000
1000
0010
,
0100
0000
0001
0010
0001
0000
0001
0010
,
0100
0000
1000
0100
1000
0000
0010
0100
,
0000
0100
0010
0000
0100
0001
0100
0010
,
1000
0010
0100
0010
0200
0000
0000
0000
,
0301
0000
0010
0001
,
0010
0100
0000
1000
,
0010
0000
0110
0000
,
1001
0000
0001
0010
,
0001
1000
0000
1000
,
0010
1000
0001
0000
,
0100
0010
0000
0000
,
0110
0000
0100
0000
,
0001
0010
0000
0001
,
1000
0000
0100
0000
,
1000
0010
0000
1000
,
0001
0000
0100
0001
,
0010
0100
0000
0100
,
1000
0010
0110
0000
,
1000
1001
0000
0001
,
1001
0000
1000
0100
,
1000
0000
0010
0100
,
0010
0000
0100
0000
,
0001
0100
0001
0000
,
0100
0000
0110
0000
,
0010
1000
0010
0000
,
0100
0000
0020
0000
,
0100
0000
0130
0000
,
0001
0010
0001
0000
,
1000
0100
0000
0000
,
1000
0010
1000
0000
,
0001
0100
0000
0100
,
0010
0000
0110
0000
,
1000
0100
0000
1000
,
0001
0000
0100
0000
0020
0100
0100
0130
,
1001
0000
0001
0010
,
0001
0000
1000
0000
,
0100
1000
0000
1000
,
0010
0000
0110
0000
,
0101
0000
0001
0010
,
0000
0010
0100
0000
,
1000
0010
1000
0000
,
0001
1000
0100
0000
,
1100
0000
1000
0010
,
0000
0010
0100
0000
,
0110
0000
0100
0001
,
0000
1000
0010
0000
,
0100
0001
0100
0010
,
1000
0010
0100
0000
,
0010
0100
0110
0000
1000
0100
0010
0000
,
0011
0000
0001
0100
,
0000
0100
0010
1000
,
0100
1000
0000
1000
,
0001
0000
0101
0000
,
1010
0000
1000
0100
,
0000
0100
0010
0001
,
0100
0010
0000
1000
,
0100
0000
0010
0000
,
2001
0000
0000
3002
0000
0000
0013
0000
,
0220
0000
0330
0000
,
0100
1000
0010
0100
,
0000
0100
0001
0010
,
0100
0010
0001
0100
,
0000
0010
1000
0100
,
0010
0000
0011
0001
,
0000
0100
0001
0100
,
0010
0000
1010
1000
,
0000
0100
1000
0010
,
0100
0000
0100
0010
,
0000
0100
0001
0010
,
0100
0000
0100
0020
,
0000
0130
1000
0010
,
1000
0000
0000
0001
0000
0000
1001
0000
,
0000
1000
0001
0100
,
0010
0000
0000
0100
0000
0000
0110
0000
,
0000
0010
1000
0100
,
1000
0100
1000
0010
,
0000
0010
1000
1000
,
0001
0100
0001
0010
,
0000
0010
0001
0001
,
0100
0010
1000
0100
,
0010
0001
1000
0001
,
0100
0010
0100
0020
,
0000
1030
0100
0010
,
0001
0000
0001
1000
,
0000
1000
0001
0100
,
0010
0010
0100
0020
,
0000
0130
0001
0100
,
0001
0010
0001
1000
,
0100
1000
0010
0000
,
0110
1001
0001
0000
,
0100
0010
0100
0000
,
0001
0000
1100
0000
,
0100
0010
0000
0010
,
0100
0000
0110
0000
,
0010
0001
0010
0000
,
0001
0000
0101
0000
,
2000
0020
0000
0000
,
3030
0000
0001
0100
,
0001
0010
0100
0000
,
0010
0000
0011
0000
,
0010
0100
0000
0100
,
1000
0000
1001
0000
,
0001
0100
0010
0000
,
1000
0000
1010
0000
,
0200
0002
0000
0000
,
0303
0000
0000
0000
1000
0000
0010
1000
,
0000
1000
0100
0000
0010
0000
0001
0100
,
0000
0001
0010
0000
0100
0010
0100
1000
,
0000
1000
0001
0000
0100
0000
0001
0000
,
0010
0100
1000
0010
,
0100
0000
0000
0000
0110
0000
0010
1000
,
0100
0000
1000
0001
1000
0000
1000
0100
,
0010
0000
0001
0010
0001
0000
0100
0010
,
0000
0010
0100
0000
0001
0010
0001
1000
,
0100
1000
0010
0100
0020
0000
0000
0000
,
1000
1000
1030
0000
,
0100
0010
0000
0001
,
0010
0001
0100
0000
,
0110
0000
1000
0010
,
0100
0010
0000
0010
,
0100
0001
0010
0000
,
0100
0110
0000
0000
,
0011
0000
1100
0000
,
1000
0010
0000
0010
,
0100
0001
0010
0000
,
0001
0010
0001
0000
,
0100
0010
1000
0000
,
0100
0010
0000
0100
,
0010
0000
0001
0001
,
1000
0000
1000
0000
0100
0010
0000
0000
,
0010
0100
0000
0000
0110
0000
0000
0000
,
0100
1000
0010
0000
,
0101
0000
0001
0010
,
0001
1000
0000
1000
,
0001
0001
0010
0000
,
1100
0000
1000
0001
,
0100
0000
0020
0000
,
0100
0000
0130
0000
,
0001
0100
0001
0000
,
1000
0100
0000
0010
,
0001
0000
0010
0100
,
0010
0100
0000
1000
,
0010
0000
1000
0010
,
0100
0000
0001
0100
,
0010
0000
0100
0000
0020
0100
0100
0130
,
1001
0000
1000
0010
,
1000
0000
0001
0000
,
0100
0001
0000
0001
,
0010
0000
0110
0000
,
1100
0000
1000
0010
,
0000
0010
0100
0000
,
0001
0010
0001
0000
,
1000
0001
0100
0000
,
0101
0000
0001
0010
,
0000
0010
0100
0000
,
0110
0000
0100
1000
,
0000
0001
0010
0000
,
0100
1000
0100
0010
,
0001
0010
0100
0000
,
1000
0001
1001
0000
0001
0100
0010
0000
,
1010
0000
1000
0100
,
0000
0100
0010
0001
,
0100
0001
0000
0001
,
1000
0000
1100
0000
,
0011
0000
0001
0100
,
0000
0100
0010
1000
,
0100
0010
0000
0001
,
0100
0000
0010
0000
,
1002
0000
0000
2003
0000
0000
3010
0000
,
0220
0000
0330
0000
,
0010
0010
0100
0100
,
1001
0000
1000
0001
1000
0001
0100
0000
,
2010
0000
3001
0000
0010
0001
0010
0000
,
0110
0000
0100
0010
0100
0010
0001
0000
,
0100
0001
0100
0000
0010
0000
2010
0000
,
3200
0000
0310
0001
0010
0001
1000
0000
,
1020
0000
0130
0000
0001
0100
0001
0000
,
1001
0000
1000
0100
1000
0100
0010
0000
,
0022
0033
2200
3300
,
1000
0001
2002
3003
,
1000
0100
0010
0100
1000
0001
1000
0000
,
0001
0100
0010
0100
0001
1000
0001
0000
,
0010
0001
0101
0000
1100
0000
1001
0000
,
0001
0010
0100
0020
0000
0100
0130
0000
,
1000
0100
0010
0000
0101
0000
1100
0000
,
0100
1000
0001
0010
0000
0100
0010
0000
,
0001
1000
0000
1000
0001
0000
0110
0000
,
0100
0001
0010
0000
0100
1000
0010
0000
,
0100
0001
0000
0100
1000
0100
0010
0000
,
1000
0100
1000
0010
0100
0010
1000
0000
,
0100
1000
0000
0100
0001
0100
0010
0000
,
0001
0100
0001
0010
0100
0010
0001
0000
,
0100
0010
0000
1000
0001
0000
1001
0000
,
0011
0000
0110
0000
1100
1000
0001
0000
,
0100
0001
0100
0010
0000
1000
0100
0000
,
0010
0001
0010
0100
1000
0002
0000
0003
,
0100
0001
0010
0000
0100
1000
0010
0000
,
0100
0010
0100
0010
1000
0001
2000
0000
,
3001
0100
0010
0000
1000
0100
0010
0000
,
0001
0010
0001
1000
0100
1000
0020
0000
,
0130
0010
1000
0000
0100
0010
0001
0000
,
1000
0010
0100
0001
1001
0010
1001
0000
,
1000
0010
0100
0000
0001
0010
0100
0000
,
1000
1000
0001
0001
0100
0010
0110
0000
,
0100
0010
0100
0001
1000
0000
0100
1000
,
0010
0100
0010
0000
0100
0001
0020
0000
,
0130
1000
0100
1000
0001
0010
0001
0010
,
0100
0010
0100
0000
2000
0000
3001
0000
,
0101
0000
0100
0010
0100
0000
0001
0000
,
1000
0000
0010
1000
0020
0000
0000
0000
,
0130
0010
1000
0100
0010
0001
1000
0000
,
0010
1000
0010
0000
0100
0001
0100
0000
,
0110
0000
0010
0100
0000
0100
0010
1000
,
0010
0100
0000
0002
0000
0013
0001
0200
,
0000
0310
1010
0101
,
0001
1000
0100
0020
0000
0130
0010
0000
,
0001
0010
0001
0000
0100
0001
0010
0100
,
0000
1000
1000
0100
1000
0001
0020
0000
,
0031
0000
0001
1000
0000
1000
0100
0010
,
0100
1000
0010
0010
0100
0001
0010
0000
,
0001
0100
0010
1000
,
0001
0010
0001
0000
1000
0010
1000
0000
,
0100
1000
0010
0100
,
0010
0100
0010
0000
1000
0001
1000
0000
,
0100
0100
1000
0010
,
1000
0100
1000
0000
0001
0100
0001
0000
,
0010
0001
1000
0010
,
0100
0010
0100
0000
0001
1000
0001
0000
,
1000
0100
0010
0001
,
1000
0100
1000
0000
0001
0100
0001
0000
,
0010
0001
1000
0010
,
0100
0010
0100
0000
0010
1000
0010
0000
,
0100
0100
0001
0100
,
0010
1000
0010
0000
0100
0001
0100
0000
,
0010
0010
1000
0100
,
0010
0100
0010
0000
0001
0010
0001
0000
,
0100
0001
0100
0010
,
1000
0010
0000
0000
0110
0000
0100
0000
,
0001
0010
0001
1000
,
0001
0100
0000
0000
0110
0000
0010
0000
,
1000
0100
1000
0010
,
0100
0001
0000
0000
1001
0000
1000
0000
,
0010
0100
0001
0010
,
0100
1000
0000
0000
1001
0000
0001
0000
,
0010
0001
1000
0001
,
0100
0010
0000
0000
1010
0000
1000
0000
,
0100
1000
0001
0100
,
0010
0100
0000
0000
0101
0000
0001
0000
,
0010
0001
1000
0100
,
0010
0100
0000
0000
1100
0000
1000
0000
,
0010
0100
0100
0001
,
1000
0100
0000
0000
0011
0000
0001
0000
,
0100
0001
0100
0000
0010
0000
1000
0000
,
1000
0100
0110
0000
,
0100
1000
0100
0000
0010
0000
0001
0000
,
0001
0100
0110
0000
,
0010
0100
0010
0000
1000
0000
0100
0000
,
0100
0010
0011
0000
,
0100
0010
0100
0000
0001
0000
1000
0000
,
1000
0010
1010
0000
,
1000
0100
1000
0000
0001
0000
0100
0000
,
0100
0001
1001
0000
,
0001
0010
0001
0000
1000
0000
0010
0000
,
0010
0100
0110
0000
,
0010
1000
0010
0000
1000
0000
0100
0000
,
0100
1000
1001
0000
,
0001
0100
0001
0000
0100
0000
0010
0000
,
0010
1000
1001
0000
,
0001
1000
0001
0100
,
0010
0100
0000
0000
0110
0000
0010
0000
,
1000
0001
1000
0010
,
0100
0010
0000
0000
0110
0000
0100
0000
,
0001
0010
0001
0100
,
0010
1000
0000
0000
1001
0000
0001
0000
,
0100
0010
1000
0100
,
0010
0001
0000
0000
1001
0000
1000
0000
,
0100
1000
0001
1000
,
0100
0010
0000
0000
0011
0000
0001
0000
,
0100
0001
1000
0100
,
0010
0100
0000
0000
1100
0000
1000
0000
,
1010
1010
0101
0101
,
1001
0000
0110
0000
1000
0001
1001
0000
,
1000
1000
0100
1000
,
0010
1000
0001
0100
,
0001
0020
0000
0130
,
0100
1000
0002
0000
,
0013
0001
0001
0100
,
0010
1000
1000
0100
,
1000
2020
0000
3030
,
0001
0202
0000
0303
,
0100
0100
0001
0010
,
0001
1000
0100
0010
,
0001
0000
0000
0001
0100
0000
0001
0000
,
0010
0100
0020
0000
,
0130
0100
1000
0010
,
1000
0001
0100
0010
,
1000
1000
0001
0010
,
0010
0001
0100
0100
,
0011
0101
1010
1100
,
0100
0010
0100
1000
0010
0100
0010
0000
,
0100
0001
0100
0000
0010
0100
0010
0000
,
2000
0000
0100
0000
0001
0001
3001
0000
,
1000
0100
0010
0001
0001
0010
0001
0200
,
0000
0310
0100
0001
0010
0100
0020
0000
,
0130
1000
0000
1000
0010
0010
0100
0000
,
0002
0000
0010
0013
0001
1000
0100
0000
,
1000
0010
1000
0100
,
1000
0001
0020
0000
,
0031
0100
0001
0010
,
0100
1000
0002
0000
,
0103
0010
0100
0001
,
0000
1000
0100
0000
,
0010
0100
1000
0002
,
0013
0100
1000
0002
,
0103
0100
0010
2000
,
0000
3010
0100
0001
,
0010
0000
0001
0010
,
0100
1000
0020
0000
,
1030
0100
1000
1001
,
0000
0001
0010
0001
,
0100
0020
0000
0130
,
0010
0100
0010
0000
,
1001
0000
1000
0100
,
0000
0100
1000
0010
,
0100
0100
0002
0010
,
0000
0013
0001
1000
,
0001
0100
0010
0000
,
0100
0010
1000
0100
,
2000
0000
3001
1000
,
0002
0000
0013
0001
,
0100
0010
0000
0000
0010
0100
0000
0000
,
0001
0010
0001
1000
,
0100
0010
0000
0000
0010
0100
0000
0000
,
1000
0100
1000
0001
,
0100
0100
0001
1000
,
0010
0010
1000
0001
,
0100
0001
0010
0100
,
1000
0010
0100
0000
,
0001
0010
0001
0001
1000
0010
1000
1000
,
0001
0100
0001
0001
1000
0100
1000
1000
,
0010
0100
0010
0010
0100
0010
0100
0100
,
0001
1000
0001
0001
1000
0001
1000
1000
,
0010
0000
1000
0100
0000
0000
1000
0000
,
0001
1000
0001
0000
0010
0000
0001
0000
,
0100
0010
0100
0001
,
2000
0100
3100
0000
,
1000
1000
0010
0100
,
0001
0100
0010
1000
,
0100
0010
0001
0100
,
0002
0000
1003
0000
,
0100
1000
0010
1000
,
0001
0100
0000
0001
,
0010
0010
0001
1000
,
0200
0000
0020
0330
,
0011
0001
0100
0010
,
1000
0100
0010
0000
,
0100
1000
0010
0100
,
0001
0010
0200
0000
,
0310
0001
0100
0001
,
1000
0010
1000
0000
,
0100
1000
0010
1000
,
0001
0100
0001
0000
,
0010
0001
1000
0001
,
0000
1100
1000
0000
,
0100
0010
0100
1000
,
0020
0000
0200
0330
,
0100
0001
0000
0000
0001
0100
0000
0000
,
0010
0100
0000
0000
0010
0000
1000
0000
,
0100
1000
0100
0020
,
0000
0001
0031
0100
,
0001
1000
1010
0000
,
0010
0100
0001
0000
,
0010
0001
1000
0100
,
0020
0000
0200
0330
,
1000
0100
0010
0000
,
0100
0010
0001
0000
,
0100
0001
0001
0000
,
1000
0010
1000
0000
,
0001
0001
0001
0100
,
0010
0010
0010
1000
,
0100
0010
0100
1000
,
0001
1000
0001
0000
,
1000
0100
0001
0100
,
0010
0001
0010
0000
,
0001
0100
1000
0100
,
0010
1000
0010
0000
,
1100
1000
0001
0101
,
0001
1000
0010
0100
,
0110
0010
1000
0100
,
0010
0001
1000
0000
,
2001
0000
0000
0001
0000
0000
3100
0000
0010
0100
0000
0000
0010
0000
0001
0000
,
1002
0000
0000
1000
0000
0000
0013
0000
0100
0010
0000
0000
0100
0000
1000
0000
,
0010
0000
0100
0010
0000
0000
0010
0000
0100
0000
0010
0100
0000
0000
0001
0000
,
0101
0000
0000
1010
0000
0000
1001
0000
,
0001
1000
0001
0000
0011
0000
1100
0000
,
1001
0000
0100
0010
,
0100
0000
0001
0000
,
0010
0001
0000
0001
,
1000
0000
1010
0000
,
0110
0000
0100
0001
,
0000
0100
0010
0000
,
1000
0010
1000
0000
,
0100
0010
0001
0000
,
0011
0000
0001
0100
,
0000
0100
0010
0000
,
0110
0000
0010
1000
,
0000
0100
0010
0000
,
0001
0100
0001
1000
,
0010
1000
0100
0000
,
0010
0001
1001
1000
0100
1000
0010
0000
,
0110
0000
0100
0001
,
0010
0000
0100
1000
,
0010
0100
0000
0001
,
1000
0000
1010
0000
,
0101
0000
0001
0010
,
0000
0100
0001
0100
,
0010
1000
0000
1000
,
0100
0000
0110
0000
,
0011
0000
0001
1000
,
0100
1000
0020
0000
,
0130
0000
0010
1000
,
0001
0000
1001
0000
,
0110
0000
0100
0002
,
0000
1000
1003
0000
,
0010
1000
0100
0010
,
0001
0100
0010
0000
,
0120
0000
0000
0230
0000
0000
0301
0000
,
1002
0000
2003
3001
,
1000
0100
1000
0010
,
0100
0001
0010
0100
,
0010
0010
0100
2002
,
0000
0000
3003
0000
;

//--------------- dance-single - 8Chasey ----------------
#NOTES:
     dance-single:
     8Chasey:
     Hard:
     11:
     0,0,0,0,0:
0000
0000
0000
0000
,
0101
0000
0100
0001
0010
0100
0110
0100
,
1100
0000
0100
1000
0010
0100
0110
0000
,
1001
0000
0001
0010
0001
1000
0100
1000
,
0010
0100
0010
0000
1000
0100
1000
0000
0001
0100
0001
0000
0200
0000
0000
0000
,
0310
0000
1000
0010
0100
0001
0100
0000
,
0011
0000
0001
0010
0100
1000
0100
0000
,
1010
0101
1100
1001
,
0011
0000
0000
0000
0110
0000
0000
0000
1001
0000
1000
0100
0020
0000
0000
0000
,
0031
0100
0001
0000
0010
0000
0100
0000
,
1000
0100
1000
0000
0010
0000
0100
0000
,
0001
0010
0001
0000
0100
0000
0010
0000
,
1000
0010
1000
0000
0001
0000
0010
0000
,
0100
0000
1000
0010
1000
0001
0010
0000
,
0001
0010
0001
1000
0010
0000
0100
0000
,
0001
0100
0001
0000
1000
0010
1000
0000
,
0100
0010
0100
0000
2002
0000
3003
0000
,
1000
0010
1000
0000
0100
0000
0010
0000
,
0001
0010
0001
0000
0100
0000
0010
0000
,
1000
0100
1000
0000
0010
0000
0100
0000
,
0001
1000
0001
0000
0010
0000
0100
0000
,
1000
0000
0010
1000
0100
0010
0001
0000
,
0100
0001
0010
0100
1000
0000
0010
0000
,
1000
0100
1000
0000
0010
0100
0010
0000
,
0100
0001
0100
0000
0220
0000
0330
0000
,
0010
0000
1000
0100
1000
0000
0010
0000
,
0100
0000
0001
0010
0001
0000
0100
0000
,
0010
0000
1000
0100
0010
0000
0100
0000
,
0010
0000
0001
0100
0010
0000
0100
0000
,
0001
0000
1000
0100
0001
0100
1000
0000
,
0001
0010
1000
0010
0001
0000
0100
0000
,
0010
1000
0010
0000
0100
0001
0100
0000
,
0001
1000
0001
0000
2020
0000
3030
0000
,
1000
0000
0100
0010
0100
0010
0001
0000
,
0100
0000
0010
1000
0100
0000
1000
0000
,
0001
0000
0100
0010
0100
0010
1000
0000
,
0100
0000
0010
0001
0100
0000
0001
0000
,
1000
0100
1000
0010
0100
0000
0001
0010
,
0001
0100
0010
0000
1000
0100
0010
0001
,
2000
0000
0000
0000
0200
0000
0000
3000
0020
0000
0000
0000
0000
0000
0300
0000
,
0031
0000
0100
0010
0100
0000
0001
0100
,
0001
0000
0100
0010
0100
0000
0010
0000
,
1000
0000
0100
0010
0100
0000
1000
0100
,
1000
0000
0100
0010
0100
0000
0010
0000
,
0001
0000
1000
0010
1000
0000
0100
0010
,
0100
0000
1000
0010
1000
0000
0100
0000
,
0010
0000
0001
0010
0001
0000
0100
0010
,
0100
0000
0001
0010
0001
0000
1000
0000
,
1001
0000
0001
0010
0100
0000
0010
0100
,
1000
0000
0010
0100
0010
0000
1000
0000
,
1001
0000
1000
0100
0010
0000
0100
0010
,
0001
0000
0100
0010
0100
0000
0001
0000
,
0100
0010
0100
0000
0001
0000
0010
0000
,
0100
0010
0100
0000
1000
0000
0010
0000
,
1000
0100
1000
0010
0100
0000
0001
0000
,
0010
0001
0000
0010
0100
0000
1000
0000
,
0010
0000
1000
0100
1000
0000
0001
0100
,
0001
0000
0010
0100
0010
0000
0100
0000
,
1000
0000
0001
0100
0001
0000
1000
0100
,
1000
0000
0100
0010
0100
0000
0010
0000
,
0001
0000
0100
0010
1000
0000
0100
0010
,
0001
0000
1000
0001
1000
0001
0100
0000
,
0110
0000
0010
0100
0001
0000
0010
0100
,
1000
0000
0001
1000
0001
1000
0100
0000
,
0110
0000
0010
0001
0100
0000
0001
0100
,
0010
0000
0010
1000
0100
0000
1000
0100
,
0010
0000
0001
0100
0001
0000
0100
0010
,
0100
0000
0010
1000
0010
0000
1000
0100
,
1000
0000
1000
0100
0010
0000
0100
0010
,
0001
0000
0001
0010
0100
0000
0010
0100
,
1000
0100
1000
0001
0100
0001
1000
0010
1000
0001
0010
0001
,
0200
0000
1000
0000
0010
0001
0301
1000
,
1100
0000
0000
0000
0202
0303
0000
0000
1001
0000
0000
0000
1000
0000
0000
0000
,
0100
0010
0100
0000
0010
0000
0001
0100
,
0001
0100
0010
0000
1000
0100
1000
0000
,
0010
0000
0100
0001
0100
0000
0002
0000
,
0010
0000
0013
0000
0110
0000
0100
1000
,
0100
0000
1000
0000
0010
0100
0001
0100
,
0001
0010
0110
0100
,
1100
0102
0000
1000
,
0100
1003
1010
0010
,
0100
0010
0100
0000
0001
0000
0010
0001
,
0100
0010
0100
0000
0010
1000
0010
0000
,
1000
0000
0100
0010
0100
0000
0010
0000
,
0001
1000
1001
0001
,
0010
0100
0010
0000
0100
0000
1000
0010
,
1000
0100
1000
0000
1001
0000
0001
0000
,
0010
0210
0000
1000
,
0001
0000
1300
0000
0010
1000
0010
0000
,
0100
0000
0001
0000
0010
0001
0010
0000
,
0100
0000
1000
0000
0001
0100
0001
0000
,
1000
0000
0010
0000
1000
0100
1000
0000
,
0001
0000
0100
0000
0010
0000
1000
0100
,
0010
0000
0001
0010
0100
0000
1000
0100
,
1000
0000
0001
0100
0001
0000
0010
0100
,
0010
0000
0100
0000
1000
0100
1000
0100
,
0010
0001
0010
0001
0100
0000
0010
1000
,
0010
0000
1000
0000
0100
0000
0010
0001
,
0010
0000
0001
0000
1000
0000
0100
0010
,
0100
0000
0010
0000
0001
0100
0001
0000
,
1000
0010
1000
0000
0100
0000
0010
0001
,
0010
0000
0001
0000
0100
0010
0100
0000
,
0001
1000
0001
0000
1000
0010
1000
0010
,
1000
0000
0001
0100
0001
0100
0001
0000
,
0010
0100
0010
0100
0010
0000
0100
0000
,
1000
0100
1000
0000
0010
0000
0100
0001
,
0010
0001
0010
0000
0100
0010
0100
0000
,
1000
0000
0010
0100
0010
0000
0200
0000
,
0001
0301
0011
0010
,
0100
0010
0100
0000
1000
0000
0010
0100
,
0001
0010
0001
0000
0101
0000
0100
0000
,
0110
2010
0000
0100
,
0001
0000
3100
0000
0110
0000
0010
0001
,
0100
0000
0010
0000
1000
0100
1000
0010
,
0100
0000
0001
0000
0010
0001
0010
0000
,
0100
0000
1000
0100
1000
0000
0010
0000
,
0110
0000
0100
0000
0001
0000
0010
0001
,
0010
0000
0100
0000
1000
0000
0010
1000
,
0100
1000
0100
0000
0110
0000
0010
0000
,
0011
0201
0000
1000
,
0010
0000
0000
0000
0301
0000
0000
0000
0010
0000
0100
0000
1000
0000
0010
1000
,
0010
0000
0100
0000
0001
0100
0001
0000
0010
0000
0001
0000
0001
0000
0100
0010
,
0100
0000
0010
0000
1000
0010
1000
0000
0100
1000
0100
0000
1000
0000
0001
0010
,
0001
0000
0100
0000
0010
0100
0010
0000
1000
0000
0100
0000
0001
0000
0100
0000
,
0010
0000
0001
0010
1000
0010
0100
0000
,
0110
0000
0000
0000
0010
0000
0000
0000
0001
0000
0100
0000
0100
0000
0010
0100
,
0010
0000
1000
0000
0100
0010
0100
0000
1000
0000
0100
0000
0100
0000
0010
0100
,
0010
0000
0001
0000
0100
0010
0100
0000
0001
0000
1000
0100
1000
0000
0010
0100
,
0010
0000
0100
0000
0001
0100
0001
0000
1000
0010
1000
0010
0100
0000
0001
0010
,
0001
0010
0100
0000
1000
0000
0001
0000
1001
0000
0000
0000
1000
0000
0000
0000
,
0010
0100
0010
0000
0100
0010
0100
0000
,
0001
0000
0100
0010
1000
0000
0100
0000
,
1000
0010
1000
0000
0010
0000
0100
0000
,
0001
0010
0001
0000
0010
0000
0001
0000
,
0100
0010
0100
0000
0010
0000
1000
0000
,
0100
0010
0001
0000
0101
0000
0100
0000
,
0010
0000
1010
0000
0000
0000
1000
0100
,
1000
0001
0011
0010
,
0100
0010
0100
0000
1000
0000
0010
0000
,
0100
0010
0100
0000
0001
0000
0010
0001
,
0010
0000
0100
0010
0100
0000
1000
0000
,
0010
1000
1001
0001
,
0010
0100
1000
0000
0100
0000
0010
0001
,
0100
0000
0001
0000
1000
0010
1000
0010
,
1000
0000
0001
0100
0001
0100
0001
0000
,
1000
0001
1000
0001
1000
0000
0100
0000
,
0010
0001
0010
0000
0001
0000
0100
0010
,
0100
0000
0010
0000
1000
0100
1000
0000
,
0010
0100
0010
0000
0100
0000
0001
0010
,
0100
0000
1000
0000
0010
1000
0010
0000
,
0100
0000
0001
0010
0001
0000
1000
0000
,
1001
0001
0020
0000
,
0100
0000
0130
0000
1000
0100
1000
0000
,
0001
0010
0001
0000
1001
0000
1000
0000
,
0010
0100
0010
0000
0100
0000
0001
0010
,
0001
0000
1000
0000
0100
1000
0100
0000
,
1000
0000
0001
0010
0001
0000
0100
0000
,
0010
0000
1000
0000
0100
1000
0100
1000
,
0010
0000
0100
0001
0100
0001
0010
0000
,
0001
0010
0100
1000
0020
0001
0100
1030
,
1100
0000
1000
0000
0010
1000
0010
0000
,
0100
0000
0001
0010
0001
0000
0100
0000
,
0010
0100
0010
0000
1000
0000
0100
0000
,
0110
0010
0011
0001
,
1001
0000
1000
0000
0010
0100
0010
0000
,
0100
0000
0001
0010
0001
0000
1000
0000
,
0100
1000
0100
0000
0010
0000
0001
0000
,
0101
0100
0110
0010
,
1010
0000
1000
0000
0100
0010
0100
0000
,
0010
0000
0001
0010
0001
0000
0100
0000
,
0010
1000
0010
0000
1000
0000
1100
0000
,
0100
0010
0011
0001
,
1001
0000
1000
0100
1000
0000
0010
0000
,
0100
0001
0100
0000
0001
0000
1000
0000
,
1100
0000
0000
0000
0100
0010
0100
0000
0010
0000
0001
0000
0100
0000
0000
0000
,
0101
0000
0001
0000
0010
0001
0010
0000
,
0100
0000
1000
0100
1000
0000
0010
0000
,
0100
0010
0200
0000
1000
0000
0010
0000
,
0301
0010
0110
0100
,
1100
0000
1000
0000
0010
1000
0010
0000
,
0100
0000
0001
0010
0001
0000
0010
0000
,
0100
0010
0200
0000
1000
0000
0010
0000
,
0301
0000
0100
0000
1000
0100
1000
0000
,
1001
0000
0001
2000
0000
0000
3010
0000
,
0220
0330
0100
0001
,
1001
1000
1010
0102
,
0000
0000
0013
0000
0100
0010
0100
0000
,
1100
1000
1001
0021
,
0000
0000
0130
0000
1000
0010
1000
0000
,
1010
0010
0110
0102
,
0000
0000
0013
0000
0100
1000
0100
0000
,
1000
0000
0001
0100
0010
0000
0220
0000
,
0330
0000
0100
1000
0100
0000
0001
0000
,
0010
0000
0001
0010
0000
0010
0200
0000
,
0000
0000
1300
0000
0010
1000
0010
0000
,
0100
0000
0001
0010
0000
0010
0002
0000
,
0000
1003
1100
0100
,
0010
0100
0000
0010
0100
0000
2000
0000
,
0000
3010
1000
0001
,
0100
0010
0000
0100
0010
0000
0002
0000
,
0000
0013
1000
0100
,
0010
0000
0001
0100
0001
0000
2000
0000
,
0000
0000
3100
0000
1000
0010
1000
0000
,
0010
0100
0001
0010
0001
0000
0022
0000
,
0033
0000
0010
0000
0100
1000
0100
0000
,
1000
0010
1000
0000
0010
0000
0100
0001
,
0100
0000
0001
0010
0001
0000
0010
0000
,
0100
1000
0100
1000
0100
0000
0020
0000
,
0000
0031
0101
0100
,
0010
0000
1000
0100
0000
1000
0002
0000
,
0000
0103
0001
0010
,
0100
0010
0100
0010
1000
0000
0010
0100
,
0010
0100
0001
0000
1000
0001
1000
0000
,
0001
0000
0010
0000
0100
1000
0100
0000
,
1000
0000
0010
1000
0010
0000
0100
0000
,
0101
0000
0000
0000
2200
3300
0000
0000
1001
0000
0000
0000
0001
0000
0000
0000
,
0010
0100
0010
0000
0100
0000
1000
0010
,
1000
0100
1000
0000
0001
0010
0001
0000
,
0100
0000
0010
0100
0010
0000
1000
0000
,
0100
1000
0100
0000
0110
0000
0010
0000
,
0001
0010
0001
0000
0100
0000
0010
1000
,
0010
1000
0100
0000
1100
0000
1000
0000
,
1001
0201
0000
0010
,
1000
0310
1010
1000
,
0100
1000
0100
0000
0010
0000
0001
0010
,
0001
0100
0010
0000
1000
0100
1000
0000
,
0010
0000
0100
0001
0100
0000
0001
0000
,
0010
0100
0010
0000
0110
0000
0100
0000
,
1000
0010
1000
0000
0010
0000
0100
0001
,
0010
0001
0100
0000
0110
0000
0010
0000
,
1010
1002
0000
0010
,
0100
0000
0000
0000
1003
0000
0000
0000
0100
0000
0010
0000
0001
0000
0100
0001
,
0100
0000
0010
0000
1000
0100
1000
0000
0010
0000
0100
0000
0001
0000
0010
0001
,
0010
0000
0100
0000
1000
0001
1000
0000
0010
0100
0010
0000
0100
0000
0001
0010
,
0001
0000
0100
0000
0001
1000
0001
0000
0010
0000
0001
0000
0100
0000
1000
0000
,
0100
0000
0010
1000
0100
0001
0100
0000
,
0010
0000
0100
0000
0010
0000
0001
0000
1000
0000
0010
0000
0010
0000
0100
0001
,
0100
0000
0010
0000
1000
0010
1000
0000
0001
0000
0010
0000
0010
0000
0100
1000
,
0100
0000
0010
0000
0001
0010
0001
0000
0100
0000
0010
0100
0010
0000
1000
0100
,
1000
0000
0010
0000
0100
0001
0100
0000
0002
0000
0023
0000
0230
0000
2300
0000
,
3010
1000
0010
1000
0100
0010
0100
0010
0002
0000
0000
0000
0100
0000
0000
0000
,
1000
0000
0013
0000
0100
0010
0100
0000
,
1000
0001
1000
0000
0100
0000
0010
0000
,
0001
0100
0001
0000
0011
0000
0010
0000
,
0100
0010
0100
0000
1100
0000
1000
0000
,
1010
0000
0110
0000
0100
0000
0001
0010
,
0001
1000
1100
0100
,
0010
0000
0011
0000
0000
0000
0001
0100
,
0001
0010
0110
0100
,
1000
0010
1000
0000
0010
0000
0100
0001
,
0100
0001
0011
0010
,
0100
1000
0010
0000
1000
0000
0100
0000
,
0010
0001
0100
0000
0001
0000
1000
0000
,
0100
0000
1100
0000
1000
0000
0010
0100
,
0010
0100
0101
1010
,
1000
0100
1000
0000
0001
0010
0001
0000
,
0100
0010
0100
0010
0100
0000
0001
0000
,
0010
0100
0010
0000
0100
0000
1000
0000
,
0010
0100
0010
0000
0100
0000
0001
0000
,
1000
0010
1000
0000
0100
0000
0010
0000
,
0011
0000
0001
0100
0001
0000
1000
0000
,
0010
1000
0010
0000
0100
0000
0001
0010
,
0001
1000
0200
0000
,
0010
0000
0310
0000
0001
0010
0001
0000
,
1000
0010
1000
0000
1001
0000
0001
0000
,
0010
0100
0010
0000
0100
0000
1000
0010
,
1000
0000
0010
0000
0100
0001
0100
0000
,
0001
0000
0010
0100
0010
0000
0001
0000
,
0100
0000
0010
0000
1000
0100
1000
0000
,
0001
0000
0100
0001
0100
0000
0010
0000
,
1000
0100
0010
0001
0020
1000
0100
0031
,
0101
0000
0001
0000
0010
0001
0010
0000
,
0100
0000
1000
0010
1000
0000
0100
0000
,
0010
0100
0010
0000
0001
0000
0100
0000
,
0110
0010
1010
1000
,
1001
0000
0001
0000
0010
0100
0010
0000
,
0100
0000
1000
0010
1000
0000
0001
0000
,
0100
0001
0100
0000
0010
0000
1000
0000
,
1100
0100
0110
0010
,
0011
0000
0001
0000
0100
0010
0100
0000
,
0010
0000
1000
0010
1000
0000
0100
0000
,
0010
0001
0010
0000
0001
0000
0101
0000
,
0100
0010
1010
1000
,
1001
0000
0001
0100
0001
0000
0010
0000
,
0100
1000
0100
0000
1000
0000
0001
0000
,
0101
0000
0000
0000
0100
0010
0100
0000
0010
0000
1000
0000
0100
0000
0000
0000
,
1100
0000
1000
0000
0010
1000
0010
0000
,
0100
0000
0001
0100
0001
0000
0010
0000
,
0100
0010
0200
0000
0001
0000
0010
0000
,
1300
0010
0110
0100
,
0101
0000
0001
0000
0010
0001
0010
0000
,
0100
0000
1000
0010
1000
0000
0010
0000
,
0100
0010
0200
0000
0001
0000
0010
0000
,
1300
0000
0100
0000
0001
0100
0001
0000
,
1001
0000
1000
0002
0000
0000
0013
0000
,
0220
0330
0100
1000
,
0010
0000
2000
0002
0000
0000
3003
0000
,
1001
1000
0100
1000
0100
1000
0100
1000
,
1001
0000
1010
0000
1000
0100
0010
0001
,
0101
0001
0010
0001
0010
0001
0010
0100
,
1100
1000
1001
0001
0101
0100
0020
0000
,
0230
0000
0301
0010
0001
0010
0001
0100
,
0110
0000
0101
0000
0001
0010
0100
1000
,
1100
1000
0100
1000
0100
1000
0010
0000
,
0100
0001
0100
0001
1000
0010
1000
0010
,
0100
0000
0010
0000
2002
0000
0000
3003
,
0110
0000
0100
0000
0001
0000
0100
0000
0010
0000
1000
0000
0100
0000
0010
0100
,
0010
0100
1000
0100
0010
0001
0100
0010
,
1000
1000
0010
1000
1001
0000
0011
0000
,
1100
0000
0100
0010
0100
0000
0020
0000
0000
0000
0031
0000
1001
0000
0000
0000
,
1000
0010
0100
0100
0001
0001
0010
0010
,
1000
0000
0010
0000
0001
0100
0001
0000
1000
0000
0020
0000
0100
0000
0000
0000
,
1030
1000
0100
0001
0001
0100
0010
0001
,
0100
0001
0100
0000
0010
0000
1000
0000
0100
1000
0100
0000
0010
0000
0001
0000
,
0100
0010
1000
0100
0010
0001
1000
0001
,
1000
0010
1000
0000
0100
0000
1000
0000
0001
0100
0001
0000
0010
0000
0100
0000
,
1000
0010
0010
0001
0010
0010
0100
0010
,
1000
0000
0100
0000
0110
0000
0010
0000
0001
0000
1000
0001
1000
0000
0100
0000
,
0010
0010
0001
0010
1000
0010
0100
1000
,
0010
1000
0100
1000
0001
0100
1000
0100
,
0020
2030
3200
0301
0000
0100
1000
0010
,
1000
0100
1000
0000
0001
0000
0010
0000
0100
0010
0200
0000
1000
0000
0000
0000
,
0310
0001
0010
0001
0000
0000
0100
0010
0100
0010
0000
0000
,
1000
0100
1000
0000
0001
0100
0001
0000
0100
0000
0010
0000
2002
0000
3003
0000
,
1000
0010
1000
0010
0000
0000
0100
0001
0100
0001
0000
0000
,
0010
0001
0010
0000
0100
1000
0100
0000
0010
0100
0010
0000
0220
0000
0330
0000
,
0100
1000
0100
1000
0000
0000
0001
0010
0001
0010
0000
0000
,
0100
0010
0100
0000
0001
1000
0001
0000
0011
0000
0110
0000
2200
0000
3300
0000
,
1000
0001
1000
0001
0000
0000
0100
0010
0100
0010
0000
0000
,
1000
0100
1000
0000
0100
1000
0100
0000
0010
0100
0010
0000
0002
0000
0000
0000
,
0103
0000
0100
0000
0110
0000
0010
0000
1000
0100
1000
0000
0010
0000
0100
0000
,
0001
0000
0001
0000
1001
0000
1000
0000
0001
0100
0001
0000
0020
0000
0000
0000
,
0130
0000
1000
0000
0100
0010
0100
0000
0001
0000
0100
0000
0010
0100
0010
0000
,
0001
0000
0100
0001
0100
0000
0010
0000
1020
0000
0000
0000
0031
0000
0010
0000
,
1000
0000
0100
0000
0100
0000
1000
0001
1000
0000
0001
0000
0010
0000
0010
0000
,
0200
0000
0310
0001
1002
0000
0103
0001
,
0010
0000
0100
0000
1000
0000
0001
0100
0001
0000
0010
0000
0001
0000
1000
0000
,
0010
1000
0010
0000
0100
0000
0000
0000
0001
0010
0001
0000
1000
0000
0000
0000
,
1100
0000
0100
0000
1000
0000
0101
0000
0100
0000
0001
0000
0010
0000
0001
0100
,
0001
1000
0100
0020
0001
0031
0100
0020
,
0000
1000
1030
0100
0010
0100
0001
0100
,
1000
0000
0010
0000
0100
0001
0200
0000
0000
0000
0010
0000
0310
0000
1000
0000
,
1001
0001
0010
0002
0000
0103
0010
1000
,
0100
0010
0100
0010
0100
0000
0010
0000
0001
0000
0100
0000
0020
0000
0000
0000
,
1030
1000
1000
0001
0001
0001
0100
0010
,
1000
0100
1000
0000
0001
0000
0010
0000
0001
0100
0001
0000
1000
0000
0000
0000
,
0001
0100
0001
0000
0100
0001
0100
0000
,
0001
0010
0001
1000
0001
0100
0001
0000
,
1000
0010
1000
0000
0010
1000
0010
0000
,
1000
0100
1000
0010
1000
0001
1000
0000
,
0010
0001
0010
0000
0001
0100
0001
0000
,
0010
0001
0010
0100
0010
1000
0010
0000
,
0100
1000
0100
0000
1000
0010
1000
0000
,
0100
1000
0100
0010
0100
0001
0100
0000
,
0010
0001
0010
0000
0001
1000
0001
0000
,
0100
0010
0100
0001
1000
0001
1000
0000
,
0100
1000
0100
0000
1000
0001
1000
0000
,
0001
0010
0001
0100
0010
1000
0100
0000
,
0010
1000
0100
0000
0010
0001
0100
0000
,
0001
0010
0100
1000
0010
0100
0010
0000
,
1000
0100
0010
0000
0001
0100
0010
0000
,
1000
0100
1000
0001
0010
0001
0100
0000
,
0001
0010
0001
0000
0010
0000
0001
0000
,
0100
0010
0100
0010
0100
0000
0001
0000
,
1000
0100
1000
0000
0010
0000
1000
0000
,
0100
0010
0100
0010
0100
0000
1000
0000
,
0010
1000
0010
0000
1000
0000
0100
0000
,
1000
0001
1000
0001
1000
0000
0100
0000
,
0010
0001
0010
0000
0001
0000
0100
0000
,
0001
1000
0001
1000
0001
0000
0100
0000
,
0010
1000
0010
0000
1000
0000
0001
0000
,
0100
0001
0100
0001
1000
0000
0100
0000
,
0010
0001
0010
0000
0001
0000
1000
0000
,
0100
1000
0100
1000
0001
0000
0100
0000
,
0010
0100
0010
0000
1000
0000
0100
0000
,
1000
0001
1000
0001
0010
0000
0001
0000
,
0100
0010
0100
0000
0001
0000
0010
0000
,
0001
0100
0001
0000
1000
0010
1000
0000
,
1001
0000
0001
0010
0100
0000
0010
0000
,
0100
1000
0100
0000
1000
0000
0001
0000
,
0100
0000
0001
0010
0100
0000
0010
0000
,
0100
1000
0100
1000
0100
0000
1000
0000
,
0010
0000
1000
0100
0010
0000
0100
0000
,
0010
0001
0010
0000
0001
0000
0100
0000
,
0010
0000
1000
0100
0010
0000
0100
0000
,
0010
0001
0010
0001
1000
0000
0100
0000
,
1000
0000
0010
0100
0010
0000
0100
0000
,
0001
0010
0001
0000
1000
0000
0100
0000
,
1000
0000
0010
0100
0010
0000
0100
0000
,
0001
0010
0001
1000
0001
0000
0100
0000
,
0010
0000
1000
0100
1000
0000
0010
0000
,
0100
0001
0100
0010
0100
0000
0001
0000
,
0010
0000
0001
0100
0001
0000
0010
0000
,
0100
1000
0100
0010
0100
0000
1000
0000
,
0001
0010
0001
0000
0010
0000
0001
0000
,
0100
0010
0100
0010
0100
0000
0001
0000
,
1000
0100
1000
0000
0010
0000
1000
0000
,
0100
0010
0100
0010
0100
0000
1000
0000
,
0010
1000
0010
0000
1000
0000
0100
0000
,
1000
0001
1000
0001
1000
0000
0100
0000
,
0010
0001
0010
0000
0001
0000
0100
0000
,
0001
1000
0001
1000
0001
0000
0100
0000
,
0010
1000
0010
0000
1000
0000
0001
0000
,
0100
0001
0100
0001
1000
0000
0100
0000
,
0010
0001
0010
0000
0001
0000
1000
0000
,
0100
1000
0100
1000
0001
0000
0100
0000
,
0110
1010
0101
1001
,
1100
0000
0000
0000
0011
0000
0000
0000
0110
0000
0100
1000
0020
0000
0000
0000
,
0130
0001
0100
0000
0001
0010
0001
0000
,
0010
0100
0010
0000
0100
1000
0100
0000
,
1000
1010
0010
0110
,
0100
0000
0001
0010
0200
0000
1300
0000
,
0010
0000
1000
0100
1000
0000
0010
0000
,
0100
0000
0001
0000
0010
0001
0100
0000
,
0010
0000
2020
0000
3030
0000
0010
0100
,
0001
0202
0303
0100
,
0020
0000
1030
0000
0100
1000
0100
0000
,
0010
0100
0010
0000
0001
0010
0001
0000
,
0100
0000
0001
0010
0000
0010
0100
0000
,
1000
0010
1000
0000
1001
0000
0001
0000
,
0010
0000
0100
1000
0100
0000
1000
0010
,
1000
0001
0011
0010
,
0100
0010
0100
0000
1000
0000
0010
0100
,
0010
0000
0100
0001
1000
0000
1001
0000
,
0001
0010
0000
0000
0010
0100
0000
0000
0100
1000
0000
1000
0001
0000
0010
0000
,
0100
0000
0010
0100
1000
0000
0001
0010
0100
0000
0010
0100
0020
0000
0000
0000
,
0031
0000
0100
0001
0100
0000
0010
0100
0010
0000
1000
0010
1000
0000
0100
0000
,
0120
0000
0001
0000
0001
0000
1000
0000
1000
0000
0130
0000
1000
0001
1000
0000
,
0001
0000
0010
0100
0010
0000
0001
0000
0100
0000
0010
1000
0010
0000
1000
0000
,
0100
1000
0100
0000
0010
0000
0011
0000
0001
0100
0001
0100
0020
0000
0000
0000
,
1030
0000
0100
1000
0100
0000
1000
0000
0010
0100
0010
0000
0100
0000
0001
0000
,
0021
0000
0000
0000
0130
0000
1000
0000
0010
1000
0010
0000
0100
0001
0100
0000
,
0010
0000
0100
1000
0100
0000
1000
0010
,
1000
0000
0010
0100
0020
0000
0000
0000
,
0130
0000
0001
0010
0001
0000
1000
0100
,
1000
0010
0200
0000
,
0301
0000
0010
0001
0100
0000
0010
1000
,
0100
0000
0010
0100
0010
0000
0100
0000
,
1000
0010
1000
0100
0010
0000
0002
0000
,
1003
0010
1000
0100
0010
0000
0002
0000
,
0103
0000
0110
0000
0010
1000
0200
0000
,
0000
0000
1300
0000
0001
1000
0001
0000
,
0010
0000
0001
0100
0001
0000
0100
0000
,
0110
0000
0010
1000
0020
0000
0000
0000
,
0130
0000
0001
0010
0001
0000
0020
0000
,
0100
0130
1100
1000
,
0001
0010
0100
0000
0010
0000
0100
0000
,
1000
0100
0010
0100
0020
0000
0000
0030
,
0011
0000
0001
0000
0100
0010
2000
0000
,
0100
0000
3100
0000
0010
0001
0010
0000
,
0001
0000
0101
0000
0100
0010
2000
0000
,
0100
0000
3010
0000
0100
0010
1000
0000
,
1100
0000
0100
0000
0010
0001
0010
0000
,
0001
0000
0100
0001
0100
0000
0010
0000
,
1000
0000
0100
0010
0100
0000
0001
0000
,
0100
0000
1000
0010
1000
0000
0010
0000
,
0100
0001
0100
0000
0001
0010
0001
0000
,
1000
0010
1000
0000
0100
1000
0100
0000
,
0010
0001
0010
0001
0100
0000
0010
0000
,
1000
0100
1000
0100
0010
0000
0110
0000
,
0100
1000
0100
0000
1000
0000
0001
0000
,
0010
0000
0001
1000
0000
1000
0001
0000
,
0100
0001
0100
0000
0001
0000
1000
0000
,
0100
0010
0100
0010
0001
0000
0100
0000
,
0001
0010
0001
0010
0000
0000
0100
1000
0100
1000
0000
0000
,
0010
0100
0010
0100
0000
0010
1000
0001
1000
0001
0000
0000
,
1000
0100
1000
0100
0000
0000
0010
0001
0010
0001
0000
0000
,
0100
0010
0100
0010
0000
0100
0001
1000
0001
1000
0000
0000
,
0100
0000
1000
0010
1000
0001
0100
0000
,
0001
0010
0001
1000
0100
0000
0110
0000
,
0010
0001
0010
0000
0100
0010
0100
0000
,
1000
0010
0000
0010
0100
0000
0001
0000
,
0010
0000
0001
0010
0100
0000
1000
0000
,
0010
1000
0010
0000
0100
0000
0001
0000
,
1001
0000
1000
0100
1000
0000
0001
0000
,
0021
0000
0130
1000
,
1010
0000
0010
0100
0001
0000
0010
0000
,
0100
1000
0100
0000
1000
0000
1001
0000
,
0001
0000
0010
0100
0010
0000
0100
0000
,
2000
0000
3010
0000
0100
0010
0100
0010
,
1000
0000
0001
0010
0001
0000
0100
0000
,
0010
1000
0010
0000
1000
0100
1000
0000
,
0001
0000
0100
0010
1000
0000
0001
0000
,
0101
0100
0020
0000
,
1030
0000
0100
1000
0100
0000
0010
0000
,
0011
0000
0001
0000
1000
0100
0010
0000
,
0001
0100
0001
0000
1000
0000
0010
0000
,
0100
0001
0100
0000
0020
0000
0000
0000
,
1030
0000
0100
0010
0100
0000
0001
0000
,
0100
0000
1100
0000
1000
0000
0010
1000
,
0010
0000
0100
0001
0100
0000
0001
0000
,
1000
0100
1000
0100
1000
0000
0001
0000
,
0010
0001
0000
0001
0010
0000
0100
0000
,
2200
3300
0101
0001
,
1000
0100
1000
0000
0010
0000
0200
0000
,
0300
0000
1001
0000
0001
0010
0001
0000
,
0010
0000
0100
0000
1000
0100
1000
0000
,
0010
0100
0010
0000
0100
0001
0100
0000
,
0001
0000
0010
0100
1000
0000
0010
0000
,
0100
0001
0100
0001
0200
0000
0000
0300
,
0110
0000
0010
1000
0010
0000
1000
0000
,
0100
0010
0000
0100
0010
0000
0001
0000
,
0100
0000
0001
0010
0000
0001
0010
0000
,
0100
1000
0100
1000
0010
0000
0100
0000
,
0001
0000
0010
0001
0010
0000
0001
0000
,
1000
0000
0100
1000
0100
0000
1000
0000
,
0010
0000
0100
0010
0100
0000
0001
0000
,
1001
1000
2002
3003
,
0001
0000
0010
0100
0010
0000
0100
0000
,
1000
0010
1000
0001
0100
0000
0001
0000
,
1000
0000
0100
0010
0100
0000
0010
0000
,
0001
0010
0001
0100
0010
0000
1000
0000
,
0100
0010
0100
0000
1000
0100
1000
0000
,
0001
0100
0001
0000
0010
0100
0010
0000
,
0001
0100
0001
0100
0010
0000
1000
0000
,
0010
1000
0010
1000
0100
0010
0001
0000
,
2002
0000
3003
1000
0100
0000
0100
0000
2000
0002
3000
0000
0010
0000
1003
0000
,
0201
0000
0000
0310
1000
0000
0100
0000
0020
0200
0030
0000
1000
0000
0310
0000
,
0011
0000
0002
0100
0000
0103
0001
0000
1000
0010
1000
0200
0000
0010
0310
0000
,
0022
0000
0033
2200
0000
3300
0110
0000
,
1001
0000
0001
0000
0100
0010
0100
0000
0010
0000
1000
0000
0100
0000
0000
0000
,
0011
0000
0001
0000
0100
0001
0100
0000
,
0010
0000
1000
0100
1000
0000
0010
0000
,
0100
0010
0100
0000
0001
0000
0010
0000
,
0110
0100
1100
1000
,
1001
0000
0001
0000
0100
0010
0100
0000
,
0010
0000
1000
0100
1000
0000
0001
0000
,
0010
0001
0010
0000
0100
0000
1000
0000
,
1010
0010
0110
0100
,
0101
0000
0001
0000
0010
0100
0010
0000
,
0100
0000
1000
0100
1000
0000
0010
0000
,
0100
0001
0100
0000
0001
0000
0011
0000
,
0010
0100
1100
1000
,
1001
0000
0001
0010
0001
0000
0100
0000
,
0010
1000
0010
0000
1000
0000
0001
0000
,
0010
0001
0010
0000
0100
0010
0100
0000
1000
0001
1000
0000
0100
0000
1000
0000
,
1010
0000
1000
0000
0100
1000
0100
0000
,
0010
0000
0001
0010
0001
0000
0100
0000
,
0010
0100
0020
0000
0001
0000
0100
0000
,
1030
0100
0110
0010
,
0011
0000
0001
0000
0100
0001
0100
0000
,
0010
0000
1000
0100
1000
0000
0100
0000
,
0010
0100
0020
0000
0001
0000
0100
0000
,
1030
0000
0010
0000
0001
0010
0001
0000
,
0101
0100
0110
1010
,
1000
0000
0100
0010
0001
0000
0010
0000
,
0002
0100
0103
1010
,
1000
0010
1000
0000
0100
0000
1000
0000
,
1001
0001
0011
0210
,
0000
1000
1300
0010
,
1000
0000
0100
0010
0100
0000
0010
0000
,
0001
0100
0220
0330
,
1001
0000
1000
0002
0000
0000
0103
0000
,
0220
0330
0010
1000
,
0100
1000
0100
0000
0010
0001
0010
0000
,
0001
0100
0010
1000
0010
0000
0100
0000
,
1001
1001
0110
2002
,
0000
0000
3003
0000
;
