#TITLE:Funplex (CSS Remix);
#SUBTITLE:;
#ARTIST:The B-52's;
#TITLETRANSLIT:;
#SUBTITLETRANSLIT:;
#ARTISTTRANSLIT:;
#GENRE:;
#CREDIT:8Chasey 2026;
#MUSIC:Funplex (CSS Remix).ogg;
#BANNER:Funplex (CSS Remix)-bn.png;
#BACKGROUND:Funplex (CSS Remix)-bg.png;
#CDTITLE:;
#SAMPLESTART:68.530;
#SAMPLELENGTH:15.000;
#SELECTABLE:YES;
#OFFSET:-0.000;
#BPMS:0.000=130.000
,143.000=130.400
,148.000=130.000
;
#STOPS:;
#BGCHANGES:;
#FGCHANGES:;

//--------------- dance-single - 8Chasey ----------------
#NOTES:
     dance-single:
     8Chasey:
     Beginner:
     1:
     0,0,0,0,0:
0000
0000
0000
0000
,
0000
0000
0000
0000
,
0000
0000
0000
0000
,
0000
0000
0000
0000
,
0000
0001
0000
0001
,
0000
0001
0000
0001
,
0000
0100
0000
0100
,
0000
0100
0000
0100
,
0000
0010
0000
0010
,
0000
0010
0000
0010
,
0000
1000
0000
1000
,
0000
1000
0000
1000
,
0000
0000
0000
0000
,
0001
0000
0001
0001
,
0000
0000
0000
0000
,
1000
0000
1000
1000
,
0000
0000
0000
0000
,
0001
0000
0001
0001
,
0000
0000
0000
0000
,
1000
0000
1000
1000
,
0000
0000
0001
0000
,
0001
0000
0000
0000
,
0000
0000
1000
0000
,
1000
0000
0000
0000
,
0000
0000
0010
0000
,
0010
0000
0000
0000
,
0000
0000
0010
0000
,
1001
0000
0000
0000
,
0000
0000
1000
0000
,
0001
0000
1000
1000
,
0000
0000
0001
0000
,
1000
0000
0001
0001
,
0000
0000
0010
0000
,
0000
0000
0100
0000
,
0000
0000
0001
0000
,
1000
0000
1001
1001
,
0000
0000
0000
0000
,
0000
0001
0001
0000
,
1000
0000
0001
0000
,
1000
1000
0000
0000
,
0001
0000
0001
0000
,
0000
1000
1000
0000
,
0001
0000
1000
0000
,
0001
0001
0000
0000
,
1000
0000
1000
0000
,
0001
0000
0000
0000
,
0010
0010
0010
0000
,
0001
0000
0000
0000
,
1000
0000
0001
0000
,
1000
0000
0000
0000
,
0010
0010
0010
0000
,
1000
0000
0000
0000
,
0001
0000
1001
0000
,
0001
0000
0000
0000
,
0001
0000
0000
0000
,
1000
0000
0000
0000
,
1000
0000
0000
0000
,
0001
0000
0000
0000
,
1000
0000
0000
0000
,
0001
0000
0000
0000
,
1000
0000
0000
0000
,
1001
0000
0000
0000
;

//--------------- dance-single - 8Chasey ----------------
#NOTES:
     dance-single:
     8Chasey:
     Easy:
     3:
     0,0,0,0,0:
0000
0000
0000
0000
,
0000
0000
0000
0000
,
0000
0000
0000
0000
,
0000
0000
0000
0000
,
0001
0000
1000
0000
,
0001
0100
0001
0001
,
1000
0000
0001
0000
,
1000
0100
1000
1001
,
0000
0101
0000
0001
,
0000
1100
0000
1000
,
0000
0011
0000
0001
,
0000
1010
0000
1000
,
0000
0001
0100
0001
,
1000
0000
0001
0001
,
0000
1000
0100
1000
,
0001
0000
1000
1000
,
0000
0001
1000
0001
,
1000
1000
0001
0001
,
0000
1000
0001
1000
,
0001
0001
1000
1000
,
0000
0001
0100
0000
,
0001
0000
0000
0002
0000
0000
0003
0000
,
0000
1000
0100
0000
,
1000
0000
0000
2000
0000
0000
3000
0000
,
0000
0010
0100
0000
,
0010
0000
0000
0020
0000
0000
0030
0000
,
0100
0000
0010
0000
,
2002
0000
3003
0000
,
0000
1000
0000
1000
,
0100
1000
0100
1000
,
0000
0001
0000
0001
,
0100
0001
0100
0001
,
0000
0010
0000
0010
,
0100
0010
0100
0010
,
0000
0001
0000
1000
,
0001
1000
0001
2002
,
0000
0000
0000
0000
,
3003
0010
0100
0000
,
0001
0000
0100
0000
,
0001
0001
0000
1000
,
0001
1000
0001
0000
,
0000
0010
0100
0000
,
1000
0000
0100
0000
,
1000
1000
0000
0001
,
1000
0001
1000
0000
,
0002
0000
0103
0000
,
0010
0100
0010
0000
,
1000
0000
0001
1000
,
0001
0000
1001
0000
,
2000
0000
3100
0000
,
0010
0100
0010
0000
,
0001
0000
1000
0001
,
1000
0000
1001
0000
,
0001
0000
0001
0000
,
1000
0000
1000
0000
,
0001
0000
1000
0000
,
0001
0000
1000
0000
,
0010
0000
0010
0000
,
0100
0000
0100
0000
,
0010
0000
0100
0000
,
0010
0000
0100
0000
,
1001
1001
0000
0000
;

//--------------- dance-single - 8Chasey ----------------
#NOTES:
     dance-single:
     8Chasey:
     Medium:
     6:
     0,0,0,0,0:
0000
0000
0000
0000
,
0000
0000
0000
0000
,
0000
0000
0000
0000
,
0000
0000
0000
0000
,
0001
0000
1000
0000
0001
0100
0000
0001
,
0100
0000
0001
1000
0001
0000
1001
0000
,
1000
0000
0001
0000
1000
0100
0000
1000
,
0100
0000
1000
0001
1000
0000
1001
0000
,
0001
0000
0010
0001
0010
0000
0001
0000
,
0100
0000
0001
1000
0001
0000
1001
0000
,
1000
0000
0100
1000
0100
0000
1000
0000
,
0010
0000
1000
0001
1000
0000
1001
0000
,
0000
0001
0000
1000
0000
0001
0100
0000
,
0010
0000
1000
0000
0001
0000
0001
0001
,
0000
1000
0000
0001
0000
1000
0100
0000
,
0010
0000
0001
0000
1000
0000
1000
1000
,
0000
0001
0000
0100
0000
0001
0100
0000
,
0010
1000
0001
1001
,
0000
1000
0000
0100
0000
1000
0100
0000
,
0010
0001
1000
2002
,
3003
0000
0001
0010
0001
0000
1000
0000
,
0001
0000
0000
0001
0000
0100
0002
0000
,
0003
0000
1000
0010
1000
0000
0001
0000
,
1000
0000
0000
1000
0000
0100
2000
0000
,
3000
0000
0001
0000
1000
0001
1000
0000
,
0010
0000
0000
0010
0000
0100
0010
0000
,
1000
0100
0010
0001
,
2000
0001
0002
3003
,
1000
0000
0001
0000
1000
0100
1000
0000
,
0010
0000
0010
0000
0100
0001
0100
0000
,
0001
0000
1000
0000
0001
0010
0001
0000
,
0100
0000
0100
0000
0010
1000
0010
0000
,
0200
0001
0010
0301
,
0010
0000
0100
0000
0010
0100
0010
0000
,
0200
1000
0010
1300
,
0001
0000
0100
0000
0001
0000
1000
1000
,
1000
1000
1000
1000
1000
1000
1000
1000
,
1000
0020
0200
0330
,
0001
0100
0000
0001
0000
0000
1000
0001
,
1000
0000
1001
0000
0000
0000
0001
0100
,
0001
0000
1000
0100
1000
0000
0011
0000
,
0000
0020
0200
0330
,
1000
0100
0000
1000
0000
0000
0001
1000
,
0001
0000
1001
0000
0000
0000
1000
0100
,
1000
0000
0001
0100
0001
0000
1000
0000
,
0020
0100
0130
0001
,
0010
0000
0100
0010
0200
0000
0300
0000
,
2000
0000
0100
0000
3100
0000
1000
0001
,
1000
0010
0220
0330
,
0200
0010
0310
1000
,
0100
0000
0010
0100
0020
0000
0030
0000
,
0002
0000
0100
0000
0103
0000
0010
0100
,
0010
1000
2002
3003
,
1000
0100
1000
0100
,
0010
0001
0010
0001
,
0010
0010
0100
0100
,
1000
0001
1000
0001
,
1000
0000
0100
0000
1000
0100
0001
0000
,
1000
0000
0010
0000
1000
0010
0001
0000
,
0001
0000
0100
0000
0001
0100
1000
0000
,
0001
0000
0010
0000
0001
0010
1000
0000
,
0001
1000
0001
1000
0000
0000
0000
0000
;

//--------------- dance-single - 8Chasey ----------------
#NOTES:
     dance-single:
     8Chasey:
     Hard:
     7:
     0,0,0,0,0:
0000
0000
0000
0000
,
0000
0000
0000
0000
,
0000
0000
0000
0000
,
0000
0000
0000
0000
,
0001
0000
1000
0100
1000
0010
0000
0010
,
1000
0000
0001
0010
0001
1000
0001
0000
,
1000
0000
0001
0100
0001
0010
0000
0010
,
0001
0000
1000
0100
1000
0000
1001
0000
,
0001
0010
0001
0000
0100
0000
0001
0100
,
0001
0000
1000
0001
1000
0000
0100
0000
,
1000
0010
1000
0000
0100
0000
1000
0100
,
1000
0000
0001
1000
0001
0000
0100
0000
,
0000
0001
0100
0001
0000
1000
0001
0000
,
1000
0000
0100
1000
0100
0000
0010
0100
,
0000
1000
0100
1000
0000
0001
1000
0000
,
0001
0000
0100
0001
0100
0000
0010
0100
,
0000
0010
0100
0010
0000
0100
0010
1000
,
0000
0001
0101
1100
,
0000
1000
0001
1000
0000
0001
1000
0000
,
0010
0100
0000
0100
0010
0000
0110
0000
,
0100
0000
0001
0010
0001
0000
1000
0000
,
0001
1000
0000
0002
0000
0010
0010
0013
,
0000
0000
0100
0000
0010
0100
0000
1000
,
0002
0000
0003
2000
0000
0010
0010
3010
,
0000
0000
1000
0100
1000
0100
1000
0000
,
2002
0000
3003
0220
0000
0000
0330
0000
,
0100
0000
0001
1000
0001
0000
1000
0100
,
1000
0200
0000
0020
0000
0000
0330
0000
,
0001
0000
0100
0001
0100
0000
0001
0000
,
1000
0100
1000
0100
1000
0000
0001
0000
,
1000
0000
0010
1000
0010
0000
1000
0000
,
0001
0010
0001
0010
0001
0000
1000
0000
,
0100
0000
1000
0100
1000
0000
0001
0000
,
0100
0010
0100
0000
0010
0100
0010
0000
,
0100
0000
0001
1000
0001
0000
1000
0001
,
0000
0000
0100
0000
0001
0000
0100
0000
0001
0000
0000
0000
1000
0100
1000
0100
,
1000
0100
1000
0100
1000
0100
1000
0100
1000
0100
1000
0100
1000
0100
1000
0100
,
1000
2010
0001
3100
,
1000
0100
1000
0001
0000
0001
0100
0000
,
0011
0000
1100
0000
1000
0000
0001
0100
,
0010
0000
1000
0100
0010
0000
0110
0000
,
0100
0012
1000
0103
,
0001
0100
0001
1000
0000
1000
0100
0000
,
1010
0000
0101
0000
0001
0000
1000
0010
,
0100
0000
0001
0010
0100
0000
0110
0000
,
0020
0001
1000
0130
,
0010
0100
0010
0100
0020
0000
0130
0000
,
2000
0010
0001
3100
,
1000
0001
1000
0000
0202
0000
0303
0000
,
0200
1000
0301
0100
,
0010
0100
0010
0100
0020
0000
0130
0000
,
0002
0100
1000
0013
,
0001
1000
0001
0000
2020
0000
3030
0000
,
1200
1300
2010
3010
,
0102
0103
0021
0031
,
1002
0103
0210
0301
,
0021
0130
2100
3010
,
1000
0100
0001
0000
1000
0010
0001
0000
,
0001
0100
1000
0000
0001
0010
1000
0000
,
0100
1000
0010
0000
0100
0001
0010
0000
,
0001
0100
0010
1000
0100
0010
0200
0000
,
1300
0001
1000
0001
0000
0000
0000
0000
;

//--------------- dance-double - 8Chasey ----------------
#NOTES:
     dance-double:
     8Chasey:
     Easy:
     3:
     0,0,0,0,0:
00000000
00000000
00000000
00000000
,
00000000
00000000
00000000
00000000
,
00000000
00000000
00000000
00000000
,
00000000
00000000
00000000
00000000
,
00001000
00000000
00010000
00000000
,
00000100
00001000
00000100
00000100
,
00010000
00000000
00001000
00000000
,
01000000
00010000
01000000
01100000
,
00000000
01001000
00000000
00001000
,
00000000
00010100
00000000
00010000
,
00000000
00101000
00000000
00001000
,
00000000
00010010
00000000
00010000
,
00000000
00001000
01000000
00001000
,
00010000
00000000
00001000
00001000
,
00000000
00010000
00000100
00010000
,
00001000
00000000
00010000
00010000
,
00000000
00000100
00000010
00000100
,
00010000
00010000
00001000
00001000
,
00000000
00100000
01000000
00100000
,
00001000
00001000
00010000
00010000
,
00000000
00000100
00001000
00000000
,
00000001
00000000
00000000
00000002
00000000
00000000
00000003
00000000
,
00000000
00001000
00000100
00000000
,
00010000
00000000
00000000
00020000
00000000
00000000
00030000
00000000
,
00000000
01000000
10000000
00000000
,
00100000
00000000
00000000
00200000
00000000
00000000
00300000
00000000
,
00010000
00000000
00001000
00000000
,
00022000
00000000
00033000
00000000
,
00000000
00100000
00000000
00100000
,
01000000
00100000
01000000
00100000
,
00000000
00000010
00000000
00000010
,
00000100
00000010
00000100
00000010
,
00000000
00001000
00000000
00000001
,
00001000
00000001
00001000
00000001
,
00000000
00000100
00000000
00001000
,
00010000
00001000
00010000
00022000
,
00000000
00000000
00000000
00000000
,
00033000
00100000
01000000
00000000
,
10000000
00000000
01000000
00000000
,
00010000
00010000
00000000
00001000
,
00010000
00001000
00010000
00011000
,
00000000
00000010
00000100
00000000
,
00000001
00000000
00000100
00000000
,
00001000
00001000
00000000
00010000
,
00001000
00010000
00001000
00011000
,
00020000
00000000
00030100
00000000
,
00000010
00000100
00000010
00000000
,
00000001
00000000
00001000
00000100
,
00010000
00001000
00011000
00000000
,
00002000
00000000
01003000
00000000
,
00100000
01000000
00100000
00000000
,
10000000
00000000
00010000
01000000
,
00001000
00010000
00011000
00000000
,
00001000
00000000
00001000
00000000
,
00010000
00000000
00010000
00000000
,
00001000
00000000
00010000
00000000
,
00001000
00000000
00010000
00000000
,
00100000
00000000
01000000
00000000
,
00001000
00000000
00010000
00000000
,
00000010
00000000
00000100
00000000
,
00001000
00000000
00010000
00000000
,
00011000
00011000
00000000
00000000
;

//--------------- dance-double - 8Chasey ----------------
#NOTES:
     dance-double:
     8Chasey:
     Medium:
     5:
     0,0,0,0,0:
00000000
00000000
00000000
00000000
,
00000000
00000000
00000000
00000000
,
00000000
00000000
00000000
00000000
,
00000000
00000000
00000000
00000000
,
00000001
00000000
00000100
00000000
00000001
00000100
00000000
00000000
,
00001000
00000000
00010000
00000000
01000000
00100000
01000000
00000000
,
10000000
00000000
01000000
00000000
10000000
01000000
00000000
00000000
,
00010000
00000000
00001000
00000000
00000100
00000010
00000100
00000000
,
00001000
00000000
00000010
00001000
00000010
00000000
00000100
00000000
,
00000000
00000000
00001000
00010000
00001000
00000000
00011000
00000000
,
00010000
00000000
00100000
00010000
00100000
00000000
01000000
00000000
,
00000000
00010000
10000000
10010000
,
00000000
10000000
00000000
00010000
00000000
10000000
01000000
00000000
,
10000000
00000000
00010000
00000000
01000000
00000000
00100000
00100000
,
00000000
01000000
00000000
00001000
00000000
00010000
00001000
00000000
,
00010000
00000000
00000010
00000000
00000100
00000000
00000100
00000100
,
00000000
00000001
00000000
00001000
00000000
00000001
00000001
00000000
,
00001000
00000010
00000100
00000101
,
00000000
00001000
00000000
00000001
00000000
00001000
00001000
00000000
,
00000001
00000010
00000100
00001100
,
00000000
00000100
00010000
00001000
,
00100000
00000000
00000000
00100000
00000000
01000000
00200000
00000000
,
01300000
00010000
00001000
00000100
,
00000010
00000000
00000000
00000010
00000000
00000100
00000020
00000000
,
00000130
00000001
00000100
00001000
,
00020000
00000000
00000000
00002000
00000000
00000000
00033000
00000000
,
00001000
00010000
01000000
10000000
,
00020000
00000000
00000000
20000000
00000000
00000000
30030000
00000000
,
00000000
10000000
01000000
10000000
,
00010000
01000000
00010000
10010000
,
00000000
01000000
00001000
00010000
,
00000100
00000000
00000000
00000000
00000010
00000100
00000010
00000000
,
00000000
00000001
00000100
00000001
,
00001000
00000100
00001000
00001001
,
00000000
00000100
00010000
00001000
,
01000000
00000000
00100000
01000000
00100000
00000000
10000000
10000000
,
10000000
10000000
10000000
10000000
10000000
10000000
10000000
10000000
,
10000000
00200000
02000000
03300000
,
00001000
00010000
00000000
00001000
00000000
00000000
00010000
00000000
,
00000100
00000110
00000000
00000010
,
00000001
00000100
00000001
00000000
00001000
00000000
00000100
00000000
,
00000000
00000020
00000200
00000330
,
00010000
00001000
00000000
00010000
00000000
00000000
00001000
00000000
,
01000000
01100000
00000000
00100000
,
10000000
01000000
10000000
00000000
00010000
00000000
01000000
00000000
,
00002000
00010000
00013000
00000100
,
00000010
00000000
00000100
00000010
00000200
00000000
00000300
00000000
,
00001000
00000000
00000001
00000000
00000100
00000000
00000010
00000100
,
00000010
00010000
00022000
00033000
,
00020000
00001000
00031000
00100000
,
01000000
00000000
00100000
01000000
00200000
00000000
00300000
00000000
,
00010000
00000000
10000000
00000000
00100000
00000000
01000000
00100000
,
01000000
00001000
00022000
00033000
,
00010000
00001000
00010000
00001000
,
00000010
00000000
00000100
00000000
00000010
00000100
00000010
00000000
,
00001000
00010000
00001000
00010000
,
00100000
00000000
01000000
00000000
00100000
01000000
00100000
00000000
,
10000000
00000000
01000000
00000000
10000000
01000000
00010000
00000000
,
00001000
00000000
00010000
00000000
00001000
00000010
00000001
00000000
,
00000001
00000000
00000100
00000000
00000001
00000100
00001000
00000000
,
00010000
00000000
00001000
00000000
00010000
00100000
10000000
00000000
,
00010000
10000000
00010000
10000000
00000000
00000000
00000000
00000000
;

//--------------- dance-double - 8Chasey ----------------
#NOTES:
     dance-double:
     8Chasey:
     Hard:
     7:
     0,0,0,0,0:
00000000
00000000
00000000
00000000
,
00000000
00000000
00000000
00000000
,
00000000
00000000
00000000
00000000
,
00000000
00000000
00000000
00000000
,
00001000
00000000
01000000
00010000
01000000
00100000
00000000
00100000
,
10000000
00000000
01000000
10000000
00100000
00000000
01100000
00000000
,
01000000
00000000
00001000
00010000
00000100
00001000
00000000
00001000
,
00000001
00000000
00000100
00000001
00000010
00000000
00000110
00000000
,
00000100
00001000
00000100
00000000
00010000
00000000
00001000
01000000
,
00001000
00000000
10000000
00010000
10000000
01000000
00100000
00000000
,
00001000
00010000
00001000
00000000
00010000
00000000
00000100
00000010
,
00000001
00000000
00001000
00000001
00001000
00000000
00001001
00000000
,
00001000
00000001
00000100
00000010
00010000
00001000
00010000
00000000
,
00001000
00000000
01000000
00010000
01000000
00000000
00100000
00100000
,
00000000
10000000
01000000
00100000
00001000
00010000
00001000
00000000
,
00010000
00000000
00000100
00001000
00000100
00000000
00000010
00000010
,
00000000
00000001
00000100
00000001
00001000
00000100
00001000
00000010
,
00000000
00010000
00001000
00010000
00001000
00000000
00011000
00000000
,
00000000
00100000
00010000
00100000
01000000
10000000
01000000
00000000
,
10000000
00010000
00000000
00010000
10000000
00000000
10010000
00000000
,
00010000
00000000
01000000
00100000
01000000
00000000
00001000
00000000
,
00010000
00001000
00000000
00020000
00000000
00000010
00000010
00030010
,
00000000
00000000
00000100
00000010
00000100
00000001
00000000
00001000
,
00000001
00000010
00000000
00002000
00000000
00100000
00100000
00103000
,
00000000
00000000
00010000
01000000
00001000
00100000
00001000
00000000
,
00022000
00000000
00033000
00000220
00000000
00000000
00000330
00000000
,
00000100
00000001
00000100
00000001
00000010
00000000
00000100
00001000
,
00000100
00000010
00000000
00000200
00010000
00000000
00010300
00000000
,
00011000
00000000
00001000
01000000
00001000
00000000
00100000
00010000
,
00100000
00000000
01000000
10000000
01000000
10000000
01000000
00000000
,
10000000
00000000
00100000
01000000
00100000
00000000
01000000
00010000
,
01000000
00000000
00001000
00010000
00001000
00010000
00001000
00000000
,
00011000
00000000
00010000
00000100
00010000
00000000
00000100
00000000
,
00000010
00000010
00000100
00000100
00001000
00000001
00001000
00000001
,
00000000
00000000
00000010
00001000
00010000
00000000
00010000
00001000
,
00000000
00000000
00100000
00000000
01000000
00000000
00100000
00000000
01000000
00000000
00000000
00000000
10000000
01000000
10000000
01000000
,
10000000
01000000
10000000
01000000
10000000
01000000
10000000
01000000
10000000
01000000
10000000
01000000
10000000
01000000
10000000
01000000
,
10000000
02100000
00001000
03010000
,
00100000
00001000
00010000
00000010
00000000
00000010
00000100
00000000
,
00000110
00000000
00001001
00000000
00000001
00000000
00001000
00000001
,
00000100
00000000
00000001
00000010
00001000
00000000
00011000
00000000
,
00010000
00010020
00000100
00001030
,
00000100
00010000
00001000
01000000
00000000
00010000
10000000
00000000
,
11000000
00000000
00110000
00000000
00100000
00000000
01000000
10000000
,
00100000
00000000
01000000
00010000
00100000
00000000
01100000
00000000
,
00200000
10000000
01000000
00301000
,
00000010
00000001
00000010
00000100
00000020
00000000
00000130
00000000
,
00020000
00000000
00000010
00000010
00000010
00000000
00030100
00000000
,
00001000
00000001
00000100
00000000
00000220
00000000
00000330
00000000
,
00000020
00000001
00000100
00010030
,
00100000
10000000
00100000
01000000
00200000
00000000
01300000
00000000
,
00002000
00000000
00100000
00100000
00100000
00000000
01003000
00000000
,
00010000
10000000
01000000
00000000
02200000
00000000
03300000
00000000
,
00010000
01010000
10000000
10100000
,
00100000
01100000
01000000
10010000
,
00100000
00011000
00000100
00000110
,
00000010
00011000
01000000
01100000
,
00100000
10000000
01000000
00000000
00100000
00010000
01000000
00000000
,
00001000
00010000
00001000
00000000
00010000
00000000
00011000
00000000
,
00000010
00001000
00000100
00000000
00000010
00000001
00000100
00000000
,
00000001
00000010
00000100
00010000
00001000
00100000
02000000
00000000
,
13000000
00010000
10000000
00010000
00000000
00000000
00000000
00000000
;
