#TITLE:Follow Mii;
#SUBTITLE:;
#ARTIST:CG5;
#TITLETRANSLIT:;
#SUBTITLETRANSLIT:;
#ARTISTTRANSLIT:;
#GENRE:;
#CREDIT:8Chasey 2025;
#MUSIC:Follow Mii.ogg;
#BANNER:;
#BACKGROUND:;
#CDTITLE:;
#SAMPLESTART:34.500;
#SAMPLELENGTH:12.000;
#SELECTABLE:YES;
#OFFSET:-0.120;
#BPMS:0.000=115.000;
#STOPS:;
#BGCHANGES:;
#FGCHANGES:;

//--------------- dance-single - 8Chasey ----------------
#NOTES:
     dance-single:
     8Chasey:
     Beginner:
     1:
     0,0,0,0,0:
0000
0000
0000
0000
,
0000
0000
0000
0000
,
0000
0000
0000
0000
,
0000
0000
0000
0000
,
0001
0000
0000
0000
,
1000
0000
0000
0000
,
0001
0000
0000
0000
,
0000
0000
0000
0000
,
0010
0000
0000
0000
,
0100
0000
0000
0000
,
0010
0000
0000
0000
,
0010
0000
0000
0000
,
1000
0000
0000
0000
,
0001
0000
0000
0000
,
1000
0000
0000
0000
,
0010
0000
0010
0000
,
1001
0000
0000
0000
,
0001
0000
0001
0000
,
0000
0000
0000
0000
,
1000
0000
1000
0000
,
0000
0000
0000
0000
,
0010
0000
0010
0000
,
0000
0000
0000
0000
,
0100
0000
0100
0000
,
0000
0000
0000
0000
,
0010
0000
0000
0000
,
0000
0000
0000
0000
,
0100
0000
0000
0000
,
0010
0000
0000
0000
,
1000
0000
0000
0000
,
0001
0000
0000
0000
,
1000
0000
0000
0000
,
0000
0000
0000
0000
,
0100
0000
0000
0000
,
0010
0000
0000
0000
,
0100
0000
0000
0000
,
0100
0000
0000
0000
,
0001
0000
0000
0000
,
1000
0000
0000
0000
,
0001
0000
0000
0000
,
1001
0000
0000
0000
,
0000
0000
0000
0000
,
1000
0000
1000
0000
,
0000
0000
0000
0000
,
0001
0000
0001
0000
,
0000
0000
0000
0000
,
0100
0000
0100
0000
,
0000
0000
0000
0000
,
0010
0000
0010
0000
,
0000
0000
0000
0000
,
0001
0000
0001
0000
,
0000
0000
0000
0000
,
1000
0000
1000
0000
,
0000
0000
0000
0000
,
0010
0000
0010
0000
,
0000
0000
0000
0000
,
0100
0000
0100
0000
,
0000
0000
0000
0000
,
0010
0000
0000
0000
,
0000
0000
0000
0000
,
0100
0000
0000
0000
,
0000
0000
0000
0000
,
0010
0000
0000
0000
,
0100
0000
0000
0000
,
0001
0000
0000
1000
,
0000
0000
0000
0000
,
1001
0000
0000
0000
;

//--------------- dance-single - 8Chasey ----------------
#NOTES:
     dance-single:
     8Chasey:
     Easy:
     3:
     0,0,0,0,0:
0000
0000
0000
0000
,
0000
0000
0000
0000
,
0000
0000
0000
0000
,
0000
0000
0000
0000
,
0002
0000
1003
0000
,
0001
1000
0001
0000
,
0100
0100
0000
0010
,
0010
0000
1000
0001
,
1000
0000
0010
0000
,
0100
0100
0000
0000
,
0001
0000
1000
0000
,
0010
0000
0010
0000
,
1000
0001
1000
0000
,
0001
1000
0001
0000
,
0100
0020
0000
0030
,
0100
0010
0100
0000
,
2002
0000
0000
3003
,
1001
0000
0001
0000
,
1000
0100
1000
0000
,
0010
0000
1000
0000
,
0001
0100
0001
0000
,
0100
0000
0010
0000
,
0100
0010
0100
0000
,
0010
0000
0020
0000
,
0030
0000
0100
0000
,
0200
0000
0300
0000
,
0001
1000
0000
0000
,
1000
0000
0010
0000
,
0100
0000
0010
0000
,
2000
0000
3001
0000
,
1000
0001
1000
0000
,
0010
0010
0000
0100
,
0100
0000
0010
0100
,
0110
0000
0001
0000
,
1000
1000
0100
0100
,
1000
0000
0010
0000
,
0100
0000
0001
0000
,
0100
0010
0100
0000
,
0010
0100
0010
0000
,
1000
1000
0000
0000
,
0001
0001
2002
0000
,
3003
0000
1000
1000
,
1001
0000
0001
0000
,
0100
0001
0100
0000
,
0010
0000
1000
0000
,
0100
1000
0100
0000
,
1000
0000
0001
0000
,
0100
0010
0100
0000
,
0010
0000
0220
0000
,
0330
0000
1000
0001
,
1001
0000
0001
0000
,
1000
0100
1000
0000
,
0010
0000
1000
0000
,
0001
0100
0001
0000
,
0100
0000
0010
0000
,
0100
0010
0100
0000
,
0010
0000
0020
0000
,
0030
0000
0100
0000
,
0200
0000
0300
0000
,
1000
0001
0000
0000
,
1000
0000
0001
0000
,
0100
0000
0010
0000
,
1000
0000
1000
0000
,
0001
0000
0001
0000
,
1000
1000
0000
0001
,
0001
0000
0000
0000
,
1001
0000
0000
0000
;

//--------------- dance-single - 8Chasey ----------------
#NOTES:
     dance-single:
     8Chasey:
     Medium:
     5:
     0,0,0,0,0:
0000
0000
0000
0000
,
0000
0000
0000
0000
,
0000
0000
0000
0000
,
0000
0000
0000
0000
,
0001
0000
0010
0001
0000
0100
0000
0010
,
0000
1000
0000
0100
0010
0000
0100
0000
,
1000
0100
1000
0000
0000
0000
0001
0100
,
0001
0000
0010
0100
,
1001
0000
1000
0000
0010
1000
0010
0000
,
0100
0001
0100
0000
0010
0000
0110
0000
,
0100
0000
0001
0100
0000
0001
1000
0000
,
0100
0000
0000
1000
0001
0000
0010
0000
,
0001
0000
0100
0002
0000
0000
0003
0000
,
1000
0000
0100
2000
0000
0000
3000
0000
,
0010
0100
0020
0000
0000
0000
0030
0000
,
1000
0001
0100
0000
0020
0000
0030
0000
,
2002
0000
0000
3003
,
1001
0000
1000
0010
2000
0000
0000
0000
,
3100
0000
1000
0000
0001
1000
0000
0001
,
1000
0000
0001
0100
0002
0000
0000
0000
,
0013
0100
0010
0000
0001
0000
1000
0000
,
1001
0000
0010
0100
0020
0000
0000
0000
,
1030
0000
0100
0000
1000
0001
0000
0100
,
0001
0000
0000
0001
0200
0000
0000
0000
,
0310
0000
1000
0000
0001
0001
0001
0000
,
1001
0000
0000
1000
0000
0001
0000
0000
,
0100
0010
0100
0000
0000
0000
0000
0100
,
0001
0000
1000
0001
0000
1000
0000
0100
,
0020
0000
0130
0000
,
1000
0000
0100
1000
0000
0001
0000
0100
,
0000
0010
0000
0010
0100
0000
0001
0000
,
1000
1000
2000
0000
3000
0000
0001
0001
,
0002
0003
0100
0010
,
1001
0000
0001
0010
0001
0000
1000
0100
,
1000
0000
0001
0000
0100
0100
0100
0000
,
0010
1000
0001
0000
1000
0001
0000
0100
,
0010
0000
0000
0010
0100
0000
0000
0000
,
0001
0000
0010
0001
0000
0010
0001
0000
,
1000
0000
0100
1000
0000
0100
1000
0000
,
0010
0100
0020
0000
0000
0000
0030
0000
,
0100
0001
1000
0000
2002
0000
0000
0000
,
0000
3003
1000
0001
,
1001
0000
1000
0001
2000
0000
0000
0000
,
3001
0000
0100
0000
0001
0010
0000
0001
,
1000
0000
0100
1000
0002
0000
0000
0000
,
0103
0010
1000
0000
0020
0000
0100
0000
,
0130
0000
0001
1000
0002
0000
0000
0000
,
0003
0000
1000
0000
0010
1000
0000
0100
,
1000
0000
0000
0001
2000
0000
0000
0000
,
3010
0100
0000
0100
0010
0000
0110
0000
,
1001
0000
0001
0010
0200
0000
0000
0000
,
1300
0000
0001
0100
0001
1000
0000
0010
,
0100
0000
0000
0001
0020
0000
0000
0000
,
0031
0000
1000
0100
0010
0000
0100
0000
,
0110
0000
0010
0001
2000
0000
0100
0000
,
3100
0000
1000
0010
1000
0001
0000
0100
,
0001
0000
0001
0100
0002
0000
0000
0000
,
0013
0000
0001
0000
1000
0100
1000
0000
,
1001
0000
0000
0001
0000
1000
0000
0000
,
0100
0010
0100
0000
0000
0000
0000
0010
,
0001
0000
1000
0010
0000
1000
0000
0001
,
0020
0000
0130
0000
,
1100
0000
1000
0010
0000
1000
0000
0001
,
0000
0010
0000
0001
0100
0000
0101
0000
,
0100
0010
0200
0000
0300
0000
0010
0100
,
0020
0030
1000
0001
,
1001
0000
0000
0000
;

//--------------- dance-single - 8Chasey ----------------
#NOTES:
     dance-single:
     8Chasey:
     Hard:
     8:
     0,0,0,0,0:
0000
0000
0000
0000
,
0000
0000
0000
0000
,
0000
0000
0000
0000
,
0000
0000
0000
0000
,
0001
0010
0001
0100
0000
0010
0000
0010
,
1000
0000
0010
0000
1000
0000
0100
1000
0100
0000
1000
0000
0001
0000
0100
0000
,
0010
1000
0020
0000
0130
0001
1000
0001
,
0200
0000
0000
0000
0301
0000
1000
0100
2000
0000
0000
0000
3002
0000
0000
0000
,
0013
0000
0011
0001
0100
1000
0100
0010
,
1000
0000
1000
0000
0100
0000
1000
0001
1000
0000
0001
0000
0001
0000
0000
0000
,
0100
0001
0100
0010
1000
0100
1000
0000
,
0002
0000
0000
0000
0010
0000
1000
0000
2000
0000
0000
0000
3003
0000
1000
0100
,
1000
0100
1000
0001
0000
0100
0001
0010
,
0001
0000
0100
0000
0001
0000
1000
0001
1000
0000
0001
0000
0100
0000
0100
0000
,
0001
1000
0002
0000
0100
0000
1003
0010
,
1000
0001
0100
0001
0020
0100
0130
0000
,
2002
0000
0000
3003
,
0102
0000
0013
0001
2000
0100
0000
3100
,
1000
0000
0001
0000
0100
0000
0001
0100
0001
0000
0010
0000
0010
0000
0100
0000
,
0020
0000
0031
1000
0200
0010
0000
0310
,
0001
0000
0100
0000
1000
0000
0100
0010
0100
0000
0001
0000
0010
0000
0001
0100
,
0002
0000
0103
0001
2000
0010
0000
3010
,
0100
0000
0100
0000
0001
0000
1000
0001
1000
0000
1001
0000
0000
0000
0001
0000
,
0200
0000
0000
0010
0020
0000
0330
0000
,
2000
0000
0010
0000
0001
0001
3001
0100
,
0220
0000
0330
1010
0000
0101
0000
0002
,
0010
0100
1003
0000
0000
0010
1000
0010
,
0110
0100
0001
0011
0000
1100
0000
1000
,
0002
0000
0003
0100
1000
0100
0010
0000
,
1010
0000
1000
0001
0010
0001
0000
0100
,
0001
0000
1000
0000
0100
0000
1000
0100
1000
0000
0010
0000
0100
0000
0000
0000
,
0110
0110
0220
0000
0330
0000
1001
1001
,
2002
3003
0002
2003
,
3010
0000
1010
1000
0001
0100
0001
0010
,
0100
0010
0200
0000
1000
1000
1300
0000
,
0010
1000
0010
0100
0001
1001
0000
1000
,
0020
0000
0000
0000
0030
0000
1000
0001
1000
0000
0001
0000
0100
0000
0001
0100
,
0001
0010
0001
0101
0000
0100
0010
0010
,
1000
0010
1000
1100
0000
0100
0010
0001
,
0100
0100
0002
0000
0010
0000
1003
0100
,
1000
0001
0100
0001
0010
0000
2002
0000
,
0000
0000
0000
3003
1100
0000
0011
0000
,
1001
0000
1000
0100
0020
0000
0001
0000
,
0130
1000
0100
1000
0001
0101
0000
1000
,
1100
0000
0100
0010
0200
0000
1000
0010
,
0001
0000
0000
0000
0310
0000
0001
0010
0002
0000
0000
0000
1003
0000
0100
1000
,
0100
1000
0001
0100
0020
1000
0000
1030
,
0100
1000
0010
1000
1000
0001
0000
0100
,
0220
0000
0330
2000
0002
0000
0000
0000
,
3003
0101
0000
0001
2000
0100
3100
0000
,
2010
0000
3001
0100
0002
0010
0000
0013
,
0001
0000
0100
0000
0001
0000
1000
0010
1000
0000
0001
0000
0100
0000
0100
0000
,
0102
0000
0013
0001
2000
0010
0000
3100
,
0010
0000
0001
0000
1000
0000
0001
0100
0002
0000
0000
0000
1003
0000
0010
0000
,
2010
0000
3100
1000
0002
0100
0000
0013
,
0000
0001
0010
0001
1000
0100
1000
0010
,
0020
0000
0000
0100
0200
0000
0330
0000
,
0002
0000
0000
0000
0100
0000
0000
0000
1000
0000
1000
0000
1003
0000
0100
1000
,
0100
0000
1000
0001
0000
0101
0000
0100
,
0010
1000
1001
0000
0001
0010
0001
0100
,
0001
1000
1000
0100
0000
1000
0001
0100
,
0002
0000
0000
0000
0000
0000
1000
0000
2000
0000
0000
0000
3003
0000
0010
1000
,
0010
0100
0001
0100
0000
0101
0000
1100
,
0000
1000
0000
0002
0010
0000
0013
0000
,
0001
0001
0002
0000
0000
0000
1000
1000
,
2000
0000
0000
0000
3003
0000
0000
0000
1000
0010
0000
0000
0001
0100
0000
0000
,
1001
0000
0000
0000
;

//--------------- dance-double - 8Chasey ----------------
#NOTES:
     dance-double:
     8Chasey:
     Easy:
     3:
     0,0,0,0,0:
00000000
00000000
00000000
00000000
,
00000000
00000000
00000000
00000000
,
00000000
00000000
00000000
00000000
,
00000000
00000000
00000000
00000000
,
00001000
00000000
01000000
00000000
,
00001000
00010000
00000100
00000000
,
00000010
00000010
00000000
00000100
,
00000100
00000000
00001000
00000001
,
00001001
00000000
00000010
00001000
,
00000100
00000100
00010000
00010000
,
00000000
00001000
00100000
00001000
,
01000000
00000000
00100000
00000000
,
10000000
01000000
10000000
00000000
,
00010000
01000000
00010000
00000000
,
00100000
00200000
00000000
00300000
,
00001000
00010000
00001000
00000000
,
00022000
00000000
00000000
00033000
,
00011000
00000000
00010000
00000000
,
00001000
01000000
00001000
00000000
,
00100000
00000000
01000000
00000000
,
10000000
01000000
10000000
00000000
,
00010000
00000000
01000000
00000000
,
00100000
01000000
00100000
00000000
,
20000000
00000000
00020000
00000000
,
00000000
00000000
30030000
00000000
,
00100000
00000000
00001000
00000000
,
00010000
00001000
00000000
00000000
,
00001000
00000000
00010000
00000000
,
00000100
00000000
00000010
00000000
,
00000001
00000100
00001000
00000000
,
00010000
00100000
10000000
00000000
,
00010000
00010000
00000000
10000000
,
10000000
00000000
00100000
01000000
,
01100000
00000000
00100000
10000000
,
00100000
00100000
10000000
10000000
,
00000000
01000000
00100000
00000000
,
00001000
00000000
00010000
00000000
,
00000100
00000100
00001000
00000000
,
00000010
00000100
00000010
00000000
,
00000100
00000200
00000000
00000300
,
00001000
00010000
00022000
00000000
,
00000000
00033000
00010000
00001000
,
00011000
00000000
00100000
00000000
,
00000000
01000000
00010000
00000000
,
00001000
00000000
00000100
00000000
,
00000000
00000000
00000001
00000100
,
00000001
00000000
00000100
00000000
,
00001000
00010000
00001000
00000000
,
00200000
00000000
02000000
00000000
,
03300000
00000000
00010000
10000000
,
00010000
00000000
01000000
00000000
,
00100000
10000000
00100000
00000000
,
10000000
00000000
01000000
00000000
,
00100000
00001000
00010000
00001000
,
01000000
00000000
00100000
00000000
,
10000000
01000000
00010000
00000000
,
00002000
00000000
00020000
00000000
,
00000000
00000000
00033000
00000000
,
00011000
00000000
00010000
00000000
,
00000100
00001000
00000000
00000000
,
00000001
00000000
00000100
00000010
,
00000100
00000000
00000010
00000000
,
00001000
00000000
00000100
00000000
,
00010000
00001000
00010000
00000000
,
00100000
00100000
00000000
01000000
,
01000000
00000000
00010000
10000000
,
10010000
00000000
00000000
00000000
;
