#TITLE:Flow;
#SUBTITLE:(Wekiddy);
#ARTIST:So Far So Good & Incredible Polo;
#TITLETRANSLIT:;
#SUBTITLETRANSLIT:;
#ARTISTTRANSLIT:;
#GENRE:;
#CREDIT:8Chasey 2025;
#MUSIC:Flow (Wekiddy).ogg;
#BANNER:;
#BACKGROUND:;
#CDTITLE:;
#SAMPLESTART:17.690;
#SAMPLELENGTH:12.000;
#SELECTABLE:YES;
#OFFSET:-15.168;
#BPMS:0.000=95.000
,116.000=190.000
,215.750=95.000
;
#STOPS:;
#BGCHANGES:-22.000=Flow (Wekiddy).mp4=1.000=1=0=0=StretchNoLoop==CrossFade==,
230.500=Flow (Wekiddy)-bg.png=1.000=0=0=0=StretchNoLoop====,
99999.000=-nosongbg-=1.000=0=0=0=StretchNoLoop====
;
#FGCHANGES:;

//--------------- dance-single - 8Chasey ----------------
#NOTES:
     dance-single:
     8Chasey:
     Beginner:
     2:
     0,0,0,0,0:
0000
0000
0000
0000
,
0001
0000
0000
0000
,
0001
0000
0000
0000
,
1000
0000
0000
0000
,
1000
0000
0000
0000
,
0001
0000
0001
0000
,
1000
0000
1000
0000
,
0001
0000
0000
0000
,
1000
0000
0000
0000
,
0010
0000
0010
0000
,
0010
0000
0000
0000
,
0100
0000
0100
0000
,
0100
0000
0000
0000
,
0001
0001
0001
0000
,
1000
1000
1000
0000
,
0010
0000
0000
0000
,
0100
0000
0000
0000
,
0100
0000
0100
0000
,
0010
0000
0010
0000
,
1000
0000
0000
0000
,
0001
0000
0000
0000
,
1000
1000
1000
0000
,
0001
0000
0110
0000
,
0001
0000
0000
0000
,
1000
0000
0000
0000
,
0001
0000
0000
0000
,
0000
0000
1000
1000
,
0000
0000
0000
0000
,
0000
0000
0000
0000
,
0000
0000
0001
0000
,
0000
0000
0001
0000
,
0000
0000
0001
0000
,
0000
0000
0001
0000
,
0000
0000
1000
0000
,
0000
0000
1000
0000
,
0000
0000
1000
0000
,
0000
0000
1000
0000
,
0000
0001
0000
0001
,
0000
1000
0000
1000
,
0000
0001
0000
0001
,
0000
0001
0000
0001
,
0000
1000
0000
1000
,
0000
0001
0000
0001
,
0000
1000
0000
1000
,
0000
1000
0000
1000
,
0000
0000
0010
0000
,
0100
0000
0010
0000
,
0000
0000
0100
0000
,
0010
0000
0100
0000
,
0000
0001
0001
0000
,
0000
1000
1000
0000
,
1001
0000
0000
0000
;

//--------------- dance-single - 8Chasey ----------------
#NOTES:
     dance-single:
     8Chasey:
     Easy:
     3:
     0,0,0,0,0:
0000
0000
0000
0000
,
0001
0000
1000
0001
,
1000
0000
0001
1000
,
0020
0000
0130
0000
,
0200
0310
0100
0100
,
0002
0003
2000
3000
,
0001
1000
0001
1000
,
0020
0000
0030
0000
,
0100
0010
0100
0000
,
0001
0001
1000
1000
,
0002
0000
0000
0003
,
1000
1000
0001
0001
,
1000
1000
0010
0010
,
0100
0001
0100
0001
,
0100
1000
0100
1000
,
0200
0000
0000
0300
,
0010
0100
0010
0000
,
1001
0100
0001
0000
,
0010
0100
1000
0000
,
0020
0000
0130
0000
,
0200
0010
0310
0100
,
0001
0001
1000
1000
,
0010
0100
0110
0100
,
0001
0000
0001
0000
,
1000
1000
0001
2000
,
0000
0000
0000
0000
,
3000
0001
0000
1000
,
0001
0000
0000
0000
,
0000
0000
0000
0000
,
1000
0000
0001
0000
,
1000
0000
1000
0000
,
0001
0000
1000
0000
,
0001
0000
0001
0000
,
0010
0000
0001
0000
,
1000
0000
0100
0000
,
1000
0000
0001
0000
,
0100
0100
0100
0010
,
0000
0100
0000
0100
,
0000
0001
0100
0001
,
0000
0010
0000
0010
,
0000
0100
1000
0100
,
0000
1000
0000
0001
,
0000
1000
0010
1000
,
0000
0001
0000
0001
,
0100
0100
0001
0001
,
1000
0000
1000
0000
,
0100
0000
0100
0000
,
0010
0000
0010
0000
,
0001
0000
0001
0000
,
1000
1000
0100
0100
,
0010
0010
0001
0001
,
1000
0000
0000
0000
,
0002
0000
0000
0000
,
0003
0000
0000
0000
;

//--------------- dance-single - 8Chasey ----------------
#NOTES:
     dance-single:
     8Chasey:
     Medium:
     6:
     0,0,0,0,0:
0000
0000
0000
0000
,
0001
1000
0001
0000
1000
1000
0010
0000
,
1000
0001
1000
0000
0001
0001
0100
0001
,
0100
0000
0010
0100
0020
0000
1030
0001
,
1000
0000
0001
0000
0100
0100
0001
0000
,
0010
0000
0000
0010
0000
0000
0010
0000
0100
0000
0000
0100
0000
0000
0100
0000
,
1000
0100
1000
0100
1000
1000
0001
0000
,
0010
0000
0001
0100
0000
0001
0100
0000
,
0001
0001
1000
1001
,
1000
0100
1000
0001
0100
0000
0001
0000
,
0020
0000
0000
0000
0130
0100
0010
0000
,
0001
0000
0101
0000
1000
0100
1100
0000
,
1000
0000
1010
0000
0001
0010
0011
0000
,
0020
0000
0032
0000
1003
0001
1000
0000
,
0020
0000
2030
0000
3001
1000
0001
0000
,
1001
0000
0010
0100
0000
0010
0100
0000
,
0001
0001
1000
1001
,
1000
1000
0010
0000
1000
0001
1000
0000
,
0001
0010
0100
0000
0010
0100
1000
0000
,
0002
0003
2000
3000
,
0002
0003
2000
3000
0001
1000
0001
1000
,
0010
0010
0010
0010
1000
0010
1000
1000
,
0001
0001
0001
0001
1001
1000
0100
0010
,
0002
0203
0301
0001
,
2000
3200
1300
1000
,
0020
0100
0000
0130
,
0001
0001
1000
1000
,
0200
0000
0000
0000
0300
0000
0000
1000
,
0000
0000
0000
1000
0000
0001
1000
0001
,
0100
0001
1000
0100
,
1000
0000
0010
0000
1000
0001
1000
0000
,
0001
0010
0100
0010
,
0100
0000
1000
0000
0001
0010
0001
0000
,
0100
0001
0100
0010
,
1000
0000
0010
0000
0100
0010
0100
0000
,
0002
2003
3002
2003
,
3200
0320
0230
0320
,
0030
0001
0000
0010
0000
0001
0000
1000
,
0000
0100
0000
1000
0000
0010
0100
0000
,
0100
0010
0000
1000
0001
0000
1000
0000
,
0001
0000
0001
1000
0000
0100
0000
0010
,
0000
0001
0010
0000
0010
0000
0010
0000
,
0100
1000
0001
0100
,
0010
0010
1000
1000
,
0001
0000
1000
0000
0001
1000
0001
1000
,
0002
0013
2000
3100
,
0020
0130
0200
1300
,
0002
0103
0020
0031
,
0200
0310
2000
3001
,
0010
0001
0010
0000
0001
0010
0000
0001
,
0100
0000
0001
1000
0000
0010
1000
0000
,
0002
0000
2003
0000
,
3020
0000
0000
0000
,
0000
0000
0000
0030
,
0000
0000
0000
0000
,
0000
0000
0000
0000
,
0000
0000
0000
0001
1000
0001
0000
0100
,
0000
2000
0000
0000
0000
3000
0000
0000
0000
0000
0000
0000
0000
0000
0000
0000
;

//--------------- dance-single - 8Chasey ----------------
#NOTES:
     dance-single:
     8Chasey:
     Hard:
     9:
     0,0,0,0,0:
0000
0000
0000
0000
,
1000
0001
0100
0001
0010
0001
1000
1001
,
0001
0000
1000
0000
0010
0000
1000
0000
0100
0000
1000
0000
0010
0000
0100
0010
,
0200
0000
0000
0000
0300
0000
0001
1000
0001
0000
1000
0000
0100
0000
0010
0000
,
0100
0000
1000
0000
0001
0100
0001
0000
1000
0000
0001
0000
1001
0000
0000
0000
,
1000
0010
0000
1000
0010
0000
1000
0000
0001
0010
0000
0001
0010
0000
0001
0000
,
0100
0000
0010
0000
1000
0000
0010
0000
0100
0001
0100
0000
0101
0000
0000
0000
,
1001
0000
0000
1000
0010
0000
1000
0000
0100
0000
1000
0001
1000
0000
0002
0000
,
0100
0000
1000
1000
1003
0010
0110
0000
,
0100
0000
0000
0001
0000
0000
0010
0000
0000
0001
0000
0000
1000
0000
0100
0000
1000
0000
0100
0000
0000
0010
0000
0000
,
0200
0000
0000
0000
1000
1000
1300
0000
,
0010
0000
0001
0000
0011
0000
0000
0000
0001
1000
0010
0000
1010
0000
0000
0000
,
1000
0000
0100
0000
0110
0000
0000
0000
0010
0001
1000
0000
1001
0000
0000
0000
,
0001
0000
0000
0100
0000
0000
1000
0000
0000
0100
0000
0000
0001
0000
0100
0000
0001
0000
0100
0000
0000
0010
0000
0000
,
0100
0000
0000
0001
0000
0000
0100
0000
0000
1000
0000
0000
0100
0000
0010
0000
0100
0000
0010
0000
0000
1000
0000
0000
,
1001
0000
0000
0000
0010
0000
1000
0000
0100
1000
0100
0000
1000
0000
0010
0000
,
0200
0301
0020
0130
1000
0001
1001
0000
,
0010
0000
0000
0000
0000
0000
1000
0000
0000
0001
0000
0000
0000
0000
0000
1000
0000
0000
0001
0000
0000
0000
0000
0000
0100
0000
0000
0000
0001
0000
0000
0000
0100
0000
0000
0000
0001
0000
0000
0000
0000
0000
0010
0000
0000
0000
0000
0000
,
0100
0000
1000
0000
0001
0100
0001
0000
1000
0000
0010
0100
0020
0000
0000
0000
,
2030
0000
0100
0100
3002
0000
0010
0000
,
0013
0200
1300
0020
0130
0002
1000
1003
,
0010
1000
0010
1000
0010
0100
0010
0000
0100
0001
0100
0001
0100
0010
0100
0000
,
0001
0100
0001
0000
1000
0100
1000
0000
2002
3003
0001
1000
0010
0100
0010
0100
,
0020
2030
3002
0203
,
0310
1000
0010
0100
0001
1000
0200
0000
,
0320
0000
0001
0001
0031
0000
1000
0000
,
0020
0000
1000
1000
1030
0000
0001
0010
,
0200
0000
1000
0000
0000
1300
0000
0000
0020
0000
0001
0000
0000
0031
0000
0000
,
0200
0000
0001
0000
0000
0301
0000
0000
0020
0000
1030
0000
0001
1000
0001
1000
,
0001
0010
0100
1000
0100
0100
1000
0000
,
0010
1000
0010
0000
0100
0100
0001
0000
,
1000
0010
0100
0001
0100
0100
0001
0000
,
1000
0100
0010
0001
0010
0001
0100
0000
,
0010
1000
0001
1000
0100
1000
0010
0100
,
0001
0100
1000
0100
0001
0010
0001
0000
,
1000
1000
0010
0010
0100
0100
0001
0001
,
0010
0010
0100
0100
1000
0001
1000
0001
,
0100
0001
0000
1010
0000
1000
0001
1000
,
0000
1100
0000
0011
0000
1000
0001
1000
,
0000
1010
0000
0101
0000
0001
1000
0001
,
0100
0010
0100
0010
0100
0010
0000
1001
,
0000
0110
0000
0100
0001
0100
0001
1000
,
0001
0010
0001
1000
0100
1000
0010
0100
,
0001
0100
0010
1000
0010
1000
0100
1000
,
0001
0100
0010
1000
0100
0100
0100
0100
,
1000
0010
1000
0001
0010
0001
1000
0100
,
1000
0001
0100
0001
1000
0010
0100
0001
,
0010
0100
1000
0100
0010
0001
0100
0010
,
1000
0001
0010
0001
1000
0100
0010
0001
,
0001
0010
0100
0010
0100
1000
1000
0100
,
0010
0100
1000
0010
0100
0001
1000
0010
,
0100
0000
0001
0000
1000
0000
0001
0000
0010
0000
0100
0000
,
1000
0000
0000
0000
0000
0010
0000
0000
0000
0000
0000
0100
0000
0000
0000
0000
0000
0000
0020
0000
0000
0000
0000
0000
,
0000
0000
0000
0000
0000
0000
0000
0030
,
0000
0000
0000
0000
,
0000
0000
0000
0000
,
0000
0000
0000
0001
1000
0020
0000
0130
,
0000
2002
0000
0000
0000
3003
0000
0000
0000
0000
0000
0000
0000
0000
0000
0000
;
