#TITLE:ファーストステップ;
#SUBTITLE:;
#ARTIST:Kaori;
#TITLETRANSLIT:First Steps;
#SUBTITLETRANSLIT:;
#ARTISTTRANSLIT:;
#GENRE:Idol Pop;
#CREDIT:8Chasey 2025;
#MUSIC:First Steps.ogg;
#BANNER:First Steps-bn (English).png;
#BACKGROUND:First Steps-bg (English).png;
#CDTITLE:;
#SAMPLESTART:58.350;
#SAMPLELENGTH:12.000;
#SELECTABLE:YES;
#OFFSET:-0.114;
#BPMS:0.000=137.000;
#STOPS:;
#BGCHANGES:;
#FGCHANGES:;

//--------------- dance-single - 8Chasey ----------------
#NOTES:
     dance-single:
     8Chasey:
     Beginner:
     1:
     0,0,0,0,0:
0000
0000
0000
0000
,
0000
0001
0001
0001
,
0001
0000
0000
0000
,
0000
0001
0001
0001
,
0001
0000
0000
0000
,
0000
1000
1000
1000
,
1000
0000
0000
0000
,
0000
1000
1000
1000
,
1000
0000
0000
0000
,
0000
0010
0010
0010
,
0010
0000
0000
0000
,
0000
0010
0010
0010
,
0010
0000
0000
0000
,
0000
0100
0100
0100
,
0100
0000
0000
0000
,
0000
0100
0100
0100
,
0100
0000
0000
0000
,
0001
0000
0000
0000
,
0001
0000
0000
0000
,
1000
0000
0001
0000
,
1000
0000
0001
0000
,
1000
0000
0000
0000
,
1000
0000
0000
0000
,
0001
0000
1000
0000
,
0001
0000
1000
0000
,
0001
0000
0000
0000
,
0100
0000
0010
0000
,
0100
0000
0100
0000
,
0010
0000
0010
0000
,
0100
0000
0010
0000
,
0100
0000
0000
0000
,
0010
0000
0000
0000
,
0100
0000
0010
0000
,
0010
0010
0010
0010
,
0000
1000
1000
1000
,
1000
0000
0000
0000
,
0000
1000
1000
1000
,
1000
0000
0000
0000
,
0000
0001
0001
0001
,
0001
0000
0000
0000
,
0000
0001
0001
0001
,
0001
0000
0000
0000
,
0000
0100
0100
0100
,
0100
0000
0000
0000
,
0000
0100
0100
0100
,
0100
0000
0000
0000
,
0000
0010
0010
0010
,
0010
0000
0000
0000
,
0000
0010
0010
0010
,
0010
0000
0000
0000
,
0000
0000
0000
0000
,
0000
2002
0000
0000
,
0000
0000
0000
0000
,
3003
0000
0000
0000
;

//--------------- dance-single - 8Chasey ----------------
#NOTES:
     dance-single:
     8Chasey:
     Easy:
     3:
     0,0,0,0,0:
0000
0000
0000
0000
,
0000
0001
1000
0001
,
1000
0000
0000
0000
,
0000
1000
0001
1000
,
0001
0000
0000
0000
,
0010
0100
0010
0000
,
0100
0010
0100
0000
,
1000
1000
0100
1000
,
0001
0001
0100
0001
,
0000
1000
0010
1000
,
0100
0000
1000
0000
,
0000
0001
0010
0001
,
0100
0000
0001
0000
,
1000
0001
1000
0000
,
0001
1000
0001
0000
,
0010
0000
0001
0000
,
1000
0010
1000
0000
,
0100
0000
1000
0000
,
0010
1000
0010
0000
,
1000
0000
0001
0000
,
0010
0000
0001
0000
,
0100
0000
0001
0000
,
0010
0001
0010
0000
,
0001
0000
1000
0000
,
0010
0000
1000
0001
,
2002
0000
3003
0000
,
0001
0010
0001
0010
,
0100
0000
0100
0000
,
1000
0010
1000
0010
,
0100
0000
0100
0000
,
0001
1000
0001
0000
,
1000
0001
1000
0000
,
0010
0100
0010
0000
,
0100
0010
0100
0000
,
0110
0000
0010
0000
,
1000
0100
1000
0000
,
0001
0000
0010
0000
,
0001
0100
0001
0000
,
1000
1000
0100
0000
,
1000
0010
1000
1000
,
0001
0001
0100
0000
,
0001
0010
0001
0001
,
1000
0010
0100
0000
,
0010
0000
1000
0000
,
0001
0010
0100
0000
,
0010
0000
0001
0000
,
1000
0100
1000
0000
,
0001
0100
0001
0000
,
1000
0000
0010
0000
,
0100
0000
0001
0000
,
1000
0001
0000
0000
,
0000
2002
0000
0000
,
0000
0000
0000
0000
,
3003
0000
0000
0000
;

//--------------- dance-single - 8Chasey ----------------
#NOTES:
     dance-single:
     8Chasey:
     Medium:
     4:
     0,0,0,0,0:
0000
0000
0000
0000
,
0000
0001
0010
0001
,
0100
0000
0000
0000
0001
1000
0001
0000
,
0000
1000
0010
1000
,
0100
0000
0000
0000
1000
0001
1000
0000
,
0010
0000
0100
0001
,
0100
0000
0001
1000
,
1000
0000
0100
1000
,
0100
0000
1000
0001
,
0100
0010
0100
0010
,
1000
0100
1000
0000
,
0010
0100
0010
0100
,
0001
0010
0001
0000
,
1000
0100
1000
0000
,
0001
0010
0001
0000
,
0010
0001
0100
0100
,
0010
0000
1000
0000
0100
1000
0100
0000
,
0010
0000
0000
0000
0001
0000
0000
1000
,
0000
1000
0000
0001
0000
0001
1000
0000
,
0100
0000
0000
0100
0010
0000
0000
0001
,
0000
0010
0100
0000
1000
0000
1000
0000
,
0001
0000
0000
0000
0100
0000
0000
0001
,
0000
0001
0000
1000
0000
1000
0001
0000
,
0010
0000
0000
0000
0100
0000
0000
1000
,
0000
1000
0001
0000
0001
0000
0100
0000
,
0110
0000
0010
0000
,
1000
0000
0100
0000
1000
0001
1000
0000
,
0001
0000
0010
0000
,
0001
0000
0100
0000
0001
1000
0001
0000
,
1000
0000
0000
0010
0000
0000
1000
0000
,
0100
1000
0001
0010
,
0001
1000
0001
0001
,
1000
0001
1000
1000
,
0010
0100
0010
0110
,
0000
0100
0001
0100
,
0001
0000
1000
0000
,
0000
0100
1000
0100
,
1000
0000
0001
0000
,
0010
0000
0001
0010
,
0100
0000
0000
0000
1000
0001
1000
0000
,
0010
0000
1000
0010
,
0100
0000
0010
0100
,
0001
0100
0001
0000
1000
0000
0010
0000
,
1000
1000
0001
0000
,
1000
0100
1000
0000
0001
0000
0010
0000
,
0001
0001
1000
0000
,
0010
1000
0100
0000
,
0010
0001
0100
0000
,
0010
1000
0010
0000
0100
0001
0100
0000
,
0001
0001
1000
1000
,
0100
0010
0100
0000
0000
0000
0000
0000
,
0000
2002
0000
0000
,
0000
0000
0000
0000
,
3003
0000
0000
0000
;

//--------------- dance-single - 8Chasey ----------------
#NOTES:
     dance-single:
     8Chasey:
     Hard:
     6:
     0,0,0,0,0:
0000
0000
0000
0000
,
0001
0000
1000
0000
0010
1000
0010
0000
,
0100
0001
0010
0001
,
1000
0000
0001
0000
0010
0001
0010
0000
,
0100
1000
0010
0110
,
0100
0000
0001
0000
1000
0010
1000
0000
,
0010
0000
0010
0000
0100
0001
1000
0000
,
0100
0000
1000
0000
0001
0010
0001
0000
,
1000
1100
0001
0101
,
0010
0000
0001
0000
1000
0010
1000
0000
,
0100
1000
0001
0100
,
0010
0000
1000
0000
0001
0010
0001
0000
,
1000
0100
1000
0000
0001
0000
1001
0000
,
1010
0000
1000
0000
0010
0100
0001
0000
,
1000
0100
1000
0001
,
0011
0000
0001
0000
0010
0100
1000
0000
,
0010
0100
0010
0100
0010
0000
0100
0000
,
1001
0000
0001
0000
0000
1000
0100
0010
,
0000
0100
0000
0100
0000
0010
0100
0000
,
0010
0000
0001
1000
0001
0000
0100
0001
,
0000
1000
0000
0010
1000
0000
0100
0000
,
1000
0010
1000
0000
0000
0001
0010
0100
,
0000
0010
0000
0010
0000
0100
0010
0000
,
0100
0000
1000
0001
1000
0000
0100
1000
,
0000
0010
0100
0000
0001
1000
0001
1000
,
1001
0000
0000
0000
0001
0010
0001
0000
,
1000
0100
0010
0100
,
1000
0000
0010
1000
0000
0100
1000
0000
,
0001
0000
0010
0001
0000
0100
0001
0000
,
1000
0000
0010
0100
0000
0001
0010
0000
,
0100
1000
0001
0000
0100
0010
0100
0000
,
0001
0000
0010
0000
0100
1000
0100
0000
,
1000
0010
1000
0000
0101
0000
1001
0000
,
0001
0010
0001
0000
1100
0000
0110
0000
,
0010
0001
0100
0000
0001
0000
1000
0000
,
0010
1000
0010
1000
0001
0000
1000
0000
,
0010
1000
0100
0000
1000
0000
0001
0000
,
0100
0001
0010
0001
1000
0000
0010
0000
,
0100
0000
0010
1000
0000
0100
1000
0000
,
0001
0000
0100
0010
1000
0001
1000
0000
,
0100
0000
0010
0001
0000
0100
0001
1000
,
0000
0010
1000
0000
0100
0010
0001
0000
,
0010
1100
0010
0101
,
1000
0010
1000
0100
0010
0000
0001
0000
,
0100
1010
0100
0011
,
0010
0001
0100
0000
0010
1000
0100
0000
,
1000
0000
0001
0000
0010
0100
1000
0000
,
0100
1000
0010
0000
0100
0001
0010
0000
,
0001
0000
0100
0000
0010
1000
0100
0000
,
1000
0001
0010
0001
0100
0000
0010
0000
,
1000
1000
0001
0000
0010
0000
0001
0000
,
0100
2002
0000
0000
,
0000
0000
0000
0000
,
3003
0000
0000
0000
;

//--------------- dance-single - Placeholder chart ----------------
#NOTES:
     dance-single:
     Placeholder chart:
     Edit:
     5:
     0,0,0,0,0:
0000
0000
0000
0000
,
1000
0001
1000
0001
,
1000
0001
1000
0001
,
1000
0001
1000
0001
,
1000
0001
1000
0001
,
1000
0001
1000
0001
,
1000
0001
1000
0001
,
1000
0001
1000
0001
,
1000
0001
1000
0001
,
1000
0001
1000
0001
,
1000
0001
1000
0001
,
1000
0001
1000
0001
,
1000
0001
1000
0001
,
1000
0001
1000
0001
,
1000
0001
1000
0001
,
1000
0001
1000
0001
,
1000
0001
1000
0001
,
1000
0001
1000
0001
,
1000
0001
1000
0001
,
1000
0001
1000
0001
,
1000
0001
1000
0001
,
1000
0001
1000
0001
,
1000
0001
1000
0001
,
1000
0001
1000
0001
,
1000
0001
1000
0001
,
1000
0001
1000
0001
,
1000
0001
1000
0001
,
1000
0001
1000
0001
,
1000
0001
1000
0001
,
1000
0001
1000
0001
,
1000
0001
1000
0001
,
1000
0001
1000
0001
,
1000
0001
1000
0001
,
1000
0001
1000
0001
,
1000
0001
1000
0001
,
1000
0001
1000
0001
,
1000
0001
1000
0001
,
1000
0001
1000
0001
,
1000
0001
1000
0001
,
1000
0001
1000
0001
,
1000
0001
1000
0001
,
1000
0001
1000
0001
,
1000
0001
1000
0001
,
1000
0001
1000
0001
,
1000
0001
1000
0001
,
1000
0001
1000
0001
,
1000
0001
1000
0001
,
1000
0001
1000
0001
,
1000
0001
1000
0001
,
1000
0001
1000
0001
,
1000
0001
1000
0001
,
1000
0002
0000
0000
,
0000
0000
0000
0000
,
0003
0000
0000
0000
;
