#TITLE:Fantasy Suitcase;
#SUBTITLE:;
#ARTIST:Mr. T;
#TITLETRANSLIT:;
#SUBTITLETRANSLIT:;
#ARTISTTRANSLIT:;
#GENRE:Dream Pop;
#CREDIT:;
#MUSIC:Fantasy Suitcase.ogg;
#BANNER:Fantasy Suitcase.png;
#BACKGROUND:Fantasy Suitcase-bg.png;
#CDTITLE:;
#SAMPLESTART:26.120;
#SAMPLELENGTH:12.000;
#SELECTABLE:YES;
#OFFSET:-4.700;
#BPMS:0.000=112.043;
#STOPS:;
#DISPLAYBPM:112.000;
#BGCHANGES:;
#FGCHANGES:;

//--------------- dance-single - 8Chasey ----------------
#NOTES:
     dance-single:
     8Chasey:
     Beginner:
     1:
     0,0,0,0,0:
0000
0000
0000
0000
,
0000
0000
0000
0000
,
0001
0000
0000
0000
,
1000
0000
0000
0000
,
0001
0000
0001
0000
,
0001
0000
0000
0000
,
1000
0000
0000
0000
,
0001
0000
0000
0000
,
1000
0000
1000
0000
,
1000
0000
0000
0000
,
0010
0000
0000
0000
,
0100
0000
0000
0000
,
0010
0000
0100
0000
,
0010
0000
0000
0000
,
0100
0000
0000
0000
,
0010
0000
0000
0000
,
0100
0000
0010
0000
,
0100
0000
0000
0000
,
0001
0001
0000
0000
,
0001
0001
0000
0000
,
1000
1000
0000
0000
,
1000
1000
0000
0000
,
0010
0000
0000
0000
,
0100
0000
0000
0000
,
0010
0000
0100
0000
,
0010
0000
0000
0000
,
1000
0000
0001
0000
,
1000
0000
0000
0000
,
0001
0000
1000
0000
,
0001
0000
0000
0000
,
0100
0000
0100
0000
,
0010
0000
0010
0000
,
1000
0000
1000
0000
,
0001
0000
0001
0000
,
1000
0000
0000
0000
,
1000
0000
0000
0000
,
0001
0000
0000
0000
,
0001
0000
0000
0000
,
0100
0000
0000
0000
;

//--------------- dance-single - 8Chasey ----------------
#NOTES:
     dance-single:
     8Chasey:
     Easy:
     2:
     0,0,0,0,0:
0000
0000
0000
0000
,
0000
0000
0000
0000
,
0001
0000
1000
0000
,
0001
0000
1000
0000
,
0010
1000
0010
0000
,
0200
0000
0000
0310
,
1000
0000
0001
0000
,
1000
0000
0001
0000
,
0010
0000
0100
0000
,
0020
0000
0000
0130
,
1000
0000
0010
0000
,
1000
0000
0001
0000
,
0100
0100
0001
0000
,
0200
0000
0300
0000
,
0001
0000
0100
0000
,
0001
0000
1000
0000
,
0010
0000
0100
0000
,
0020
0000
0000
0130
,
0001
0100
0000
0001
,
1000
0100
0000
1000
,
0001
0010
0000
0001
,
1000
0010
0000
1000
,
0100
0100
0000
0000
,
0010
0010
0000
0000
,
0001
1000
0000
0000
,
0200
0000
0310
0100
,
2000
0000
0000
3000
,
0002
0000
0000
0003
,
0200
0000
0000
0300
,
0020
0000
0000
0030
,
0100
0100
0000
0001
,
1000
0010
0000
0010
,
0100
0000
0100
0000
,
0001
0000
1000
0000
,
0002
0000
0000
0003
,
2000
0000
0000
3000
,
0001
1000
0001
0000
,
1000
0001
1000
0000
,
0020
0000
0000
0000
,
0030
0000
0000
0000
;

//--------------- dance-single - 8Chasey ----------------
#NOTES:
     dance-single:
     8Chasey:
     Medium:
     4:
     0,0,0,0,0:
0000
0000
0000
0000
,
0000
0000
0000
0000
,
0001
1000
0002
0003
,
0100
0001
0200
0300
,
0010
1000
0001
1000
,
0100
0000
0010
0000
0100
0010
0100
0000
,
0010
0001
0200
0300
,
0010
1000
0200
0300
,
2000
0010
3002
1000
,
0203
0000
0310
1001
,
0100
0001
2000
3000
,
0010
1000
0002
0003
,
0100
0001
1000
0100
,
1000
0000
0010
0000
1000
0001
1000
0000
,
0001
0100
0002
0000
,
1003
0100
2000
0000
,
3020
1030
0200
0301
,
1000
0001
1000
0000
0010
0000
0110
0000
,
0200
0001
0000
0301
,
1000
0001
1000
0000
0001
0000
0010
0000
,
0200
1000
0000
1300
,
0001
1000
0001
0000
1000
0000
0010
0000
,
0100
0001
1000
1000
,
0100
1000
0001
0001
,
0010
0001
0010
0000
0001
0000
1000
0000
,
0010
1000
0010
0000
0100
0000
0100
0000
,
0002
0000
0203
0000
,
0302
0000
1003
0001
,
2000
0000
3200
0000
,
2300
0000
3001
1000
,
0010
1000
0010
0000
1000
0000
0001
0000
,
0010
0001
0010
0000
0001
0000
1000
0000
,
0100
1000
1000
0010
,
0100
0000
0001
0000
1000
0001
1000
0000
,
0020
0000
2030
0000
,
3001
0001
1000
0001
,
0020
0000
0031
1000
,
0002
0000
0103
0010
,
0200
0000
0010
0000
,
0020
0000
0000
0000
0000
0000
0000
0330
;

//--------------- dance-single - 8Chasey ----------------
#NOTES:
     dance-single:
     8Chasey:
     Hard:
     6:
     0,0,0,0,0:
0000
0000
0000
0000
,
0000
0000
0000
0000
,
0010
0000
1000
0001
2000
0000
3001
0000
,
0100
0001
0100
0000
0010
0000
1010
0000
,
0100
0000
0010
1000
0010
0000
0100
0001
,
0100
0002
1003
1001
,
0100
0000
0001
0010
0200
0000
0310
0100
,
1000
0000
0010
0100
0020
0000
0130
0000
,
0101
0010
1100
0010
,
2002
0000
3003
1001
,
0100
1000
0010
0000
2000
0000
3001
0000
,
0010
0001
0100
0000
0002
0000
1003
0000
,
0100
1000
0010
1000
0002
0000
0013
0000
,
2100
0000
3010
0000
0200
0000
0310
0100
,
0001
0000
1000
0100
1000
0000
0010
0100
,
0001
0010
0001
1000
0100
0000
1100
0000
,
0102
1003
2010
3100
,
0020
0000
0031
1000
0020
0030
0110
0000
,
0100
0100
0002
0000
1003
0000
0001
0000
,
0010
0001
2000
0000
0100
0000
3001
0000
,
0100
0001
0200
0000
0010
0000
0301
0000
,
1000
0200
0000
0000
1300
0001
0010
0000
,
0001
0000
0011
0000
1000
0001
1000
0000
,
0010
0000
1010
0000
0100
0001
1000
0000
,
0100
1000
0002
0000
0013
0001
0020
0000
,
0230
0000
1300
0001
2000
0000
3010
0000
,
0200
0001
0001
0000
0020
0000
0330
0010
,
2000
0010
0010
0000
0002
0000
3003
0001
,
0020
0100
0130
0000
0010
0001
1000
0000
,
0001
2000
0001
0000
3001
0010
0011
0000
,
1000
0010
1010
0000
0100
0010
0100
0000
,
0001
0100
0101
0000
0010
0001
1000
0000
,
0100
1000
1100
0000
0010
0100
0010
0000
,
1001
0000
1000
0001
0020
0000
0130
0100
,
2000
0000
0000
0010
0010
0000
3001
0100
,
0002
0000
0100
0000
1000
0000
1003
0010
,
1000
0000
1100
0000
1000
0010
1000
0000
,
0001
0101
0020
0130
,
0100
1000
0001
0000
1000
0000
0020
0000
,
0200
0000
0000
0000
0000
0000
0000
0330
;

//--------------- dance-double - 8Chasey - 2025 chart ----------------
#NOTES:
     dance-double:
     8Chasey - 2025 chart:
     Easy:
     1:
     0,0,0,0,0:
00000000
00000000
00000000
00000000
,
00000000
00000000
00000000
00000000
,
00001000
00000000
00010000
00000000
,
00001000
00000000
00010000
00000000
,
00000100
00000000
00000010
00000000
,
00000100
00000000
00000000
00000000
,
00001000
00000000
00001000
00000000
,
00000001
00000000
00000001
00000000
,
00001000
00000000
00000001
00000000
,
00001000
00000000
00000001
00000000
,
00000100
00000000
00000000
00000000
,
00000010
00000000
00000000
00000000
,
00000100
00000000
00000000
00000000
,
00001000
00000000
00000000
00000000
,
00010000
00000000
00001000
00000000
,
00010000
00000000
00001000
00000000
,
00010000
00000000
00000000
00000000
,
00001000
00000000
00000000
00000000
,
00100000
00100000
00000000
00000000
,
00100000
00100000
00000000
00000000
,
01000000
01000000
00000000
00000000
,
01000000
01000000
00000000
00000000
,
10000000
10000000
00000000
00000000
,
00010000
00010000
00000000
00000000
,
10000000
10000000
00000000
00000000
,
00010000
00010000
00000000
00000000
,
10000000
00000000
00010000
00000000
,
10000000
00000000
00000000
00000000
,
00010000
00000000
10000000
00000000
,
00010000
00000000
00000000
00000000
,
00100000
00000000
00000000
00000000
,
00001000
00000000
00000000
00000000
,
00010000
00000000
00000000
00000000
,
00000100
00000000
00000000
00000000
,
00000010
00000000
00000100
00000000
,
00000010
00000000
00000100
00000000
,
00010000
00000000
00000000
00000000
,
00001000
00000000
00000000
00000000
,
00020000
00000000
00000000
00000000
,
00030000
00000000
00000000
00000000
;

//--------------- dance-double - 8Chasey - 2025 chart ----------------
#NOTES:
     dance-double:
     8Chasey - 2025 chart:
     Medium:
     3:
     0,0,0,0,0:
00000000
00000000
00000000
00000000
,
00000000
00000000
00000000
00000000
,
00000001
00001000
00000001
00000000
,
00001000
00000001
00001000
00000000
,
00000100
00000000
00010000
00001000
,
00011000
00000000
00000000
00000000
00000000
00000000
00001000
00100000
,
00001000
00100000
01000000
00000000
,
10000000
01000000
00010000
00001000
,
00020000
00000000
00030200
00000000
,
00000320
00000000
00000000
00000030
,
00001001
00000001
00001000
00000000
,
00000100
00000010
00000100
00000000
,
00010000
00001000
00010000
00001000
,
00020000
00001000
00031000
00000000
,
00100000
00010000
00100000
00000000
,
01000000
10000000
01000000
00000000
,
10000000
00000000
00010000
00000000
,
00100000
00000000
00000000
01100000
,
01000000
10000000
01000000
00000000
00000000
00000000
10000000
00000000
,
00010000
01000000
00010000
00000000
00000000
00000000
01000000
00000000
,
00001000
00010000
00001000
00000000
00000000
00000000
00010000
00000000
,
00000100
00000010
00000001
00001000
,
00000010
00001000
00000010
00000000
00000000
00000000
00000100
00000000
,
00001000
00010000
00001000
00000000
00000000
00000000
00100000
00000000
,
00010000
10000000
00010000
00000000
00000000
00000000
01000000
00000000
,
00100000
00000000
01000000
00000000
,
00001000
00011000
00000000
00000000
,
00010000
00011000
00000000
00000000
,
00000100
00000110
00000000
00000000
,
00000010
00000110
00000000
00001001
,
00000001
00000100
00000001
00000100
,
00001000
00010000
00001000
00010000
,
01000000
10000000
01000000
10000000
,
00100000
01000000
00010000
10000000
,
01000000
00000000
00010000
00000000
,
00001000
00010000
00001000
00000000
,
00000100
00000001
00000010
00000000
,
00000100
00001000
00000010
00000000
,
00000200
00000000
00000010
00000000
,
00000020
00000000
00000000
00000000
00000000
00000000
00000000
00000330
;

//--------------- dance-double - 8Chasey - 2025 chart ----------------
#NOTES:
     dance-double:
     8Chasey - 2025 chart:
     Hard:
     6:
     0,0,0,0,0:
00000000
00000000
00000000
00000000
,
00000000
00000000
00000000
00000000
,
00000100
00001000
00010000
00001000
00000200
00000000
00000301
00000000
,
00000010
00000001
00000100
00000001
00000020
00000000
00000130
00000000
,
00010000
00001000
00100000
00001000
00020000
00000000
01030000
00000000
,
01100000
00000000
00200000
00000000
00320000
00000000
10030000
00100000
,
01000000
00000000
00001000
00010000
00002000
00000000
00013000
00000000
,
00000100
00010000
00001000
00100000
00010000
00000000
01000000
00000000
,
01200000
00000000
10300000
01000000
20000000
00000000
30010000
00100000
,
00020000
00000000
00130000
00100000
02000000
00000000
03100000
00000000
,
10010000
00000000
10000000
01000000
00020000
00000000
00031000
00000000
,
00010000
00000100
00001000
00000010
00002000
00000000
00003001
00000000
,
00000100
00000001
00000100
00001000
00000200
00000000
00000310
00000000
,
00002010
00000000
00003100
00010000
00002000
00000000
00103000
00010000
,
00200000
00000000
01300000
10000000
00100000
00000000
01100000
00000000
,
00100000
10000000
00010000
00000000
01020000
00000000
01030000
00001000
,
00020000
00000000
00030100
00001000
00000020
00000000
00000130
00000001
,
00000020
00000000
00000130
00010000
00002000
00003000
00011000
00000000
,
00010000
00001000
00200000
00000000
01000000
00000000
00310000
00000000
,
10000000
00100000
02000000
00000000
00010000
00000000
03100000
10000000
,
00010000
00100000
00002000
00000000
00010000
00000000
00103000
00000000
,
00001000
00020000
00000100
00000000
00001000
00000000
00030100
00000000
,
00001000
00000010
00001010
00000000
00000100
00000000
00000001
00000000
,
00000010
00000001
00000011
00000000
00000010
00000000
00000100
00001000
,
00000100
00010000
00002000
00000000
00103000
00010000
10000000
00000000
,
10010000
00000000
10000000
00000000
00100000
01000000
00010000
00000000
,
00200000
00010000
00010000
00000000
02300000
00000000
00000000
00000000
,
23000000
00100000
00100000
00000000
30020000
00000000
00000000
00000000
,
01030000
00001000
00010000
00000000
00000100
00001000
00000010
00000000
,
00000100
00000001
00000020
00000000
00000100
00000000
00000031
00000000
,
00001000
00000001
00000100
00000000
00001000
00000000
00010000
00000000
,
00001000
00100000
00010000
00000000
00100000
00000000
02000000
10000000
,
13000000
00010000
00100000
00000000
00001000
00010000
00000100
00000000
,
00000010
00000000
00001001
00000000
00000001
00000100
00001000
00000000
,
00020000
00000000
00000000
00000100
00030100
00001000
00000010
00000100
,
00001000
00010000
00001000
00100000
00020000
00000000
01030000
00100000
,
10000000
01000000
02000000
00000000
10000000
00000000
03100000
00010000
,
01000000
00100000
00200000
00000000
10000000
00000000
01300000
00001000
,
00020000
00000100
00030020
00000130
,
00002002
00000000
00000000
00000000
00000000
00000000
00000000
00003003
;
