#TITLE:Expecto Patronaum;
#SUBTITLE:(Trap Remix);
#ARTIST:Goblins From Mars;
#TITLETRANSLIT:;
#SUBTITLETRANSLIT:;
#ARTISTTRANSLIT:;
#GENRE:;
#CREDIT:8Chasey;
#MUSIC:Expecto Patronaum (Trap Remix).ogg;
#BANNER:;
#BACKGROUND:;
#CDTITLE:;
#SAMPLESTART:50.560;
#SAMPLELENGTH:12.000;
#SELECTABLE:YES;
#OFFSET:-0.485;
#BPMS:0.000=115.000
,15.000=230.000
,77.000=115.000
,78.000=230.000
,142.000=115.000
,150.000=230.000
,158.000=115.000
,162.000=230.000
,218.000=115.000
,219.000=230.000
,221.000=115.000
,222.000=230.000
,278.000=115.000
;
#STOPS:12.000=0.522
,222.000=0.522
;
#BGCHANGES:;
#FGCHANGES:;

//--------------- dance-single - 8Chasey ----------------
#NOTES:
     dance-single:
     8Chasey:
     Beginner:
     2:
     0,0,0,0,0:
0000
0000
0000
0000
,
0000
0000
0000
0000
,
0000
0000
0000
0000
,
1001
0000
0000
0001
,
0000
0000
0000
0001
,
0000
0000
0000
1000
,
0000
0000
0000
1000
,
0000
0000
0000
0010
,
0000
0000
0000
0100
,
0000
0000
0000
0010
,
0000
0000
0000
0000
,
0000
0000
0000
1000
,
0000
0000
0000
1000
,
0000
0000
0000
0001
,
0000
0000
0000
1000
,
0000
0000
0000
0001
,
0000
0000
0000
0100
,
0000
0000
0000
0110
,
0000
0000
0000
0000
,
0000
0010
0010
0000
,
0000
0000
1000
0000
,
0000
0000
0001
0000
,
0000
0000
0100
0000
,
0100
0000
0100
0000
,
0000
0000
0001
0000
,
0000
0000
1000
0000
,
0000
0000
0010
0000
,
0010
0000
0010
0000
,
0000
0000
1000
0000
,
0000
0000
0001
0000
,
0000
0000
1001
0000
,
0000
0000
0100
0000
,
0000
0000
0100
0000
,
0100
0000
0100
0000
,
0000
0000
1000
0000
,
0000
0000
0001
0001
,
0001
0001
0001
0001
,
0001
0000
1000
0000
,
1000
0000
1000
0000
,
1000
0000
1000
1000
,
1000
0000
0100
0000
,
0000
0000
0010
0000
,
0000
0000
0100
0000
,
0100
0000
0100
0000
,
0000
0000
0010
0000
,
0000
0000
0100
0000
,
0000
0000
0001
0000
,
0000
0000
1000
0000
,
0000
0000
1001
0000
,
0000
0000
0001
0000
,
0000
0000
1000
0000
,
1000
0000
1000
0000
,
0000
0000
0001
0000
,
0001
0000
0001
0000
,
0000
0000
1000
0000
,
0000
1001
0000
0000
,
0001
0000
0000
0000
,
0001
0000
0001
0000
,
0000
0000
1000
0000
,
0000
0000
0000
0000
,
1000
0000
0000
0000
,
1000
0000
1000
0000
,
0000
0000
0001
0000
,
0000
0000
0100
0000
,
0000
0000
0010
0000
,
0000
0000
1001
0000
,
0000
0000
0110
0000
,
0000
0000
0001
0000
,
0000
0000
1000
0000
,
0000
0000
1001
0000
;

//--------------- dance-single - 8Chasey ----------------
#NOTES:
     dance-single:
     8Chasey:
     Easy:
     3:
     0,0,0,0,0:
0000
0000
0000
0000
,
0000
0000
0000
0000
,
0001
1000
0001
1000
,
2002
0000
3003
0020
,
0000
0031
0000
1000
,
0000
0001
1000
0200
,
0000
1300
0000
0010
,
0000
0020
0000
0130
,
0000
0110
0000
0100
,
0000
0100
0000
0001
,
0000
0002
0000
1003
,
0100
2000
0000
3010
,
0000
1000
0000
0001
,
0000
0010
0000
0200
,
0000
0000
0300
0020
,
0000
0000
0030
0002
,
0000
1003
0000
2000
,
0000
3001
0000
1001
,
0000
1001
0000
0020
,
0000
0000
0230
0000
,
0302
0000
0203
0000
,
0301
1000
0000
0000
,
0100
0000
0010
0000
,
1001
0000
0200
0000
,
1300
0000
0001
0000
,
0100
0000
0010
0100
,
0010
0000
0100
0100
,
0200
0000
0320
0000
,
2030
0000
3020
0000
,
1030
0001
0000
0000
,
0100
0000
0010
0000
,
1001
0000
0020
0000
,
0031
0000
1000
0000
,
0010
0000
0200
0000
,
0310
0000
0020
0000
,
0130
0000
0002
0003
,
2000
3000
0001
0010
,
0100
1000
0001
0000
,
0001
0000
1000
0000
,
1000
0000
0100
2002
,
3003
1001
0002
0000
,
1003
0000
0001
0000
,
0000
0000
2000
0000
,
0000
0000
3100
0000
,
0000
0000
2000
0000
,
3001
0000
1000
0000
,
0000
0000
2002
0000
,
3003
0000
0100
0000
,
0010
0000
0100
0000
,
0100
0000
0020
0000
,
0030
0000
0002
0000
,
0000
0000
2003
0000
,
0000
0000
3010
0000
,
0000
0000
0100
0000
,
0010
0000
0200
0000
,
0000
0000
0300
0000
,
0001
0000
0000
0000
,
1000
0000
0010
0000
,
0100
0000
0020
0000
,
0030
0000
0110
0000
,
0100
0000
0200
0000
,
0300
0000
0002
0000
,
0000
0000
2003
0000
,
0000
0000
3010
0000
,
1000
0000
0010
0000
,
0000
0000
0100
0000
,
0001
0000
0100
0000
,
0000
0000
0002
0000
,
0023
0000
0230
0000
,
2300
0000
3020
0000
,
0000
0000
0000
0030
0000
0000
0000
0000
;

//--------------- dance-single - 8Chasey ----------------
#NOTES:
     dance-single:
     8Chasey:
     Medium:
     6:
     0,0,0,0,0:
0000
0000
0000
0000
,
2000
0001
0000
0010
0000
3100
0000
1000
,
0002
1000
0000
0100
0000
0013
0000
0001
,
1001
0000
1000
0001
1001
0000
0200
0000
,
0001
0000
0000
0001
0300
0000
1000
0000
,
0010
1000
0010
0000
0020
0000
0000
0000
,
0130
0000
0000
0110
0000
0000
0010
0000
,
0100
0000
0010
0100
0020
0000
2030
0000
,
0100
0000
0000
0100
3000
0000
0010
0000
,
0100
0010
0100
0000
0010
0000
0001
0000
,
1000
0020
0000
0100
,
0130
0110
1000
0020
,
1000
0000
0000
1000
0030
0000
0001
0000
,
0100
0010
0100
0000
0200
0000
0000
0000
,
0310
0000
0000
0110
0000
0000
0100
0000
,
0010
0000
0100
0010
0200
0000
0302
0000
,
0010
0000
0000
0010
0003
0000
0100
0000
,
0010
0100
0010
0000
0110
0000
0001
0000
,
1000
0000
0001
0000
1000
0000
0001
1000
,
0001
1000
0002
0000
1003
0000
0200
0000
,
1300
0000
0020
0000
0031
0000
0010
0100
,
0010
0100
1001
0200
,
0000
0310
0000
0000
1000
0000
0001
0000
,
0001
1000
0020
0100
,
0000
0130
0000
0000
0010
0000
0100
0000
,
0100
0010
1000
1000
,
0001
1000
0001
0001
,
2000
0000
3001
0020
,
0031
0000
0200
0000
1300
0000
0100
0010
,
0100
0010
1001
0020
,
0000
0130
0000
0000
0001
0000
1000
0000
,
1000
0001
0020
0100
,
0000
0130
0000
0000
0010
0000
0100
0000
,
0100
0000
0010
0000
0002
0000
0000
1000
,
0000
1003
0100
0100
,
0200
0300
0010
0100
,
0010
0000
0100
0000
1000
0001
1000
0000
,
0001
1000
0001
0000
1000
0000
0100
0000
,
0010
0001
1000
2000
,
3001
0002
0103
1001
,
0010
1001
0200
0000
,
0310
0002
0000
0000
0103
0000
0000
0000
,
0001
1000
0000
0000
0020
0000
0000
0000
,
1030
0001
0200
0000
,
0320
0030
2000
0000
,
3001
0010
0000
0000
0200
0000
0000
0000
,
0310
0000
0100
0000
2000
0000
0000
0001
,
0000
3001
0010
0001
,
0200
0300
0110
0000
,
0001
1000
0000
0000
0200
0000
0000
0000
,
1300
0100
0220
0000
,
0330
0001
2002
0000
,
3003
1000
0020
0000
,
0130
0001
0000
0000
0200
0000
0000
0000
,
0310
0000
1000
0000
0100
0100
0200
0000
,
0000
0000
0310
0010
0020
0000
0000
0000
,
0031
0100
0000
0000
0002
0000
0000
0000
,
1003
0010
0000
0000
2000
0000
0000
0100
,
0000
3010
0100
0100
,
0020
0000
0030
0000
1001
0000
0000
0001
,
1000
0002
0000
0103
,
0100
0000
0010
0000
0200
0000
0000
0001
,
0000
0000
0301
0000
1000
0100
1000
0000
,
0200
1300
0020
0000
,
0130
0001
0000
0000
0100
0000
0010
0000
,
1000
0010
0000
0000
0220
0000
0000
0000
,
0330
0000
2002
0000
,
3003
0000
0001
0000
1000
0000
0000
0100
,
1000
0200
0000
0310
,
0001
0010
0000
0000
0200
0001
0000
1000
,
0000
0001
0000
1300
0000
0000
0000
0000
;

//--------------- dance-single - 8Chasey ----------------
#NOTES:
     dance-single:
     8Chasey:
     Hard:
     9:
     0,0,0,0,0:
0000
0000
0000
0000
,
0001
0100
1000
0100
0001
1000
0100
0010
,
0001
0000
1000
0000
0100
1000
0010
0000
1000
0000
0001
0000
0010
0000
0100
0000
,
2002
0000
3003
0000
0001
1000
0001
0000
0020
0000
0000
0000
0130
0000
0000
0000
,
1000
0010
1000
0000
1010
0000
0100
0000
,
0001
0100
0002
0000
1000
0000
0013
0000
,
0100
1000
0001
0000
0101
0000
0200
0000
,
0001
0000
0310
1000
0020
0000
1030
0000
,
0010
1000
0001
0000
1001
0000
0100
0001
,
0100
0001
1000
1000
0010
0000
2000
0000
,
3100
1000
0002
0000
0100
0000
1003
0010
,
1000
0100
0020
0000
0130
0000
0110
0000
,
1000
0010
1000
0000
0101
0000
0001
0000
,
0010
0100
2000
0000
0100
0000
3001
0000
,
0011
0000
1000
0100
0001
0000
0200
0000
,
1000
0000
0310
0100
2000
0000
3001
0000
,
0101
0000
0100
0010
1000
0010
0100
0100
,
0002
0000
0013
0000
0110
0000
1000
0100
,
1000
0000
0010
0100
0010
0000
0100
0001
,
0100
0001
0100
0110
0010
0000
1000
0010
,
0100
0000
0100
0001
0010
0000
0100
1000
,
0001
0000
1001
0000
0010
0002
0100
0000
,
1003
0002
0000
0000
0203
0000
0310
0000
,
1000
0100
2000
0000
3010
0000
1010
0000
,
0001
2000
0000
0000
3100
0000
0010
0001
,
0020
0031
0101
1010
,
1001
0000
1001
0000
0100
0001
0100
0000
,
0020
0000
0000
0030
1010
0000
1000
0100
,
0001
0000
1000
0010
0001
0000
1000
0100
,
0010
0110
1001
2000
,
3100
2000
0000
3010
0100
0001
0010
0000
,
0010
0001
0200
0000
0301
0000
0101
0000
,
0010
0001
0000
0001
1000
0100
0001
0100
,
1000
0100
1000
0000
0020
0000
1000
0000
,
0100
2030
0001
0001
,
0002
0000
3000
0000
0020
0030
2000
3000
,
0020
0030
2000
3000
0203
0010
0010
0001
,
0001
0010
0010
0001
0320
0000
1000
0000
,
0230
0000
0001
0000
0301
1000
0100
1000
,
0010
0100
0001
0010
0100
0000
1001
0000
,
0001
1000
0001
0000
2002
0000
3003
0000
0110
0000
0000
0000
0100
0000
0001
0000
,
0100
0010
1000
0000
0200
0000
1000
0000
,
0310
0001
0000
0000
0021
0000
0100
0000
,
0130
1000
0010
0000
2020
0000
3030
0000
,
2002
3003
0200
0001
,
0301
0100
0010
0000
2000
0000
3100
0000
,
1000
0001
0010
0000
0110
0000
1000
0100
,
2000
0010
3010
0100
,
0102
1003
0020
0000
,
1030
0100
1000
0000
0010
0000
0100
0000
,
0001
1000
0001
0000
0022
0000
0033
0010
,
0100
1000
1200
1300
,
0001
1000
0010
0000
0220
0000
0330
0100
,
0001
1000
0010
0000
1020
0000
1030
0000
,
0001
0000
0010
0000
0001
0000
0000
0000
0100
0001
0100
0001
1000
0000
0001
0000
,
2000
0000
0000
0000
3010
0000
0100
0000
0220
0330
0000
0000
0100
0000
0001
0000
,
1000
1100
0101
0100
,
0010
0010
0100
0000
0020
0000
0000
0000
,
1030
0100
0010
0000
0002
0000
0100
0000
,
1003
0100
1000
0000
2002
0000
3003
0010
,
0001
0000
0000
0000
1000
0000
0000
0000
0100
1000
0000
0000
0100
0000
0000
0000
,
0010
0001
1000
0000
0100
1000
0000
1000
,
0001
0000
1001
0000
0010
0001
0010
0001
,
0200
0001
0310
1000
,
0010
1000
0100
0000
2000
0000
3001
0000
,
0010
0001
1000
0000
2002
0000
3003
1000
,
0001
0100
0220
0330
,
0010
0100
0001
0000
0020
0000
0031
0010
,
0200
1000
0000
0010
,
1300
0100
0010
0000
0001
0100
0000
0010
,
0000
1000
0010
0100
0000
0000
1001
0000
0000
0000
0000
0000
0000
0000
0000
0000
;

//--------------- dance-single - 8Chasey ----------------
#NOTES:
     dance-single:
     8Chasey:
     Challenge:
     11:
     0,0,0,0,0:
0000
0000
0000
0000
,
0001
0010
0002
0000
1003
0100
0020
0000
0130
0010
0200
0000
0310
0001
2000
0000
,
3010
1000
0200
0000
0310
0001
0020
0000
0031
0100
2000
0000
3100
0100
0002
0000
,
0013
0000
0000
0000
0000
0000
0000
0000
0001
0000
0010
0001
0010
0000
0001
0000
1000
0000
0100
0000
2000
0000
0000
0000
3020
0000
0000
0000
0000
0000
0000
0000
,
0130
0000
0001
0000
1000
0000
0010
0000
2000
0000
0000
3000
1100
0000
0000
0000
,
0100
1000
0100
0000
1000
0000
0010
0000
0100
0000
0000
0000
0101
0000
0000
0000
,
0010
0001
0100
0010
1000
0100
1000
1000
,
0020
0000
0000
0000
1030
0001
0100
0000
0002
0000
1000
0000
1003
0000
0000
0000
,
0100
1000
0020
1000
1030
0010
0100
0001
,
1000
0010
1000
0000
0100
0000
0010
0000
0200
0000
0000
0000
0310
0000
0001
0000
,
0100
0000
0001
1000
0002
0000
0000
0000
0103
0000
0001
0000
0010
0000
0001
1000
,
0001
1000
0200
0000
1300
0000
1002
0000
,
0013
0001
0100
0001
2000
0000
0100
0000
,
3010
1000
0010
0000
0100
0000
0001
0000
0010
0000
0000
0000
0021
0000
0000
0000
,
0130
0000
1000
0000
0010
0000
1000
0010
1000
0000
0000
0000
0001
0000
0100
0000
,
0020
0000
0000
0030
1000
0001
1000
0000
0020
0000
0100
0000
0130
0000
0000
0000
,
0001
0010
0010
0001
0100
0010
2000
0000
,
3100
1000
0100
0000
0110
0000
0000
0000
1001
0000
0000
0000
0010
0001
0010
0000
,
0001
0000
1000
0000
0010
1000
0010
0000
0100
0000
0001
0000
1000
0000
0010
0000
,
0010
0000
0000
0000
1000
0000
0000
0000
0001
1000
0001
1000
0020
0000
0000
0000
0130
0000
0000
0000
0001
0000
0000
0000
1000
0000
0001
0000
1000
0000
0000
0000
,
0010
0000
1000
0000
0010
0100
0010
0000
1000
0000
0001
0000
0100
0001
0100
0000
,
0001
1000
1001
0000
0100
0001
0100
0000
,
0010
1010
0000
1000
0100
0001
0200
0000
,
0310
0001
0010
0000
0002
0000
0000
0000
0103
0000
0010
0000
1000
0000
0010
1000
,
0010
0000
0200
0000
0000
0000
0301
0000
0100
0000
0001
0000
0010
0001
0010
0000
,
0100
1000
0200
0000
1000
0000
0310
0100
,
0110
0000
0000
0000
0110
0000
0000
0000
0001
0000
0010
0000
0001
1000
0001
0000
,
2000
0000
0100
0000
3100
0000
0000
0000
0110
0000
0000
0000
0010
0001
0010
0000
,
0100
0000
1000
0000
0100
1000
0001
0000
0100
0000
0001
0000
0010
0001
0100
0000
,
0010
1000
1010
0000
0100
0010
0110
0000
,
1000
1001
0000
0000
0001
0100
0002
0000
,
1003
0010
1000
0000
0200
0000
0000
0000
1300
0001
1000
0000
0001
0000
0010
0001
,
0010
0000
0001
0000
0100
0000
0000
0000
0010
0000
1000
0000
0001
0100
0001
0000
,
0100
0000
0000
0000
0000
0000
0000
0000
0000
0000
0000
0000
0000
0000
0000
0000
0000
0000
0000
0000
0000
0000
0000
0000
0001
0000
0000
0000
0000
0000
0000
0000
0000
0000
0000
0000
1000
0000
0000
0000
0000
0000
0000
0000
0000
0000
0000
0000
0001
0000
0000
0000
0000
0000
0000
0000
0000
0000
0000
0000
0000
0000
0000
0000
0000
0000
0000
0000
0000
0000
0000
0000
1000
0000
0000
0000
0000
0000
0000
0000
0000
0000
0000
0000
0000
0000
0000
0000
0000
0000
0000
0000
0000
0000
0000
0000
0100
0000
0000
0000
0000
0000
0000
0000
0000
0000
0000
0000
0000
0000
0000
0000
0000
0000
0000
0000
0000
0000
0000
0000
0000
0000
0000
0000
0000
1000
0000
0000
0000
0000
0000
0000
0000
0000
0000
0000
0000
0000
0000
0000
0000
0000
0000
0000
0100
0000
0000
0000
0000
0000
0000
0000
0000
0000
0000
0000
0000
0000
0000
0000
0000
0000
0000
0000
0000
0000
0000
0000
0000
0000
0000
0000
0000
0000
0000
0000
0000
0000
0000
0000
0000
0000
0000
0000
0000
0000
0000
0000
0000
0000
0000
0000
,
2000
0000
3010
0000
1000
0001
0010
0100
,
0020
0000
0031
0000
0022
0033
0220
0330
,
2200
3300
2002
3003
0101
1010
1100
0011
,
0110
0110
1001
1001
0100
0001
0100
1000
,
0100
0000
0010
0000
1000
0000
0001
0000
0100
0001
0100
0000
0010
0000
1000
0000
,
0100
0000
0000
1000
0000
0000
0100
0000
0000
0000
0000
0000
0010
0000
0000
0001
0000
0000
1000
0000
0000
0000
0000
0000
0100
0000
0000
0000
0000
0000
1000
0000
0000
0000
0000
0000
0001
0000
0100
0000
0001
0000
0000
0000
1000
0000
0000
0000
,
0010
1000
0010
0000
0100
0000
0000
0000
0202
0000
0000
0000
0300
0000
0000
0000
1003
0000
0000
0000
0100
0000
0000
0000
0010
0000
0000
0000
0100
0000
0000
0000
,
1000
0000
0001
0100
0001
0000
0100
0000
0020
0000
0000
0000
1030
0000
0000
0000
,
0100
1000
0001
0000
0202
0000
0303
0001
,
0010
0000
0100
1000
0100
0000
0000
0000
2200
0000
0000
0000
3300
0000
1000
0000
,
0010
0000
0100
0000
0010
0000
0000
0000
0110
0000
0000
0000
0100
0001
0100
0000
,
0001
0010
0100
0000
2000
0000
3100
1000
,
0001
0000
0100
0000
0020
0000
0000
0000
1030
0100
1000
0100
1000
0000
0010
0000
,
0100
0000
0000
0000
0001
0100
0001
0000
0010
0000
0000
0000
0011
0000
0000
0000
,
0200
1000
1300
0000
2010
0000
3001
0000
,
0100
0001
0010
0001
0200
0000
0310
1000
,
0100
0000
0100
0000
2000
0000
0000
0000
3100
0010
0001
0000
0100
0000
0001
0000
,
1000
0000
0000
0000
1020
0000
0000
0000
1030
0100
0010
0000
0100
0000
0010
0000
,
0100
0000
1000
0000
0020
0000
0000
0000
0130
0010
0100
0000
0001
0000
0010
0000
,
0001
1000
0200
0000
1300
0010
0100
0001
,
1000
0000
0001
0000
1000
0000
0010
0000
0100
0100
0001
0001
1000
0010
1000
0010
,
2000
0000
0000
0000
3100
1000
0001
0000
2002
3003
0000
0000
0100
0000
0001
0000
,
1000
0000
0100
0000
0020
0000
0000
0000
0130
0000
1000
0100
1000
0000
0001
0000
,
0100
0000
0002
0000
0010
0000
0000
0000
0103
0000
0000
0000
0010
1000
0010
1000
,
0010
0000
0100
0000
0002
0000
0000
0000
0103
0000
0010
1000
0010
0000
0100
0000
,
0001
0000
0001
0000
0100
0000
0000
0000
0120
0000
0000
0000
1030
0100
1000
0000
,
0100
0010
0100
1000
2010
0000
3010
1000
,
0001
0100
0001
0000
0021
0000
0130
1000
,
0010
0000
0120
0000
1030
1000
0001
0001
,
0100
0000
0001
0100
0001
0000
1000
0000
0010
1000
0010
0000
0100
0001
0100
0000
,
0001
0010
0200
0000
1000
0000
0310
0100
,
1000
0000
0010
0000
0100
0000
0000
0000
0001
0100
0001
0000
0100
0000
0010
0000
,
0010
0000
1000
0000
0100
0000
0000
0000
1000
0100
1000
0000
0010
0000
1000
0000
,
0001
0000
0100
0000
0010
0000
0000
0000
0100
0010
0100
0000
0001
0000
0000
0000
,
0101
0000
1000
0100
0001
0100
1000
0010
,
1000
0001
0010
0000
0001
1100
0000
0101
,
0000
0000
0010
0100
0010
0000
0100
0000
0000
0000
0000
0000
1001
0000
0000
0000
0000
0000
0000
0000
0000
0000
0000
0000
0000
0000
0000
0000
0000
0000
0000
0000
;

//--------------- dance-double - 8Chasey ----------------
#NOTES:
     dance-double:
     8Chasey:
     Easy:
     4:
     0,0,0,0,0:
00000000
00000000
00000000
00000000
,
00100000
00000000
01000000
00000000
,
00010000
00000000
10000000
00000000
,
20020000
00000000
30030000
10000000
,
00000000
00010000
00000000
00100000
,
00000000
00010000
10000000
00010000
,
00000000
01000000
00000000
00001000
,
00000000
00020000
00000000
00031000
,
00000000
00011000
00000000
00010000
,
00000000
00000100
00000000
00001000
,
00000000
00002000
00000000
00003001
,
00000100
00000002
00000000
00000013
,
00000000
00000100
00000000
00001000
,
00000000
00000100
00000000
00020000
,
00000000
00000000
00030000
00002000
,
00000000
00000000
00003000
00200000
,
00000000
01300000
00000000
02000000
,
00000000
03100000
00000000
00010000
,
10000000
00010000
00000000
10000000
,
00010000
20000000
31000000
00000000
,
00010000
00000000
00001000
00000000
,
00000100
00000001
00000000
00000000
,
00001000
00000000
00000001
00000000
,
00001001
00000000
00000020
00000000
,
00000130
00000000
00001000
00000000
,
00000100
00000100
00010000
00001000
,
00010000
00010000
00001000
00000000
,
00000200
00000000
00001300
00000000
,
00010000
00000000
01000000
00000000
,
10000000
01000000
00000000
00000000
,
10000000
00000000
00010000
00000000
,
10010000
00000000
20000000
00000000
,
30100000
00000000
01000000
00000000
,
00001000
00000000
00020000
00000000
,
00030100
00000000
00000010
00000100
,
00000010
00000000
00000002
00000000
,
00000203
00000000
00002300
00000000
,
00023000
00000000
00031000
00000000
,
00010000
00000000
00001000
00000000
,
00010000
00000000
00200000
01300000
,
00100000
01100000
01000000
00000000
,
00010000
00000000
10000000
00000000
,
01000000
00000000
00200000
00000000
,
00000000
00000000
01300000
00000000
,
00100000
00000000
00002000
00000000
,
00013000
00000000
00020000
00000000
,
00031000
00000000
00022000
00000000
,
00033000
00000000
00000100
00000000
,
00000010
00000000
00000100
00000000
,
00000100
00000000
00000020
00000000
,
00000030
00000000
00002000
00000000
,
00000000
00000000
00003002
00000000
,
00000000
00000000
00000103
00000000
,
00001000
00000000
00010000
00001000
,
00010000
00000000
00001000
00100000
,
00000000
02000000
03000000
00000000
,
10000000
00000000
00000000
00010000
,
10000000
00000000
00010000
00000000
,
01000000
00000000
00002000
00000000
,
00023000
00000000
00030100
00000000
,
00001000
00000100
00002000
00000000
,
00000000
00003000
00001000
00000001
,
00000100
00000002
00000000
00000000
,
00000013
00000000
00000010
00000000
,
00000100
00000000
00000010
00000000
,
00000000
00000000
00000002
00000000
,
00000000
00000000
00000103
00000000
,
00000000
00000000
00002000
00000000
,
00203000
00000000
02300000
00000000
,
23000000
00000000
30200000
00000000
,
00000000
00000000
00000000
00300000
00000000
00000000
00000000
00000000
;
