#TITLE:EXERCISE WITH LINK;
#SUBTITLE:;
#ARTIST:PEANUTBUTTERGAMER;
#TITLETRANSLIT:;
#SUBTITLETRANSLIT:;
#ARTISTTRANSLIT:;
#GENRE:;
#CREDIT:;
#MUSIC:Exercise with Link.mp3;
#BANNER:EXERCISE WITH LINK.png;
#BACKGROUND:EXERCISE WITH LINK-bg.png;
#CDTITLE:;
#SAMPLESTART:14.650;
#SAMPLELENGTH:15.000;
#SELECTABLE:YES;
#OFFSET:-0.140;
#BPMS:0.000=132.000;
#STOPS:;
#BGCHANGES:;
#FGCHANGES:;

//--------------- dance-single - ----------------
#NOTES:
     dance-single:
     :
     Beginner:
     1:
     0,0,0,0,0:
0000
0000
0000
0000
,
0001
0000
0001
0000
,
1000
0000
1000
0000
,
0100
0000
0100
0000
,
1000
1000
1000
0000
,
0001
0001
0001
0000
,
0100
0000
0100
0000
,
0100
0000
0100
0000
,
1001
0000
0000
0000
,
0100
0000
0000
0000
,
1001
0000
0000
0000
,
0100
0000
0000
0000
,
0010
0010
0010
0010
,
0000
0000
0000
0000
,
0010
0010
0010
0010
,
0010
0010
0010
0000
,
1000
0000
0001
0000
,
0100
0000
0000
0000
,
0001
0000
1000
0000
,
0100
0000
0000
0000
,
0001
0000
1000
0000
,
0001
0000
1000
0000
,
0001
0000
1000
0000
,
0001
0000
1000
0000
,
1001
0000
0000
0000
;

//--------------- dance-single - ----------------
#NOTES:
     dance-single:
     :
     Easy:
     3:
     0,0,0,0,0:
0000
0000
0000
0000
,
0001
1000
0001
1000
,
0010
0010
0100
0100
,
0010
0010
0100
0100
,
0001
0000
0001
0010
,
1000
0000
1000
0100
,
0010
0001
0010
1000
,
0100
0001
0100
1000
,
1001
0000
0000
0000
0000
0000
0000
0100
,
0010
0000
0000
0000
,
1001
0000
0000
0000
0000
0000
0000
0010
,
0100
0100
0100
0000
,
0001
1000
0001
1000
,
0100
0000
0100
0000
,
1000
0001
1000
0001
,
1000
0001
1001
1001
,
1010
1000
0000
0011
,
0001
0000
0000
0100
0000
0000
0000
0000
,
0010
1000
0001
0000
,
0010
0001
1000
0000
,
0100
0010
0100
0010
,
0100
0010
0100
0110
,
0010
0100
0010
0100
,
0010
0100
0010
1001
,
0110
0110
0000
0000
,
0001
0000
0000
0000
0000
0000
0000
1000
0000
0000
0010
0000
0100
0001
0000
1000
,
0000
0000
0000
0010
0000
0000
0000
0000
0000
0000
0000
0000
0000
0000
0000
0000
;

//--------------- dance-single - ----------------
#NOTES:
     dance-single:
     :
     Medium:
     5:
     0,0,0,0,0:
0000
0000
0000
0000
,
1000
0000
0001
0000
1000
0001
1000
0000
,
0001
0000
1000
0000
0001
1000
0001
0000
,
1000
0001
1000
0000
0001
1000
0001
0000
,
1000
0010
0100
0101
,
0001
0010
0100
1100
,
1000
0010
1000
0000
0001
0000
0100
0000
,
0001
0010
0001
0000
0100
0000
0010
0000
,
1001
0000
0000
0000
0000
0000
0000
0010
,
0100
0000
0000
0000
,
0110
0000
0000
0000
0000
0000
0000
0100
,
0010
0000
0100
0010
0000
0000
0000
0000
,
0001
1000
0001
1000
,
0010
0110
0000
0100
,
0001
1000
0001
1000
,
0001
1000
0001
0000
1000
0001
1000
0000
,
1000
0000
0100
1000
0001
0000
0100
0001
,
0010
0000
0001
0100
0000
0000
1010
0000
,
1000
0001
0010
0000
0000
0010
0001
0000
,
0011
0000
0100
0010
0100
0000
0100
0000
,
0001
1000
0001
0000
1000
0001
1000
0000
,
0001
1000
0001
0000
1000
0001
1000
0000
,
0010
0100
0010
0000
0100
0010
0100
0000
,
0011
1010
1100
0101
,
0000
1001
0000
0000
,
1001
0000
0000
0000
0000
0000
0000
0100
0000
0000
0010
0000
0100
0001
0000
1000
,
0000
0000
0000
0010
0000
0000
0000
0000
0000
0000
0000
0000
0000
0000
0000
0000
;

//--------------- dance-single - ----------------
#NOTES:
     dance-single:
     :
     Hard:
     7:
     0,0,0,0,0:
0000
0000
0000
0000
,
1100
0000
0011
0000
0100
0010
0100
0000
,
1000
0010
1000
0000
0001
0100
0001
0000
,
1000
0100
0010
0000
0001
0100
0010
0000
,
1010
0000
1100
0000
1000
0010
0100
0000
,
0101
0000
0011
0000
0010
0100
0010
0000
,
0001
0001
0010
0000
0001
1000
0010
0000
,
1000
1000
0010
0000
0100
0010
1000
0100
,
0110
0000
0001
0000
1000
0000
0010
0010
,
0100
0010
0000
0000
0000
0000
0000
0000
,
1001
0000
1000
0000
0001
0000
0010
0010
,
0100
1000
0001
0100
0000
0010
0100
0000
,
0001
1000
0001
1000
0001
1000
0001
1000
,
0100
0000
0110
0010
0000
0000
0010
0100
,
1000
0001
1000
0001
1000
0001
1000
0001
,
1000
0001
1000
0000
0001
1000
0001
0000
1000
0000
0001
0000
0110
0000
0000
0000
,
1000
0000
0010
0100
0000
0001
1000
0000
,
1000
0010
0100
0001
0101
0000
1010
0000
,
1100
0000
0011
0000
0000
1000
0010
0001
,
0010
0000
1000
1000
0001
0001
0100
0000
,
0001
0010
1000
0010
0001
0010
1000
0010
,
0001
0100
1000
0100
0001
0100
1000
0100
,
0001
0010
1000
0010
0001
0100
1000
0100
,
0001
1000
0001
1000
0100
0010
0100
0010
,
0001
1000
1001
0000
0000
0000
0000
0000
,
1010
0000
0000
0000
0000
0000
0000
0110
0000
0000
0010
0000
0100
0001
0000
1000
,
0000
0000
0000
0011
0000
0000
0000
0000
0000
0000
0000
0000
0000
0000
0000
0000
;

//--------------- dance-single - ----------------
#NOTES:
     dance-single:
     :
     Challenge:
     8:
     0,0,0,0,0:
0000
0000
0000
0000
,
1000
0010
1000
0000
0001
0000
0000
0000
0001
0010
0001
0000
1000
0000
0000
0000
,
0100
1000
1100
0000
0010
0001
0011
0000
,
0001
0100
1001
0000
1000
0010
0110
0000
,
1000
0010
0000
0000
0100
0001
0000
0000
0001
0000
0011
0000
1001
0000
0000
0000
,
0001
0010
0000
0000
0100
1000
0000
0000
1000
0000
1010
0000
1001
0000
0000
0000
,
1000
0100
0110
0000
0001
0100
0110
0000
,
0001
0010
0001
1000
0100
0010
0100
0000
,
1100
1000
0010
0100
0001
1000
0001
0010
,
0101
0001
0000
1000
0000
0000
0001
0000
,
0101
0001
0010
0100
1000
0001
1000
0010
,
1100
0000
0100
0000
0010
0000
1001
0000
0000
0000
0000
0001
1000
0000
0010
0000
,
1000
0100
0000
0000
0001
0100
0000
0000
1000
0100
0000
0000
0001
0100
0000
0000
,
0010
0000
0000
0000
,
0001
0010
0000
0000
1000
0010
0000
0000
0001
0010
0000
0000
1000
0010
0000
0000
,
0001
1000
0001
1000
0001
1000
0001
0000
1000
0001
1000
0001
1000
0001
1000
0000
,
0100
1000
0000
0000
1010
0000
1000
0010
0100
0000
0001
0000
1000
0001
0000
0000
,
0001
0000
0100
0001
1000
0000
1001
0000
0000
0000
1000
0100
0100
0000
1000
0000
,
0010
1000
0001
0000
1000
0000
0000
0000
1000
0000
0001
0000
0101
0000
0001
1000
,
0001
0000
0000
0000
0010
0001
0010
0000
0001
0100
0000
0000
0010
0000
0000
0000
,
0001
1000
0000
0000
0001
1000
0000
0000
0001
1000
0000
0000
0001
1000
0000
0000
,
0010
0100
0000
0000
0010
0100
0000
0000
0010
0100
0000
0000
0010
0100
0000
0000
,
0001
0010
0001
0010
0001
0000
0000
0000
1000
0010
1000
0010
1000
0000
0000
0000
,
0001
0100
0000
0000
0110
0000
0000
0000
1000
0100
0000
0000
0110
0000
0000
0000
,
0001
1000
0100
0010
0000
0000
0000
1001
0000
0000
0000
0000
0000
0000
0000
0000
,
0011
0000
0000
0000
0000
0000
0000
1010
0000
0000
0101
0000
0010
0100
0000
1100
,
0000
0000
0000
1001
0000
0000
0000
0000
0000
0000
0000
0000
0000
0000
0000
0000
;

//--------------- dance-double - ----------------
#NOTES:
     dance-double:
     :
     Easy:
     3:
     0,0,0,0,0:
00000000
00000000
00000000
00000000
,
10000000
01000000
00100000
00010000
,
00001000
00000200
00000310
00000001
,
00000100
00001000
00010000
01000000
,
00100000
00000000
00001000
00010000
,
00000010
00000000
00010000
00001000
,
00100000
00001000
00010000
00000100
,
00000010
00010000
00001000
01000000
,
00011000
00000000
00000000
00000000
00000000
00000000
00000000
00000100
,
00000010
00000000
00000000
00000000
,
00011000
00000000
00000000
00000000
00000000
00000000
00000000
01000000
,
00100000
00000000
00000000
00000000
,
10000000
01000000
00010000
00001000
,
00000100
00011000
00000000
00000110
,
00000001
00000100
00001000
00010000
,
01000000
00000000
10000000
00000000
01000000
00000000
00010000
00001000
,
00010000
00011000
00000000
00010000
,
00000100
00000010
00000100
00001000
,
00000010
00000100
00001000
00010000
,
00000100
00000000
00010000
00000000
01000000
00000000
00100000
00001000
,
00010000
00001000
00010000
00001000
,
00010000
00001000
00010000
00011000
,
00001000
00010000
00001000
00010000
,
00001000
00010000
00001000
00011000
,
00000100
00000110
00000000
00000000
,
00000001
00000000
00000000
00000000
00000000
00000000
00000000
00001000
00000000
00000000
00000010
00000000
00000100
00001000
00000000
00010000
,
00000000
00000000
00000000
01000000
00000000
00000000
00000000
00000000
00000000
00000000
00000000
00000000
00000000
00000000
00000000
00000000
;

//--------------- dance-solo - ----------------
#NOTES:
     dance-solo:
     :
     Easy:
     3:
     0,0,0,0,0:
000000
000000
000000
000000
,
000001
100000
000001
100000
,
000010
000010
010000
010000
,
001000
001000
000100
000100
,
000010
000000
100000
000100
,
010000
000000
000001
000100
,
001000
100000
000010
000010
,
001000
000001
010000
010000
,
100001
000000
000000
000000
000100
000000
000000
010000
,
000010
000000
000000
000000
,
100001
000000
000000
000000
000100
000000
000000
000010
,
010000
001000
001000
000000
,
000001
100000
000001
100000
,
010010
000000
000000
000000
,
100000
000001
100000
000001
,
010000
000010
010010
010010
,
100100
010000
000000
000101
,
000010
000000
000000
001000
000000
000000
000000
000000
,
000001
000100
000010
000010
,
100000
000100
010000
010000
,
000100
001000
000100
001000
,
000100
001000
000100
001100
,
001000
000100
001000
000100
,
001000
000100
001000
010010
,
100100
001001
000000
000000
,
001100
000000
000000
000000
000000
000000
000000
100000
000000
000000
000100
000000
001000
000010
000000
010000
,
000000
000000
000000
000001
000000
000000
000000
000000
000000
000000
000000
000000
000000
000000
000000
000000
;
