#TITLE:Everything You Know Is Wrong;
#SUBTITLE:;
#ARTIST:"Weird Al" Yankovic;
#TITLETRANSLIT:;
#SUBTITLETRANSLIT:;
#ARTISTTRANSLIT:;
#GENRE:;
#CREDIT:8Chasey 2025;
#MUSIC:Everything You Know Is Wrong.ogg;
#BANNER:;
#BACKGROUND:;
#CDTITLE:;
#SAMPLESTART:45.480;
#SAMPLELENGTH:12.000;
#SELECTABLE:YES;
#OFFSET:-1.964;
#BPMS:0.000=161.027;
#STOPS:;
#DISPLAYBPM:161.000;
#BGCHANGES:-5.500=Everything You Know Is Wrong.avi=1.000=0=0=0=StretchNoLoop====,
603.250=Everything You Know Is Wrong-bg.png=1.000=0=0=1,
99999.000=-nosongbg-=1.000=0=0=0=StretchNoLoop====
;
#FGCHANGES:;

//--------------- dance-single - 8Chasey ----------------
#NOTES:
     dance-single:
     8Chasey:
     Beginner:
     2:
     0,0,0,0,0:
0000
0000
0000
0000
,
0000
0000
0000
0000
,
0000
0000
0000
0000
,
0000
0000
0000
0000
,
0000
0000
1001
1001
,
0000
0000
0001
0000
,
0000
0000
0001
0000
,
0000
0000
1000
0000
,
0000
0000
1000
0000
,
0000
0000
0010
0000
,
0010
0000
0010
0000
,
0000
0000
0100
0000
,
0100
0000
0100
0000
,
0000
0000
1000
0000
,
0000
0000
1000
0000
,
0000
0000
0001
0000
,
0000
0000
0001
0000
,
0000
0000
0100
0000
,
0100
0000
0100
0000
,
0000
0000
0010
0000
,
0010
0000
0010
0000
,
0000
0000
1000
0000
,
0000
0000
0001
0000
,
0000
0000
0100
0000
,
0000
0000
0010
0000
,
0000
0000
1000
0000
,
1000
0000
1000
0000
,
0000
0000
0001
0000
,
0001
0000
0001
0000
,
0000
0110
0000
0000
,
0010
0000
0010
0000
,
0010
0000
0000
0000
,
0100
0000
0100
0000
,
0100
0000
0000
0000
,
0001
0000
0000
0000
,
1000
0000
0000
0000
,
0001
0000
1000
0000
,
0001
0000
0000
0000
,
0100
0000
0100
0000
,
0100
0000
0000
0000
,
0010
0000
0010
0000
,
0010
0000
0000
0000
,
1000
0000
0000
0000
,
0001
0000
0000
0000
,
0100
0000
0100
0000
,
0000
0000
0010
0000
,
0000
0000
0010
0000
,
0000
0000
0100
0000
,
0000
0000
0100
0000
,
0000
0000
0001
0000
,
0001
0000
0001
0000
,
0000
0000
1000
0000
,
1000
0000
1000
0000
,
0000
0000
0100
0000
,
0000
0000
0100
0000
,
0000
0000
0010
0000
,
0000
0000
0010
0000
,
0000
0000
1000
0000
,
1000
0000
1000
0000
,
0000
0000
0001
0000
,
0001
0000
0001
0000
,
0000
0000
0100
0000
,
0000
0000
0010
0000
,
0000
0000
1000
0000
,
0000
0000
0001
0000
,
0000
0000
0100
0000
,
0100
0000
0100
0000
,
0000
0000
0010
0000
,
0010
0000
0010
0000
,
0000
1001
0000
0000
,
0001
0000
0001
0000
,
0001
0000
0000
0000
,
1000
0000
1000
0000
,
1000
0000
0000
0000
,
0010
0000
0000
0000
,
0100
0000
0000
0000
,
0010
0000
0100
0000
,
0110
0000
0000
0000
,
1000
0000
1000
0000
,
1000
0000
0000
0000
,
0001
0000
0001
0000
,
0001
0000
0000
0000
,
0100
0000
0000
0000
,
0010
0000
0000
0000
,
0100
0000
0010
0000
,
1000
0000
1000
0000
,
1000
0000
0000
0000
,
0001
0000
0001
0000
,
0001
0000
0000
0000
,
0100
0000
0100
0000
,
0100
0000
0000
0000
,
0010
0000
0010
0000
,
0010
0000
0000
0000
,
1000
0000
0000
0000
,
0001
0000
1000
0000
,
0001
0000
0000
0000
,
1000
0000
0001
0000
,
1000
0000
0000
0000
,
0001
0000
0000
0000
,
0100
0000
0010
0000
,
0100
0000
0010
0000
,
0100
0000
0000
0000
,
0001
0000
1000
0000
,
0001
0000
0000
0000
,
1000
0000
0001
0000
,
1000
0000
0000
0000
,
0010
0000
0000
0000
,
0100
0000
0010
0000
,
0100
0000
1001
1001
,
0000
0000
0001
0000
,
0000
0000
1000
0000
,
0000
0000
0010
0000
,
0000
0000
0100
0000
,
0000
0000
0010
0000
,
0100
0000
0010
0000
,
0000
0000
0100
0000
,
0010
0000
0100
0000
,
0000
0000
1000
0000
,
0000
0000
0001
0000
,
0000
0000
0100
0000
,
0000
0000
0010
0000
,
0000
0000
0100
0000
,
0010
0000
0100
0000
,
0000
0000
0010
0000
,
0100
0000
0010
0000
,
0000
0000
1000
0000
,
0000
0000
0001
0000
,
1000
0000
1000
0000
,
0001
0000
0001
0000
,
1001
0000
0000
0000
,
0000
0000
0000
0000
,
0100
0000
0010
0000
,
0100
0000
0010
0000
,
1001
0000
0000
0000
,
0001
0000
1000
0000
,
0001
0000
0000
0000
,
1000
0000
0001
0000
,
1000
0000
0010
0000
,
0010
0000
0010
0000
,
0100
0000
0100
0000
,
0100
0000
0000
0000
,
0010
0000
0000
0000
,
0100
0000
0010
0000
,
0100
0000
0000
0000
,
0010
0000
0100
0000
,
0010
0000
0000
0000
,
1000
0000
0000
0000
,
0001
0000
0000
0000
,
0100
0000
0000
0000
,
0010
0000
0010
0000
,
1001
0000
0000
0000
;

//--------------- dance-single - 8Chasey ----------------
#NOTES:
     dance-single:
     8Chasey:
     Easy:
     4:
     0,0,0,0,0:
0000
0000
0000
0000
,
0000
0000
0000
0000
,
0000
0000
0000
0000
,
0000
0000
0000
0000
,
0000
0000
1001
1001
,
0000
0001
0100
0001
,
1000
0000
0010
1000
,
0010
0000
1000
0000
,
0100
1000
0100
0000
,
1000
0000
0001
0000
,
0010
0000
0100
0000
,
0010
0100
0010
0000
,
0100
0010
0100
0000
,
0010
0000
0000
0000
,
0001
0100
0001
0000
,
1000
0000
0010
0000
,
1000
0100
1000
0000
,
0001
0000
0010
0000
,
0100
0000
0010
0000
,
0100
0000
0010
0000
,
0001
1000
0001
0000
,
1000
0000
0010
0000
,
0100
0001
0100
0000
,
0001
0000
0010
0000
,
0100
1000
0100
0000
,
1000
0000
1000
0000
,
0001
0000
0001
0000
,
0100
0001
0000
0001
,
1000
0010
0000
0010
,
0000
0110
0000
0100
,
0001
0000
1000
0001
,
1000
0000
0000
0010
,
1000
0000
0001
1000
,
0001
0000
0010
0000
,
0100
0000
1000
0000
,
0001
0000
0100
0000
,
0010
0000
1000
0000
,
1001
0000
0001
0000
,
1000
0010
1000
0000
,
0100
0000
1000
0000
,
0001
0100
0001
0000
,
0010
0000
0100
0000
,
0010
0100
0010
0000
,
0100
0010
0100
0000
,
1000
1000
0001
0001
,
0000
0100
0001
0100
,
0010
0000
1000
0010
,
1000
0000
0010
0000
,
0100
0001
0100
0000
,
0001
0000
0100
0000
,
0010
0000
1000
0000
,
0100
0000
0010
0100
,
0010
0000
0001
0010
,
0001
0000
0000
0000
,
1000
0100
1000
0000
,
0001
0000
0010
0000
,
0001
0100
0001
0000
,
1000
0000
0010
0000
,
0100
0000
0010
0000
,
1000
0000
0001
0000
,
0100
0001
0100
0000
,
0010
0000
1000
0000
,
0100
1000
0100
0000
,
0010
0000
0001
0000
,
1000
0000
0010
0100
,
0010
0000
1000
0000
,
0100
0000
1000
0000
,
0001
0100
0001
0000
,
1000
0010
1000
0001
,
0000
1001
0000
0000
,
0001
0010
0001
0000
,
1000
0000
0100
0000
,
1000
0010
1000
0000
,
0001
0000
0100
0000
,
0010
0000
1000
0000
,
0100
1000
0100
0000
,
1000
0001
1000
0000
,
1001
0000
0001
0000
,
0010
0001
0010
0000
,
0001
0000
0100
0000
,
0010
1000
0010
0000
,
1000
0000
0100
0000
,
0010
0000
0001
0000
,
0100
0001
0100
0001
,
0100
0000
0000
0000
,
0010
0000
1000
0000
,
0100
0000
0001
0000
,
0100
0000
1000
0000
,
0010
0000
0001
0000
,
0010
0000
0100
0000
,
0001
0000
0010
0100
,
0010
0000
0100
0000
,
1000
0000
0010
0000
,
0100
0000
0000
0000
,
0001
0100
0001
1000
,
0001
0000
1000
0001
,
1000
0000
0001
0000
,
1000
0000
0000
1000
0000
0000
0000
0000
,
0001
0000
0000
0001
0000
0000
0000
0000
,
0100
0000
0010
0000
,
0100
0000
0001
0100
,
0001
0000
0000
1000
,
0001
0000
0001
0000
,
1000
0000
0000
0001
,
1000
0000
1000
0000
,
0001
0000
0000
0010
,
0100
0000
0100
0000
,
0010
0000
0001
0000
,
1000
0000
1001
1001
,
0000
0001
0010
0100
,
0010
0000
0001
0010
,
0001
0000
1000
0000
,
0010
1000
0010
0000
,
0100
0000
0010
0000
,
1000
0100
1000
0000
,
0001
0000
0100
0000
,
0010
0100
0010
0000
,
1000
0000
0100
0000
,
0010
0001
0100
0000
,
0001
0000
1000
0000
,
0010
1000
0100
0000
,
1000
0000
0010
0000
,
0100
0010
0100
0000
,
0001
0000
0010
0000
,
0100
0010
0100
0000
,
1000
0000
0010
0000
,
0100
0010
0100
0000
,
0001
0001
0010
0010
,
0100
0100
1000
1000
,
0010
0000
1000
0000
,
0001
0000
0100
0000
,
0010
0100
0000
0100
,
0010
0100
0000
0100
,
0110
0000
0010
0000
,
1000
0100
1000
0000
,
0001
0000
0010
0000
,
0001
0100
0001
0000
,
1000
0000
0010
0000
,
0100
0000
0001
0000
,
1000
1000
0001
0000
,
0001
0001
1000
0000
,
1001
0000
0001
0000
,
0010
0100
0010
0000
,
0100
0000
1000
0000
,
0010
0100
0010
0000
,
1000
0000
0001
0000
,
0100
0000
0010
0000
,
1000
0000
0010
0000
,
1000
0000
0001
0000
,
0100
0000
0010
0000
,
1000
0001
1001
0000
;

//--------------- dance-single - 8Chasey ----------------
#NOTES:
     dance-single:
     8Chasey:
     Medium:
     6:
     0,0,0,0,0:
0000
0000
0000
0000
,
0000
0000
0000
0000
,
0000
0000
0000
0000
,
0000
0000
0000
0000
,
0000
0000
1001
1001
,
0001
0000
1000
0010
0000
0000
1000
0000
,
0010
0000
0100
0001
0000
0000
0010
0000
,
0001
0000
1000
0001
0000
0000
1000
0000
,
0100
1000
0000
0100
0000
0000
1000
0000
,
0010
0000
0100
0001
0000
0000
0100
0001
,
0000
1000
0000
0001
0000
0000
0010
0000
,
0001
0100
1000
0100
,
0001
0010
0001
0000
1000
0000
0100
0000
,
1000
0000
0001
0100
,
0001
0010
0001
0000
,
1000
0010
0000
1000
0000
0000
0100
0000
,
1000
0000
0000
0001
0000
0000
0100
0000
,
0001
0000
0000
0010
0000
0001
0000
1000
,
0010
0000
1000
0010
0000
0000
0100
0000
,
0001
1000
0100
0000
,
0010
0100
1000
0001
,
0010
0000
0000
0001
0000
0000
1000
0000
,
0100
0000
0000
1000
0000
0000
0100
0000
,
0010
0000
0100
0000
1000
0001
1000
0000
,
0001
0000
0010
0000
0001
0100
0001
0000
,
0010
0001
0100
0000
,
0010
0000
0010
0000
1000
0000
0001
0010
,
0000
0001
1000
0000
0100
0000
1000
0000
,
0001
0010
0001
0100
,
0010
0110
0000
0010
,
1000
0001
0100
0010
,
0000
0000
0100
0000
0010
0000
0000
0100
,
0000
0001
1000
0001
,
0100
0001
0010
1000
,
0010
0000
0001
0000
0100
0001
0100
0000
,
0001
0010
1000
0010
,
0001
0100
1000
0100
,
0010
0100
0001
1000
,
0010
0000
1000
0000
0100
1000
0100
0000
,
1000
0000
0001
0000
0010
0000
0001
0010
,
0000
0100
0010
0000
0100
0000
1000
0000
,
0001
0000
0100
0000
0010
0000
1000
0010
,
0000
1000
0100
0000
1000
0000
0001
0000
,
0100
0010
0100
0000
0001
0010
0001
0000
,
1100
1000
0001
0101
,
1000
0001
0010
0001
,
0100
0000
0010
0100
0000
0000
0001
0000
,
1000
0000
0100
0000
1000
0000
0000
1000
,
0001
0000
0010
0001
0000
0000
0100
0000
,
0010
1000
0010
0100
,
0001
0100
0001
0000
1000
0000
0100
0000
,
0010
0100
0010
0000
0100
0010
0100
0000
,
1000
0000
1000
0000
0001
0100
0001
0000
,
0010
0000
0001
0100
,
0001
1000
0001
0000
0100
0000
0001
0000
,
1000
0000
0000
0100
1000
0000
0010
0000
,
1000
0001
0100
0001
,
0100
0000
0001
0010
,
0001
0000
1000
0000
0010
1000
0010
0000
,
1000
0000
0100
1000
,
0001
0000
0100
0000
0010
0100
0010
0000
,
0100
0000
0001
0010
,
1000
0000
0000
0010
0001
0000
0010
0000
,
0001
0000
0000
0000
0100
0001
0100
0000
,
0010
0000
0000
1000
0000
0100
1000
0000
,
0001
0000
0100
0001
,
1000
0000
0100
0000
0010
0100
0010
0000
,
0100
1000
0001
0100
,
0010
0100
0010
0000
1000
0000
0001
0000
,
0010
0110
0000
0100
,
1000
0000
0010
1000
0000
0000
0001
0000
,
0010
0000
0001
0000
0100
0000
0010
0100
,
0000
0001
1000
0100
,
0001
0000
0100
0010
0100
0000
1000
0000
,
0001
0000
0100
0001
0100
0000
0001
0000
,
1000
0000
0010
1000
0000
0000
0010
0000
,
0100
0000
0000
0000
0001
0100
0001
0000
,
1000
1001
0000
0001
,
0010
0000
0001
0000
1000
0010
0000
1000
,
0100
1000
0001
0000
,
0100
0000
0001
0000
1000
0010
0000
1000
,
0000
0000
0100
0000
1000
0000
0000
0100
,
1000
0000
0001
0000
0010
0000
0000
0001
,
0100
0001
1000
0000
,
0010
0000
1000
0010
0000
1000
0001
0000
,
0100
0000
0001
0010
0000
0000
0001
1000
,
0000
0000
0100
1000
0000
0000
0100
0010
,
0100
0000
1000
0010
0000
0000
1000
0001
,
0000
0000
0100
0001
0000
0000
0010
0100
,
0010
0000
0001
0010
0000
0000
0001
0100
,
0000
0000
0001
1000
0000
0000
0010
1000
,
0100
0000
1000
0010
0000
0000
1000
0100
,
0000
0000
1000
0001
1000
0000
0010
0000
,
0110
0000
0100
0001
,
0100
0010
0100
0000
0010
0100
0010
0000
,
0110
0000
0010
1000
,
0100
0000
1000
0001
0000
1000
0001
0000
,
1001
0000
0001
0100
,
0110
0000
0010
1000
,
0100
1000
0100
0000
1000
0000
0001
0000
,
0100
0010
0100
0000
0001
0000
0000
0000
,
0010
0000
0000
0001
0000
0000
1000
0001
,
1000
0000
0100
1000
,
0010
0000
0000
1000
0000
0000
0001
1000
,
0001
0000
0100
0001
,
1000
0000
0100
1000
0000
0000
0010
0000
,
1000
0100
1000
0000
,
0001
0010
0001
1000
,
0100
1000
0001
1001
,
0000
0000
1000
0010
1000
0000
0010
0000
,
0100
0000
0001
0000
0010
0001
0010
0000
,
0001
1000
0100
0000
,
1000
0000
0100
1000
0000
0000
0010
0000
,
1000
0001
0100
0000
,
0001
0010
0001
0000
1000
0000
0100
0000
,
1000
0000
0000
0000
0010
1000
0010
0000
,
0100
0100
0001
0000
,
1100
1000
0001
0010
,
0001
0000
0100
0000
0010
0100
0000
0000
,
0010
0000
1000
0001
0000
0000
1000
0100
,
0000
1000
0100
0010
,
0001
0000
0010
0000
0001
0100
0001
0000
,
1000
0000
0010
0000
1000
0100
1000
0000
,
0001
0100
0010
0000
,
1000
0000
0010
0000
0000
1000
0001
0000
,
0010
0001
0100
0001
,
1000
0000
0100
0000
0010
0000
0100
1000
,
0100
1100
1000
1001
,
0001
0101
0100
0110
,
1001
0000
0000
0000
0001
0010
0001
0000
,
1000
0000
0000
0100
0000
1000
0100
0000
,
1000
0001
0100
0001
,
0010
0000
0001
0000
1000
0100
1000
0000
,
1001
0001
0010
0001
,
0100
0000
0010
0000
1000
0100
1000
0000
,
0001
0000
0100
0000
0010
0000
0100
0010
,
0000
0000
0100
0000
0010
1000
0010
0000
,
1000
0000
0100
1000
0001
0000
0100
0000
,
0001
0000
0010
0001
0010
0000
0001
0000
,
1000
0100
1000
0000
0100
0000
0010
0000
,
0001
0010
0100
0000
0010
0100
0010
0000
,
0110
0000
0100
0000
1000
0001
0000
1000
,
0000
0000
0001
0000
0100
0010
0100
0000
,
0001
0000
0000
0000
0010
0001
0010
0000
,
0001
1000
0010
1000
,
0100
0000
0000
0000
1000
0010
1000
0000
,
0001
0000
0010
0001
0000
0000
0100
0000
,
0001
1000
0100
1000
,
0010
1000
0010
0000
0100
0000
0001
0000
,
0010
0001
0010
0000
0001
0000
1000
0000
,
1010
0011
1001
0000
;

//--------------- dance-single - 8Chasey ----------------
#NOTES:
     dance-single:
     8Chasey:
     Hard:
     8:
     0,0,0,0,0:
0000
0000
0000
0000
,
0000
0000
0000
0000
,
0000
0000
0000
0000
,
0000
0000
0000
0000
,
0000
0000
1001
1001
,
0001
0000
1000
0100
0010
0000
0001
0010
,
0001
0000
0100
0001
0000
0100
0001
1000
,
0000
0010
0000
1000
0000
0010
1000
0000
,
0100
0010
0000
0001
0000
0100
0010
1000
,
0000
0100
0000
1000
0000
0001
0010
0001
,
0000
0100
0000
0110
0000
0010
1000
0100
,
1000
0000
0001
0100
0001
0000
1000
0001
,
0010
0000
0001
1000
0100
0000
0010
0100
,
0010
0000
0011
0000
0001
1000
0001
1000
,
0000
0010
0000
0010
0000
1000
0100
1000
,
0001
0010
0000
0001
0000
1000
0100
0000
,
0010
0100
0000
0100
0000
1000
0100
0000
,
1000
0001
0000
0010
0000
0001
1000
0000
,
0010
0100
0010
1000
0000
0010
1000
0000
,
0100
1000
0010
0000
0100
0001
0010
0000
,
0001
0010
0001
0000
1000
0100
1000
0000
,
1010
0000
0000
0010
0000
0010
0100
0000
,
0001
0100
0000
0001
0000
1000
1000
0001
,
0000
1000
0100
0010
0000
0100
0010
0000
,
0001
0010
0000
0010
0000
0001
1000
0001
,
0000
1000
0000
0010
0000
1000
0100
0010
,
0001
0010
0000
0001
0000
0100
0001
0000
,
1000
0100
1000
0000
0001
1000
0010
0000
,
0100
0010
0100
0000
0010
1000
0001
0000
,
1000
0000
1001
0000
0001
0010
0000
0110
,
0000
0011
0000
1010
0000
1000
0001
1001
,
0000
0000
0100
0001
1000
0010
0010
0100
,
0000
0001
0000
1100
0000
0010
0000
0001
,
0010
0000
0001
1000
0001
1000
0010
1000
,
0100
0000
1000
0100
0000
1000
0001
0010
,
0001
0100
0001
0000
1000
0100
0010
0000
,
0100
0010
0001
0000
0010
0001
1000
0010
,
0100
0000
0110
0000
0010
1000
0000
1010
,
0000
0101
0000
1100
0000
0011
0000
0010
,
0100
0000
1000
0100
1000
0000
0001
0010
,
0000
0010
0100
0010
0000
0100
0000
1100
,
0000
0000
1000
0001
0100
0000
0001
0010
,
0000
0001
0000
1000
0000
0010
0100
0001
,
0100
0000
0001
1000
0100
0000
0010
0000
,
0011
0000
1010
0000
0001
0100
0010
1000
,
0100
0000
1000
0100
1000
0000
0001
0000
,
1000
0000
0001
0010
0000
0010
0001
0100
,
0000
0010
0000
0100
0000
1000
0100
0010
,
0000
1000
0100
0000
1000
0001
0100
0000
,
0001
0010
0000
0010
0000
0100
0010
0100
,
0000
1000
0100
0000
1000
0100
0010
0000
,
0001
0001
0010
0000
0001
1000
0100
0000
,
1000
1000
0010
0000
1000
0001
0100
0000
,
0110
0000
0010
0000
1000
0100
1000
0000
,
0001
0010
0000
0001
0000
0100
0010
0000
,
0100
0001
0000
1000
0000
0100
1000
0000
,
0001
0010
0001
0000
1000
0100
0000
0010
,
0100
1000
0010
0000
1000
0010
0100
0000
,
0001
0100
0000
0100
0001
0000
1000
0000
,
0100
1000
0100
0000
0010
0001
0010
0000
,
0001
1000
0001
0000
0100
0000
0010
0000
,
1010
0000
0000
1000
0100
1000
0001
0000
,
0010
0001
0000
0100
0000
0001
1000
0000
,
0100
1000
0010
1000
0000
0010
0100
0000
,
0001
0100
0000
0010
0000
0100
0001
1000
,
0100
0000
0110
0000
0010
0001
0000
1000
,
0100
0000
1000
0000
0001
0100
0010
0000
,
1000
0010
0000
0100
0001
0000
1000
0001
,
1000
0000
0100
0010
0100
0000
0010
0001
,
0100
0000
0101
0000
0000
0010
0000
1010
,
0000
1000
0100
0010
0000
0011
0000
1001
,
0000
0000
1000
0001
1000
0010
0010
0100
,
0000
0001
0000
1010
0000
1000
1000
0001
,
0010
0000
0001
1000
0100
1000
0000
0010
,
0000
0100
0001
0100
0010
0000
1000
0010
,
1000
0100
0000
1000
0100
1000
0000
0001
,
0010
0001
0000
0100
0000
0010
0100
0010
,
1000
0000
1001
0000
0001
0010
0000
0001
,
0000
1000
0100
1000
0000
0010
0100
0001
,
0010
0000
0011
0000
0001
0000
1000
0100
,
0000
0100
1000
0001
0000
0100
0000
0010
,
0100
0000
0001
1000
0100
0000
0100
1000
,
0000
0010
0000
0100
0001
0000
1000
0100
,
1000
0000
0010
0000
0110
0000
0100
0001
,
0010
0000
0001
0000
1000
0100
1000
0000
,
0001
0010
0001
0010
0001
0000
1000
0000
,
0100
1000
0010
0000
0100
0000
0010
0000
,
1000
0010
1000
0010
1000
0000
0100
0000
,
0010
0001
1000
0000
0100
0000
0010
0000
,
0001
0100
0001
0001
0000
1000
0001
0000
,
1000
0010
1000
1000
0000
0100
1000
0000
,
0001
0000
0100
0100
0010
0000
1010
0000
,
1000
0000
0100
0100
0010
0000
0001
0010
,
0001
0000
0000
0101
0000
0100
0001
1000
,
0100
0000
1000
0010
1000
0000
0001
1000
,
0100
0000
0000
1100
0000
1000
0100
1000
,
0010
0000
0000
0110
0000
0000
0100
0001
,
1000
0000
0000
1001
0000
0000
0001
0010
,
0001
0000
0000
1100
0000
0100
1000
0010
,
0100
0101
0001
1001
,
1000
0000
1010
0000
0010
0100
0001
0100
,
0001
0000
0010
0001
0000
1000
0001
0000
,
1000
0100
0010
0000
0110
0000
0100
0000
,
1000
0100
1000
0001
0000
0010
0001
0000
,
0100
0010
1000
0000
1001
0000
0001
0000
,
0010
0000
0001
0100
0000
0001
1000
0010
,
1000
0000
1100
0000
0100
0000
0010
0001
,
0100
0101
0001
1001
,
1000
0100
0010
0000
0110
0000
1001
0000
,
1000
0000
0010
1000
0010
0000
0100
0000
,
0001
0000
1000
0000
0001
1000
0100
0010
,
0000
0100
0000
0010
0000
0001
0010
0001
,
0000
1000
0000
0100
1000
0001
0100
0010
,
0000
0100
0001
1000
0000
0000
0100
1000
,
0100
1000
0000
0001
0000
0010
0001
0010
,
0000
0001
0100
0010
1000
0010
0000
0100
,
0000
0010
0000
0110
0000
0100
0001
0100
,
0001
0000
1000
0100
0010
0000
0100
0000
,
0010
0001
0000
0010
0000
0010
0001
1000
,
0000
0010
0000
0110
0000
0100
0001
0010
,
0001
0000
1000
0010
1000
0000
0100
0000
,
1000
0001
0000
0010
0000
0001
0000
1001
,
0000
1000
0000
0001
0000
0100
0010
1000
,
0000
0010
1000
0001
0000
0100
0001
0001
,
0100
0000
0001
1000
0000
0100
1000
0010
,
1000
0000
0010
1000
0010
0000
0100
0001
,
0100
0001
0000
1000
0000
0100
1000
0000
,
1010
0101
0011
1100
,
1000
0100
0010
0000
0110
0000
1001
1000
,
0001
0000
0100
0001
1000
0010
0000
1000
,
0000
0001
0100
0010
0000
1000
0100
0000
,
0010
0001
0010
0000
0001
1000
0100
0000
,
1000
0001
1000
0000
0010
0100
0001
0000
,
1001
0000
1000
0000
0100
1000
0000
1100
,
0000
0010
0001
0010
0000
0011
0000
1001
,
0000
0000
1000
0010
1000
0010
0010
0100
,
0000
0001
0100
1000
0000
0100
0001
1000
,
0000
0100
1000
0010
1000
0010
0100
0001
,
0100
0001
0010
0001
1000
0100
0010
0100
,
0010
0010
0001
0001
1000
0100
1000
0000
,
0010
0010
1000
1000
0001
0100
0001
0000
,
0101
0000
1100
0000
1000
0010
0000
1000
,
0000
0001
0010
0100
0000
0010
0100
1000
,
0000
0000
0100
1000
0100
0000
1000
0001
,
0000
0100
0000
0010
0000
1010
0000
0011
,
0000
0000
0010
0001
0010
0000
0001
1000
,
0000
1000
0100
1000
0000
0010
0100
0000
,
0001
0100
0010
0000
1000
0100
0010
0000
,
0110
0100
1000
0000
0100
0000
1000
0001
,
0100
0000
0010
0000
1000
0001
0010
0000
,
0001
1000
0001
0100
0010
0000
0000
0000
;
