#TITLE:Elmo Sings Cruel Angel's Thesis;
#SUBTITLE:;
#ARTIST:Kevin Clash;
#TITLETRANSLIT:;
#SUBTITLETRANSLIT:;
#ARTISTTRANSLIT:;
#GENRE:;
#CREDIT:;
#MUSIC:Elmo Sings Cruel Angels Thesis.ogg;
#BANNER:Elmo Sings Cruel Angel's Thesis.png;
#BACKGROUND:Elmo Sings Cruel Angel's Thesis-bg.png;
#CDTITLE:;
#SAMPLESTART:51.35;
#SAMPLELENGTH:12;
#SELECTABLE:YES;
#OFFSET:-6.530;
#BPMS:0.000=128.200;
#STOPS:;
#DISPLAYBPM:126.000:130.000;
#BGCHANGES:-13.940=Elmo Sings Cruel Angels Thesis.avi=1.000=0=0=0=StretchNoLoop==CrossFade_Fastest==,
99999.000=-nosongbg-=1.000=0=0=0=StretchNoLoop====
;
#FGCHANGES:;

//--------------- dance-single - ----------------
#NOTES:
     dance-single:
     :
     Beginner:
     1:
     0,0,0,0,0:
0000
0000
0000
0000
,
0000
0000
0000
0000
,
0000
0000
0000
0000
,
0000
0000
0000
0000
,
0001
0000
0001
0000
,
0001
0001
0001
0000
,
1000
0000
1000
0000
,
1000
1000
1000
0000
,
0010
0000
0000
0000
,
0010
0000
1000
0000
,
0100
0000
0000
0000
,
0100
0000
0001
0000
,
0010
0000
0001
0000
,
0010
0000
1000
0000
,
0100
0000
0100
0000
,
1001
0000
0110
0000
,
1000
0000
0100
0000
,
1000
1000
1000
0000
,
0001
0000
0010
0000
,
0001
0001
0001
0000
,
0100
0000
0001
0000
,
0100
0000
1000
0000
,
0010
0000
0010
0000
,
1000
0000
0001
0000
,
1001
0000
0001
0000
,
1001
0000
1000
0000
,
0010
0010
0010
0000
,
0110
0000
0000
0000
,
0100
0000
0001
0000
,
0010
0000
1000
0000
,
0001
0000
1000
0000
,
1001
0000
0001
0001
,
0001
0000
1000
0000
,
0100
0000
0100
0000
,
0010
0000
1000
0000
,
0010
0000
1001
0000
,
0001
0000
0100
0000
,
1000
0000
0010
0000
,
1000
0000
0001
0000
,
1001
1001
1001
0000
;

//--------------- dance-single - ----------------
#NOTES:
     dance-single:
     :
     Easy:
     4:
     0,0,0,0,0:
0000
0000
0000
0000
,
0000
0000
0000
0000
,
0000
0000
0000
0000
,
0000
0000
0000
0000
,
0001
0001
0010
0001
,
1000
1000
0100
1000
,
0010
0110
0100
0110
,
1000
0000
0000
0000
0010
0000
0000
0000
0001
0000
0000
0100
0000
0000
0000
0000
,
0001
0010
0001
0000
,
1000
0100
0001
0000
,
0010
0001
1000
0100
,
0010
0010
0010
0000
,
0001
0100
0101
0000
,
1000
0010
1010
0000
,
0100
0001
1000
0100
,
1001
0000
0110
0000
,
0100
0001
0001
0000
,
1000
0100
0010
0000
,
1000
0010
0001
0010
,
0100
0100
0100
0000
,
1000
0010
0110
0000
,
0001
0100
1001
0000
,
1000
0010
0001
0010
,
1100
0001
1000
0001
,
0011
0010
0001
0010
,
0100
1000
0010
0100
,
0001
0001
0010
0010
,
1100
0000
1000
1000
,
0010
1000
0010
0001
,
0010
0100
0001
1000
,
0100
1000
0001
0010
,
1001
0000
0000
0000
0000
0000
0000
0000
0100
0000
0000
0100
0000
0000
0100
0000
,
0010
1000
0100
0001
,
0010
0001
1000
0010
,
1000
1000
1000
0000
0001
0001
0001
0000
,
1000
0000
0000
0000
0100
0000
0000
0000
0010
0000
0000
0010
0000
0000
0000
0000
,
0001
0100
0010
1000
,
0010
0001
0011
1010
,
1000
1000
1000
0000
0001
0001
0001
0000
,
0100
0000
0000
0000
0001
0000
0000
0000
1000
0000
0000
0010
0000
0000
0000
0000
;

//--------------- dance-single - ----------------
#NOTES:
     dance-single:
     :
     Medium:
     5:
     0,0,0,0,0:
0000
0000
0000
0000
,
0000
0000
0000
0000
,
0000
0000
0000
0000
,
0000
0000
0000
0000
,
0001
0100
0001
0000
0010
0000
0001
0010
,
0001
1000
0100
1000
0010
0000
0110
0000
,
0001
0100
1000
0000
0001
0010
1000
0000
,
0010
1000
0100
0001
0100
0000
0110
0000
,
0001
0000
0001
0010
0001
0000
1000
0000
,
0100
0000
0000
1000
0000
0000
0001
0000
0100
0000
0000
0000
0000
0000
0000
0000
,
0010
1000
0010
0000
0100
0001
1000
0000
,
0001
0000
0000
1000
0000
0000
0001
0000
1000
0000
0000
0000
0000
0000
0000
0000
,
1000
0000
0000
0010
0000
0000
1000
0000
0100
0000
0000
0000
0010
0000
0000
0000
,
0001
0000
0000
0010
0000
0000
0001
0000
0100
0000
0000
0000
0010
0000
0000
0000
,
1000
0010
1000
0000
0001
0100
0001
0000
,
0010
0100
0010
0000
1001
0000
0100
0000
,
0001
0010
0001
0000
0001
0000
0100
0010
,
1000
0010
1000
0000
1000
0100
0010
0000
,
0001
0011
1000
1010
,
0100
0010
0001
1000
0010
0000
0100
0000
,
0001
0000
0000
0100
0000
0000
0010
0000
1000
0000
0000
0000
0110
0000
0000
0000
,
1000
0000
0000
0100
0000
0000
0010
0000
0001
0000
0000
0000
1001
0000
0000
0000
,
0001
0000
0100
0010
1000
0000
0100
0010
,
0100
0000
0110
0000
0010
0001
1000
0000
,
0100
1000
0010
0000
1000
0001
0010
0000
,
0001
0100
0001
0010
0001
0000
0011
0000
,
0001
0010
1000
0000
0010
0100
1000
0000
,
1000
0100
1000
0010
1000
0000
1010
0000
,
0100
0001
0100
0000
0010
0000
0001
0000
,
0010
1000
0100
0000
1000
0000
0101
0000
,
0001
0010
0001
0000
1000
0100
1000
0000
,
1001
0000
0000
0000
0001
0010
0100
0010
,
0001
0101
1000
1010
,
1000
0010
0010
0000
0100
0001
1000
0000
,
0010
0101
1100
0010
,
0100
0000
1000
0000
1000
0000
0010
0000
0100
0000
0000
0010
0000
0000
0000
0000
,
0100
0001
0011
0010
,
0001
0010
0001
1000
0010
0000
0100
0000
,
0100
0001
0010
0000
0001
1000
0010
0000
,
1000
0000
0100
0000
0001
0000
0100
0000
0010
0000
0000
0110
0000
0000
0000
0000
;

//--------------- dance-single - ----------------
#NOTES:
     dance-single:
     :
     Hard:
     8:
     0,0,0,0,0:
0000
0000
0000
0000
,
0000
0000
0000
0000
,
0000
0000
0000
0000
,
0000
0000
0000
0000
,
1001
0000
0000
0000
0001
0000
0000
0010
0001
0000
1000
0000
0010
0000
0100
0000
,
1000
0000
0100
0000
0001
0000
1000
0000
0100
0010
0000
0100
0010
0000
0001
0000
,
0011
0000
0000
0000
1100
0000
1000
0000
0010
1000
0000
0010
0100
0000
0001
0000
,
0101
0000
1000
0000
0010
0000
1000
0000
0100
0000
1000
0010
0000
0010
0100
0000
,
0001
0000
0010
0000
0001
0000
1000
0000
1100
0000
0000
0000
1000
0000
0010
1000
,
0010
0000
0000
0100
0001
0000
0001
0000
0011
0000
0000
0000
0010
0000
0001
0000
,
0010
0000
0001
1000
0000
0000
1000
0000
0100
0000
0010
0100
0000
0000
0100
0000
,
0010
0000
0010
0001
0000
0000
0001
0000
1000
0000
0000
0000
1000
0000
0010
1000
,
0010
0000
0000
0100
0000
0000
0001
0000
1000
0000
0000
0000
1100
0000
0100
0010
,
0001
0000
0000
0100
0000
0000
0010
0000
1000
0000
0000
0000
0110
0000
0100
0000
,
0001
0000
0000
0010
0000
0000
0001
0000
1000
0000
0000
0100
0000
0000
1000
0000
,
0010
1000
0000
0000
0001
0000
0010
0000
0011
0000
0001
0000
1001
0000
1000
0000
,
1100
0000
0000
0000
1000
0010
0000
0000
0010
1000
0001
0000
0010
0000
0001
0000
,
0100
0000
0001
0010
0000
0001
1000
0000
0100
0000
0100
0000
0010
0000
0000
0000
,
1000
0000
0010
1000
0000
0010
0100
0000
0001
0000
0010
0001
0000
0010
0100
0000
,
1000
0000
0000
0010
0000
0000
0110
0000
0101
0000
0000
0000
0001
0000
0010
0001
,
0010
0000
0000
0001
0000
0000
0100
0000
0101
0000
0000
0000
1000
0000
0010
1000
,
0010
0000
0000
1000
0000
0000
0100
0000
1100
0000
0000
0000
0110
0000
0100
0000
,
0010
0001
0000
0010
0000
0000
0001
0000
0100
1000
0000
0100
0000
0000
1000
0000
,
0100
0001
1000
0100
0010
0001
1000
0100
,
1010
0000
0000
1000
0010
0000
0100
0000
0001
0000
0000
0001
1000
0000
0001
0000
,
0010
0000
0000
0100
1000
0000
0100
0000
0010
0000
0000
0001
1000
0000
0001
0000
,
0100
0000
0000
0001
0010
0000
0001
0000
1000
0000
0000
0010
0100
0000
0001
0000
,
0100
0010
0000
0000
1100
0000
0000
0000
0100
0010
0000
0000
0101
0000
0000
0000
,
0001
0000
0010
0001
0000
0000
0010
0000
0100
0000
1000
0010
0000
0000
1000
0000
,
0010
0000
0100
0001
0000
0000
0100
0000
0100
0000
0001
0010
0000
0000
0001
0000
,
0010
0000
0000
0100
0000
0000
1000
0000
0001
0000
0000
0100
0000
0000
0010
0000
,
1100
0000
0000
0000
0000
0000
0000
0000
1000
0010
0000
0100
0001
0000
0010
0000
,
1100
0000
0100
0000
0110
0000
0000
0000
0010
0000
0001
0010
0000
0001
1000
0000
,
0010
0000
1000
0000
0010
0000
0100
0000
0001
1000
0000
1000
0000
0000
0100
0010
,
0100
0000
0000
0010
0001
0000
1000
0000
0100
0000
1000
0010
0000
0000
0100
0000
,
0001
0000
0010
0000
0100
0000
0010
0000
0001
0100
0000
0101
0000
0000
1010
0000
,
1000
0100
0000
0000
0001
0100
0000
0000
0001
0010
0000
0001
0010
0000
0100
0000
,
0010
0000
0100
0000
1000
0010
0100
0000
0001
1000
0000
1010
0000
0000
0011
0000
,
0001
0000
0100
0000
0001
0000
0010
0000
0100
0000
1000
0010
0000
0010
1000
0000
,
0100
0000
0100
0000
1000
0000
0001
0000
0110
0000
0000
1001
0000
0000
0000
0000
;

//--------------- dance-solo - ----------------
#NOTES:
     dance-solo:
     :
     Easy:
     4:
     0,0,0,0,0:
000000
000000
000000
000000
,
000000
000000
000000
000000
,
000000
000000
000000
000000
,
000000
000000
000000
000000
,
000001
000100
000010
000010
,
100000
000100
010000
010000
,
001000
100000
000001
001000
,
000010
000000
000000
000000
010000
000000
000000
000000
000100
000000
000000
000100
000000
000000
000000
000000
,
100001
000000
000010
000000
,
010000
000100
001000
000000
,
000001
010000
000010
100000
,
000100
001000
000100
000000
,
000001
000000
001000
000000
,
100000
000000
001000
000000
,
010010
000000
001000
000000
,
100001
000000
001100
000000
,
000100
100000
000100
000100
,
001000
000001
001000
001000
,
000010
000000
010000
000000
,
001000
100000
000001
000000
,
010000
010000
000010
000100
,
000010
000010
010000
000100
,
001000
000000
100001
000000
,
000100
100100
001000
001001
,
100001
010000
000010
000000
,
001000
000001
100000
001000
,
000100
000100
001000
000100
,
010100
000001
000110
100000
,
001000
100000
000010
000100
,
000001
000001
100000
000001
,
001000
000001
010000
000100
,
001001
000000
000000
000000
000000
000000
000000
000000
000100
000000
000000
000100
000000
000000
000100
000000
,
001000
100001
100000
000001
,
010000
010000
000010
000010
,
100000
101000
000001
001001
,
000010
010000
010010
100001
,
100000
000100
010000
000010
,
000001
000100
000010
010000
,
000100
000100
100000
000000
001000
001000
000001
000000
,
010000
000000
000000
000000
000010
000000
000000
000000
001000
000000
000000
100001
000000
000000
000000
000000
;
