#TITLE:ELMO SINGS AFRICA;
#SUBTITLE:;
#ARTIST:TOTO AND KEVIN CLASH;
#TITLETRANSLIT:;
#SUBTITLETRANSLIT:;
#ARTISTTRANSLIT:;
#GENRE:;
#CREDIT:;
#MUSIC:Elmo sings Africa by Toto.mp3;
#BANNER:;
#BACKGROUND:;
#CDTITLE:;
#SAMPLESTART:55.65;
#SAMPLELENGTH:12;
#SELECTABLE:YES;
#OFFSET:-0.170;
#BPMS:0.000=93.000;
#STOPS:;
#BGCHANGES:;
#FGCHANGES:;

//--------------- dance-single - ----------------
#NOTES:
     dance-single:
     :
     Beginner:
     1:
     0,0,0,0,0:
0000
0000
0000
0000
,
0000
0000
0000
0000
,
0000
0000
0000
0000
,
0000
0000
0000
0000
,
1000
0000
1000
0000
,
1000
0000
0000
0000
,
0100
0000
0000
0000
,
0010
0000
0000
0000
,
0000
0000
0001
0000
,
0001
0000
0001
0000
,
0000
0000
0100
0000
,
0000
0000
0010
0000
,
0010
0010
0010
0000
,
1000
0000
0001
0000
,
0100
0000
0000
0100
,
0100
0000
0000
0000
,
0001
0000
1000
0000
,
0000
0000
0010
0000
,
0010
0000
0010
0000
,
0110
0000
1001
0000
,
0100
0000
0001
0001
,
0001
0000
1000
0000
,
1000
0000
1000
0000
,
0000
0000
0001
0000
,
0001
0000
0001
0000
,
0000
0000
0010
0000
,
0010
0000
0010
0000
,
0000
0000
0100
0000
,
0100
0000
0100
0000
,
1001
0000
1001
0000
,
0100
0000
0100
0000
,
0000
0000
0000
0000
,
0000
0000
1001
1001
,
1001
0000
0000
0000
,
0000
0000
0001
0000
,
0010
0000
0001
0001
,
0000
0000
0110
0000
,
1000
0000
0001
0000
,
0100
0100
0100
0000
,
1000
0000
0010
0000
,
1000
1000
0000
0000
,
0100
0000
0000
0000
,
0001
0000
1000
0000
,
0000
0000
0010
0010
,
0010
0000
1001
0000
,
1001
0000
0110
0110
,
0110
0000
0100
0100
,
0100
0100
0100
0000
,
0001
0000
1000
0000
,
0000
0000
0100
0000
,
1000
0000
0001
0000
,
0000
0000
0010
0000
,
0000
0000
0110
0000
,
0000
0000
0110
0000
,
1000
0000
0001
0000
,
1001
0000
0110
0000
,
1001
0000
0010
0000
;

//--------------- dance-single - ----------------
#NOTES:
     dance-single:
     :
     Easy:
     3:
     0,0,0,0,0:
0000
0000
0000
0000
,
0000
0000
0000
0000
,
0000
0000
0000
0000
,
0000
0000
0000
0000
,
0001
0001
1000
1000
,
0010
0000
1000
0000
,
0001
0010
0001
0100
,
0100
0000
1001
0000
,
0000
0000
0000
0000
0000
0000
0000
0000
1000
0000
0000
0001
0000
0001
0000
0001
,
0000
0001
0000
0001
0000
0001
0000
0001
0000
0000
0000
0000
0000
0000
0000
0000
,
1000
0001
0010
0000
,
0110
0000
0100
0010
,
0001
1000
0010
0010
,
0100
0000
1000
0000
,
1000
0000
0000
0001
,
0010
0010
0001
1000
,
0010
1001
1001
0000
,
0000
0000
1000
0010
,
0001
0010
0110
0000
,
1001
0000
0010
1000
,
0010
0000
0000
0000
0000
0000
0000
0000
0100
0000
0000
0100
0000
0000
0000
0100
,
0000
0100
0100
0000
0001
0000
0000
0000
,
0010
0000
1000
0100
,
0100
0000
1000
0000
,
0010
0000
0001
1000
,
0001
0000
1001
0000
,
0010
0001
1000
0100
,
0100
0000
1000
1000
,
0010
0001
0010
0001
,
0101
0000
1100
0000
,
1001
0000
0100
0000
,
0000
0000
0000
0000
,
0000
0000
0000
0000
0100
0100
0100
0100
,
0000
0000
0000
0000
,
0000
0000
1000
0001
,
1000
0000
0000
0000
0001
0000
0000
0000
0000
0000
0000
0010
0000
0000
0000
0000
,
1000
0000
1100
0101
,
0001
0010
0100
0010
,
0001
0000
1000
0001
,
1000
0000
0100
1000
,
0001
0000
0000
0010
,
0010
0001
1000
0100
,
1001
0000
1001
0000
,
0000
0000
0010
0000
,
1000
0000
0001
0000
,
0000
0000
0101
0000
,
1100
0000
0000
0000
0000
0000
0000
0000
0010
0000
0000
0000
0010
0000
0000
0010
,
0000
0010
0010
0000
0001
0000
0100
0000
,
0001
0100
0001
1001
,
1000
0000
1000
0100
,
1000
0100
1000
1001
,
0001
0000
0010
0001
,
1000
0000
0110
0000
,
0110
0000
0000
0001
,
0100
1000
0010
0000
,
1000
0000
0001
0000
,
1001
0000
0100
0000
;

//--------------- dance-single - ----------------
#NOTES:
     dance-single:
     :
     Medium:
     5:
     0,0,0,0,0:
0000
0000
0000
0000
,
0000
0000
0000
0000
,
0001
0000
1000
0001
1000
0000
0010
0000
,
0000
0100
0000
0100
,
0001
0001
0010
0000
1000
0000
0110
0000
,
1000
0000
0100
0010
0100
0000
0010
0001
,
1000
0100
0010
0001
,
1000
0001
1001
0000
,
0000
0000
0000
0000
0000
0000
0000
0000
0010
0000
1000
0000
0001
0000
0000
0100
,
0000
0100
0000
0100
0000
0100
0000
0110
0000
0000
0000
0000
0000
0000
0000
0000
,
0001
0000
0010
0000
0100
0001
1000
0000
,
0100
0010
0010
0100
,
1010
0000
0011
0000
0100
0100
0100
0000
,
0000
1000
0010
0000
0001
0000
0001
0000
,
0101
0000
1100
0010
,
1000
0010
0001
0000
0100
0000
0100
0000
,
0100
0010
0000
0010
1010
0000
0011
0000
,
1000
0001
1000
0001
0100
0000
0000
0000
,
0110
0000
1000
0001
0100
0000
0000
0000
,
0001
0010
0000
0001
0000
0000
0001
0000
1000
0010
0000
1000
0000
0000
1000
0000
,
0000
0000
0000
0000
0000
0000
0000
0000
1000
0000
0000
1000
0000
0000
0000
0001
,
0000
0001
0010
0010
0000
0001
0100
0000
,
1000
0000
1000
0000
0110
0000
0000
0010
,
0010
0000
0000
0000
0000
1000
1000
0000
,
0001
0000
1000
0000
0001
0010
0100
1000
,
0010
0000
0000
0000
0000
1000
1000
0000
,
0101
0000
0001
0001
0010
0000
0000
0000
,
1100
0000
0000
1001
,
0110
0010
0100
0010
,
0011
0000
1010
0000
,
0110
0000
0000
0000
0000
0100
0000
0000
0100
0000
0000
0000
0000
0000
0000
0000
,
1000
0001
0000
0000
,
0000
0000
0000
0000
1100
1010
0101
0011
,
0000
0000
0100
0100
,
0100
0000
0010
0000
,
1000
0000
0010
0000
0001
0000
0000
0000
0100
0000
0000
1001
0000
0000
0000
0000
,
0001
0010
0010
0000
1000
0000
0100
0000
,
0001
1000
0001
0000
0011
0000
0000
0000
,
1100
0000
0010
0001
0100
0100
1000
0000
,
1010
0000
0000
0000
0101
0000
0000
0001
0000
1000
0000
0001
0000
1000
0000
0010
,
0000
0000
0000
0000
1000
1000
1000
0000
,
0010
0000
0001
0000
0100
0001
0001
0000
,
0110
0000
1001
0000
,
0000
0000
0000
0000
1000
0100
0001
0010
,
0100
0100
0010
0001
1000
0000
0000
0000
,
1010
0011
1100
0101
,
1001
0000
0000
0000
0000
0000
0000
0000
1000
0000
0000
0000
0010
0000
0000
0001
,
0000
0100
0010
0010
0000
1000
1000
0000
,
0101
0000
0001
0001
0010
0000
0000
0001
,
1000
0000
0100
0100
0100
1000
0010
0001
,
0100
0000
0101
0000
1010
0000
0100
0010
,
0100
0000
0000
0000
0001
0010
1000
0000
,
0001
0100
1000
0000
0101
0000
0000
0000
,
1010
0000
0000
1000
0000
0001
0000
1000
0000
0000
0000
0000
0001
0000
0000
0000
,
0100
0000
0100
0000
0010
1000
0001
0100
,
0011
0000
1100
0000
,
1001
0000
0000
0000
0000
1000
0000
0000
0011
0000
0000
0000
0000
0000
0000
0000
;

//--------------- dance-single - ----------------
#NOTES:
     dance-single:
     :
     Hard:
     8:
     0,0,0,0,0:
0000
0000
0000
0000
,
0000
0000
0000
0000
,
1001
0000
0000
1000
0000
1000
0000
0010
0001
0000
0001
0000
0100
0000
0000
0000
,
0000
0001
0000
1000
,
0100
1000
0001
0000
0010
0000
0010
0000
,
0001
0000
0000
0001
1000
0000
0000
0000
1000
0000
0000
1000
0001
0000
0000
0000
,
0010
0010
0001
0000
1000
0010
0010
0000
,
1000
0001
0110
0000
,
0010
0000
0001
0000
1000
0000
0000
0000
1001
0000
0000
0001
0000
0001
0000
1000
,
0000
1000
0000
0010
0000
0010
0000
0110
0000
0000
0000
0000
0000
0000
0000
1000
,
0100
0000
0000
0000
0001
0000
0000
0001
0100
0000
0000
0000
1000
0000
0000
0000
,
0010
0000
1000
0000
0001
0000
0001
0000
1000
0000
0000
0010
0100
0000
0100
0000
,
0110
0000
0000
1000
0000
1000
0000
1000
0001
0000
0001
0000
0001
0000
0000
0000
,
1000
0000
0010
1000
0010
0000
0000
0000
0100
0000
0001
0000
0001
0000
1000
0000
,
0100
0000
0000
0000
0110
0000
0000
0000
0010
0000
0000
0001
0100
0000
0000
0000
,
0010
0000
0000
1000
0100
0000
0000
0000
1000
0000
0010
0000
0001
0000
0000
0000
,
1100
0011
0110
0000
,
1000
0100
0001
0000
1001
0000
0000
0000
,
1000
0010
0000
0000
0001
0000
1000
0001
0000
0000
0000
0000
0110
0000
0000
0000
,
0001
0001
0000
1000
0000
0000
1010
0000
1000
0000
0001
0010
0000
0100
0100
0000
,
0010
0000
0001
0000
1000
0000
0000
0000
1100
0000
0000
0110
0000
0000
0000
0011
,
0000
0000
1001
0000
0100
0000
0100
0010
1000
0000
0000
0000
0001
0000
0000
0000
,
1000
1000
0010
0000
0001
0100
0100
0000
,
1001
0100
0110
0010
,
1000
0000
1000
0000
0001
0000
0000
0010
0000
0000
0001
0000
0100
0000
0010
0000
,
1001
0000
1001
0000
1000
0010
0010
0000
,
0100
0000
0001
0000
1000
0000
0010
0000
0010
0000
0000
0000
0000
0000
1000
0001
,
1000
0000
0000
0000
0001
1000
0001
0000
0100
0000
0000
0000
0010
0000
0010
0000
,
1000
0000
1000
0000
0001
0000
0001
0000
0010
0000
0000
0001
1000
0000
0100
0000
,
1100
0000
0000
0000
0001
0010
0001
0000
0101
0000
0000
0000
1000
0010
1000
0000
,
0010
0000
0000
0000
0000
1000
0000
0000
0001
0000
0000
0000
0000
0000
0000
0000
,
1000
1000
1000
0000
0000
0000
0001
0000
,
0000
0000
0000
0000
0001
0000
0000
0000
1000
0010
0011
0000
1100
0010
1001
0000
,
0000
0100
0100
0000
,
0100
0000
0000
0000
0000
0000
0000
0000
0000
0000
1000
0010
0000
0001
0010
0000
,
0100
0000
1000
0000
0001
0000
0000
0110
0000
0000
0100
0010
0000
0000
0000
1000
,
0010
0000
1000
0001
0000
0101
0000
0000
0001
0000
0010
0100
0000
0000
1100
0000
,
1000
0000
0000
0101
0000
0000
1010
0000
0010
0000
0000
0000
1000
0001
0010
0000
,
0110
0000
0000
0001
0000
0010
0000
0100
1000
0000
0010
0000
0010
0000
0000
0000
,
1000
0000
0100
0000
0100
0000
0001
0000
0001
0000
0000
1010
0000
0011
0000
0010
,
0000
0000
0000
0100
0010
0000
0000
0001
1000
0000
0000
1000
0001
0000
0000
0000
,
0001
0000
0010
0000
0001
0000
1000
0000
0100
0000
0100
0000
0010
0100
0010
0000
,
0001
0000
0000
0000
1000
0010
0100
0010
0000
0000
0000
0000
0001
0000
0010
0000
,
1000
0000
0100
0000
0100
0000
0000
0000
1000
0000
1010
0000
1010
0000
0100
0001
,
0000
0000
0000
0011
0000
0101
0000
1001
0000
0000
0000
0000
0000
0000
0000
0000
,
1000
0010
0000
0110
0000
0011
0000
0000
1001
0000
0001
0010
0000
0100
1100
0000
,
0000
0000
0000
0000
0101
0000
0000
0000
1000
0000
0000
0001
0100
0000
0010
1000
,
0000
0001
0100
0000
0010
0000
1001
0000
1001
0000
1100
0000
1100
0000
0000
0010
,
0001
0000
0101
0000
0101
0000
1000
0000
0001
0000
0000
0000
0010
0000
0001
0010
,
0000
0000
0100
0000
0100
0000
1000
0000
1001
0000
1000
0000
0010
0000
0100
0001
,
0010
0001
0000
1000
0000
0100
0000
0100
0000
0000
0110
0000
0010
0000
0001
0000
,
1000
0000
0000
0000
0001
1000
0001
0000
0010
0000
0100
0100
1000
0000
0001
0100
,
0001
0000
0010
0000
1000
0000
0010
0110
0000
0000
0000
0000
1001
0000
0000
1001
,
0000
0000
0000
1010
0000
0011
0000
1001
0000
0000
1000
0000
0100
0000
0001
0000
,
0010
0000
0010
0000
0010
0000
0011
0000
1010
0000
0000
1000
0001
0000
0000
0000
,
0110
0000
0000
0001
1000
0000
0000
0000
1001
0000
0000
0010
0100
0000
0010
0000
,
0100
0000
0000
0001
1000
0010
0000
0000
1001
0000
0000
0000
0000
0000
0000
0000
;
