#TITLE:Eat 'Em Up!;
#SUBTITLE:(2025 8Chasey edit);
#ARTIST:Hiroshi Ohkubo;
#TITLETRANSLIT:;
#SUBTITLETRANSLIT:;
#ARTISTTRANSLIT:;
#GENRE:;
#CREDIT:8Chasey 2025;
#MUSIC:Eat 'Em Up! (2025 8Chasey edit).ogg;
#BANNER:Eat 'Em Up! (2025 8Chasey edit)-bn.png;
#BACKGROUND:Eat 'Em Up! (2025 8Chasey edit)-bg.png;
#CDTITLE:;
#SAMPLESTART:90.000;
#SAMPLELENGTH:12.000;
#SELECTABLE:YES;
#OFFSET:0.000;
#BPMS:0.000=152.000;
#STOPS:;
#BGCHANGES:;
#FGCHANGES:;

//--------------- dance-single - 8Chasey ----------------
#NOTES:
     dance-single:
     8Chasey:
     Beginner:
     1:
     0,0,0,0,0:
0000
0000
0000
0000
,
0000
0000
0000
0000
,
0000
0000
0000
0000
,
0000
0000
0000
0000
,
0000
0000
0000
0000
,
0000
0000
0000
0000
,
0000
0000
0000
0000
,
0000
0000
0000
0000
,
0000
0000
1001
0000
,
1000
0000
0000
0000
,
1000
0000
0000
0000
,
0001
0000
0000
0000
,
0001
0000
0000
0000
,
0100
0000
0000
0000
,
0100
0000
0000
0000
,
0010
0000
0000
0000
,
0010
0000
0000
0000
,
1000
0000
1000
0000
,
0001
0000
0000
0000
,
1000
0000
0001
0000
,
1000
0000
0000
0000
,
0001
0000
0001
0000
,
1000
0000
0000
0000
,
0001
0000
1000
0000
,
0001
0000
0000
0000
,
0100
0000
0000
0000
,
0100
0000
0000
0000
,
0100
0000
0100
0000
,
0100
0000
0000
0000
,
0010
0000
0000
0000
,
0010
0000
0000
0000
,
0010
0000
0010
0000
,
0010
0000
0000
0000
,
1000
0000
0000
0000
,
0001
0000
0000
0000
,
1000
0000
0001
0000
,
1000
0000
0000
0000
,
0001
0000
0000
0000
,
1000
0000
0000
0000
,
0001
0000
1000
0000
,
0001
0000
0000
0000
,
1000
0000
1000
0000
,
1000
0000
0000
0000
,
0001
0000
0001
0000
,
0001
0000
0000
0000
,
0100
0000
0100
0000
,
0100
0000
0010
0000
,
0000
0000
0000
0000
,
0010
0000
0010
0000
,
0010
0000
0000
0000
,
0100
0000
0000
0000
,
0010
0000
0000
0000
,
0000
0000
0000
0000
,
0100
0000
0000
0000
,
0010
0000
0000
0000
,
0100
0000
0000
0000
,
0000
0000
0000
0000
,
1000
0000
0000
0000
,
0010
0000
0000
0000
,
0100
0000
0000
0000
,
0001
0000
1000
0000
,
0001
0000
0000
0000
,
0100
0000
0000
0000
,
0010
0000
0000
0000
,
1000
0000
0001
0000
,
1000
0000
1000
0000
,
1000
1000
1000
0000
,
0001
0000
0001
0000
,
0001
0001
0001
0000
,
0100
0000
0100
0000
,
0010
0000
0010
0000
,
0100
0000
0010
0000
,
0000
0000
1001
1001
,
0000
0000
0000
0000
,
0001
0000
0001
0000
,
1000
0000
0000
0000
,
0001
0000
1000
0000
,
0001
0000
0000
0000
,
1000
0000
1000
0000
,
0001
0000
0000
0000
,
1000
0000
0001
0000
,
1000
0000
0000
0000
;

//--------------- dance-single - 8Chasey ----------------
#NOTES:
     dance-single:
     8Chasey:
     Easy:
     4:
     0,0,0,0,0:
0000
0000
0000
0000
,
0000
0000
0000
0000
,
0000
0000
0000
0000
,
0000
0000
0000
0000
,
0000
0000
0000
0000
,
1000
0001
1000
1000
,
0001
1000
0001
0001
,
1000
0001
1000
0001
,
0000
0000
1001
0000
,
1000
1000
0001
0001
,
1000
0100
0010
0001
,
1000
1000
0001
0001
,
1000
0010
0100
0000
,
0001
0001
1000
1000
,
0001
0010
0100
1000
,
0001
0001
1000
1000
,
0001
0100
0010
0000
,
1000
0000
0001
0000
,
0100
0001
0100
0100
,
0001
0000
1000
0000
,
0010
1000
0010
0010
,
0100
0000
0010
0000
,
1000
0100
1000
1000
,
0010
0000
0100
0000
,
0001
0100
0001
0001
,
1000
0200
0010
0310
,
0001
0000
0200
0000
0020
0030
0310
0000
,
1000
0200
0010
0310
,
0001
1000
0100
1000
,
0001
0020
0100
0130
,
1000
0020
0100
0130
,
0001
0020
0100
0130
,
1000
0001
0000
0000
,
1000
0100
1000
0100
,
1000
0100
1000
0100
,
0010
0010
0001
0001
,
1000
0000
1001
0000
,
0001
0100
0001
0100
,
0001
0100
0001
0100
,
0010
0010
1000
1000
,
0001
0000
1001
0000
,
0100
0100
0001
0001
,
0010
0010
0010
0000
,
0100
0100
1000
1000
,
0010
0010
0010
0000
,
0100
0100
0010
0010
,
0100
0000
0000
0020
0000
0000
0000
0000
,
0000
0000
0000
0000
0000
0030
0000
1001
,
0000
1001
0000
0000
0100
0000
0010
0000
,
1000
0001
1000
1000
,
0001
1000
0001
0001
,
0100
0010
0100
0010
,
0200
0000
0000
0300
,
0001
1000
0001
0001
,
1000
0001
1000
1000
,
0010
0100
0010
0100
,
0010
0000
0000
0000
,
2000
3000
0200
0300
,
0020
0030
0002
0003
,
2000
3000
0020
0030
,
0200
0000
0301
0100
,
0002
0003
0020
0030
,
0200
0300
2000
3000
,
0002
0000
0000
0003
,
1000
0000
0000
0001
0000
0000
1000
0000
,
0010
0010
2000
3000
,
0010
0100
0010
0000
,
0100
0100
0002
0003
,
0200
0000
0000
0300
,
0010
0020
1030
2000
,
3100
0200
0310
0020
,
0031
0002
0103
0200
,
0300
0010
0000
0000
0100
0000
2002
0000
,
0000
0000
3003
0000
,
1000
0200
0010
0310
,
0001
1000
0001
1001
,
0001
0200
0010
0310
,
1000
0001
1000
1001
,
1000
2000
3100
0200
,
0310
0020
0031
0002
,
1003
0100
0010
0001
,
0100
0010
0220
0330
;

//--------------- dance-single - 8Chasey ----------------
#NOTES:
     dance-single:
     8Chasey:
     Medium:
     6:
     0,0,0,0,0:
0000
0000
0000
0000
,
0000
0000
0000
0000
,
0000
0000
0000
0000
,
0000
0000
0000
0000
,
0000
0000
0000
0000
,
0010
1000
0100
0000
0010
0000
0001
0000
,
0010
0001
0100
0000
0010
0000
1000
0000
,
0100
1000
0010
0000
0100
0000
0001
0000
,
1000
0000
2002
3003
,
1000
0100
0010
0000
0001
0000
0010
0000
,
0001
0100
0010
0000
1000
0000
0010
0000
,
1000
0100
0010
0000
0001
0100
0010
0000
,
1000
0000
0000
1000
0000
0000
0100
0000
0000
0001
0000
0000
0001
0000
0000
0000
,
0100
0010
0001
0000
1000
0000
0010
0000
,
0100
0010
1000
0000
0100
0000
0010
0000
,
0001
0010
0100
0000
1000
0010
0100
0000
,
0001
0000
0000
0001
0000
0000
0100
0000
0000
1000
0000
0000
1000
0000
0100
0000
,
0001
0100
1000
0100
,
0001
0100
0001
0000
2000
0000
3001
0000
,
1000
0010
0001
0010
,
1000
0100
1000
0000
0002
0000
1003
0000
,
0010
0000
1000
0000
0001
0100
0001
0000
,
1000
0100
1000
0000
0020
0000
0130
0000
,
0001
0100
1000
0000
1000
0100
0001
0000
,
1000
0001
0220
0330
,
1000
0000
0100
0000
1000
0000
0000
0000
0010
0000
0000
1000
0000
0000
0010
0000
,
0100
0000
0001
0000
1000
0001
1000
0001
,
0100
0010
1001
0010
,
0100
1000
0100
1000
0100
0000
1100
0000
,
0001
0000
0100
0000
0001
0000
0000
0000
0010
0000
0000
0001
0000
0000
0010
0000
,
0100
0000
1000
0000
0001
1000
0001
1000
,
0100
0010
1001
0010
,
0100
0001
0100
0001
0100
0000
0000
0000
,
0001
0001
0001
0000
0010
0000
0100
0000
,
1000
1000
1000
0000
0010
0000
0100
0000
,
0001
0000
1000
0000
0001
0010
0000
0100
,
0000
1000
1000
0000
0010
0010
0000
0000
,
1000
1000
1000
0000
0100
0000
0010
0000
,
0001
0001
0001
0000
0100
0000
0010
0000
,
1000
0000
0001
0000
1000
0010
0000
0100
,
0000
0001
0001
0000
0010
0010
0000
0001
,
2000
0100
0001
3100
,
0010
0001
0100
0001
0000
0000
1000
0000
,
0002
0100
1000
0103
,
0010
1000
0100
1000
0000
0000
0001
0000
,
2000
0100
3002
0100
,
0013
0100
0010
0200
0000
0000
0000
0000
,
0000
0000
0000
0000
0000
0300
0000
1001
,
0000
1001
0000
0010
0100
0001
1000
0000
,
0001
0100
0001
0000
0100
0000
0010
0000
,
1000
0100
1000
0000
0010
0000
0100
0000
,
0001
0010
0001
0000
1000
0000
0010
1000
,
0020
0000
0130
0010
,
1000
0010
1000
0000
0010
0000
0100
0000
,
0001
0010
0001
0000
0100
0000
0010
0000
,
1000
0100
1000
0000
0001
0000
0100
0001
,
0000
0000
0000
0000
,
0020
0000
2030
0000
,
3200
0000
2300
0000
,
3002
0000
0203
0000
,
0320
0000
0100
0100
,
0230
0000
0302
0000
,
2003
0000
3200
0000
,
0320
0000
0000
0030
,
0001
0000
0000
0001
0000
0000
1000
0000
0000
1000
0000
0000
0001
0000
0000
0000
,
1000
0100
0010
0000
0001
0000
0010
0000
,
0001
0100
0010
0000
1000
0000
0010
0000
,
1000
0010
0100
0000
0001
0010
0100
0000
,
0010
0000
0000
0001
0000
0000
0100
0000
0000
0000
0000
0000
0010
0000
0000
0000
,
1000
0100
0010
0000
0001
0000
0010
0000
,
0001
0100
0010
0000
1000
0000
0010
0000
,
1000
0100
0010
0000
0001
0100
0010
0000
,
0000
0000
1000
0000
0000
0001
0000
0000
1000
0000
0000
0000
2002
0000
0000
0000
,
0000
0000
0000
3003
,
1000
0100
0001
0100
,
1000
0100
1000
0000
0002
0000
1003
0000
,
0001
0010
1000
0010
,
0001
0100
0001
0000
2000
0000
3001
0000
,
1000
0100
1000
0000
0001
0000
0010
0000
,
0001
0100
0001
0000
0020
0000
0130
0000
,
1000
0100
0001
0000
0001
0100
1000
0000
,
1000
0100
0010
0100
1000
0001
0100
0010
;

//--------------- dance-single - 8Chasey ----------------
#NOTES:
     dance-single:
     8Chasey:
     Hard:
     8:
     0,0,0,0,0:
0000
0000
0000
0000
,
0000
0000
0000
0000
,
0000
0000
0000
0000
,
0000
0000
0000
0000
,
0000
0000
0000
0000
,
1000
0000
0100
0000
0010
0000
0100
0000
1000
0001
0000
0000
0010
0000
0000
0000
,
0001
0000
0100
0000
0010
0000
0100
0000
0001
1000
0000
0000
0010
0000
0000
0000
,
0100
0000
0010
0000
1000
0000
0100
0000
0010
0100
0000
0000
0010
0000
0000
0000
,
0001
1000
2002
3003
,
1000
0100
0010
0100
1000
0010
0100
0010
,
1000
0100
0010
0100
1000
0001
1000
0001
,
1000
0100
0010
0100
1000
0010
0100
0010
,
1000
0000
0000
0001
0000
0000
1001
0000
0000
0001
0000
0000
1000
0000
0000
0000
,
0001
0100
0010
0100
0001
0010
0100
0010
,
0001
0100
0010
0100
0001
1000
0001
1000
,
0001
0100
0010
0100
0001
0010
0100
0010
,
0001
0000
0000
1000
0000
0000
1001
0000
0000
1000
0000
0000
0001
0000
0000
0000
,
1000
0010
1000
0001
0100
0010
0100
0001
,
1000
1000
0100
1000
0001
0000
1001
0000
,
0001
0010
0001
1000
0100
0010
0100
1000
,
0001
0001
0100
0001
1000
0000
0010
0010
,
0100
0001
0100
0010
1000
0001
1000
0010
,
0100
0000
0000
0001
0000
0000
0010
0000
0000
0100
0000
0000
1000
0000
0000
0000
0001
0000
1000
0000
0001
0000
1000
0000
,
0001
1000
0100
1000
0010
0100
0001
0100
,
0010
1000
0100
0010
0001
0001
1000
1001
,
0001
0000
0010
0000
1000
0000
0010
0000
0001
0100
0000
0001
0000
0000
0000
0000
,
1000
0000
0010
0000
0001
0000
0010
0000
1000
0100
0000
1000
0000
0000
0000
0000
,
0001
0100
1000
0100
0001
0000
1000
0100
,
0001
0100
1000
0001
0100
0010
0110
0000
,
1000
0000
0100
0000
0001
0000
0100
0000
1000
0010
0000
1000
0000
0000
0000
0000
,
0001
0000
0100
0000
1000
0000
0100
0000
0001
0100
0000
0001
0000
0000
0000
0000
,
1000
0010
1000
0100
0010
0000
0001
0010
,
0001
0100
0010
1000
0000
0000
0000
0000
,
0001
0010
0100
0010
0001
0010
0001
0001
,
1000
0100
0010
0100
1000
0100
1000
1000
,
0010
1000
0010
0100
0001
0100
0000
0110
,
0000
0000
0010
0000
1000
0000
0001
0000
0100
0000
0000
0100
0000
0000
0001
0000
,
1000
0010
1000
0100
1000
0010
1000
1000
,
0001
0100
0001
0010
0001
0100
0001
0001
,
0010
0001
0010
0100
1000
0001
0000
1001
,
0000
0001
0001
0000
1000
1000
0000
1000
,
0100
1000
0100
1000
0100
0010
0000
0100
,
0010
0001
0100
0001
0000
0001
1000
1000
,
0010
1000
0010
1000
0010
0100
0000
0100
,
0010
1000
0100
1000
0000
1000
0001
0001
,
0010
0100
0010
0001
1000
0001
0000
0010
,
0100
1000
0100
2000
0000
0000
0000
0000
,
0000
0000
0000
0000
0000
3000
0000
0101
,
0000
1100
0000
1001
0110
1001
0110
0000
,
0010
0000
0010
0000
1000
0000
1000
0000
0010
1000
0000
0001
0000
0001
0000
0000
,
0010
0000
0010
0000
0001
0000
0001
0000
0100
0001
0000
0100
0000
0000
0000
0000
,
0010
0010
0100
0100
0010
0000
1000
0100
,
1000
0000
0001
0000
0100
0000
0001
0000
0010
0000
0000
0110
0000
0000
0100
0000
,
0010
0000
0010
0000
0001
0000
0001
0000
0010
0001
0000
1000
0000
1000
0000
0000
,
0010
0000
0010
0000
1000
0000
1000
0000
0100
1000
0000
0100
0000
0000
0000
0000
,
1000
0001
0100
1000
0100
0001
1000
0001
,
0000
0000
0000
0000
,
0020
0000
0230
0000
,
2300
0000
0000
0000
3002
0000
0103
0001
,
0200
0000
0320
0000
,
2030
0000
0000
0000
0000
0000
0000
0000
3010
0000
0100
0000
0010
0100
0000
0000
,
0020
0000
0230
0000
,
0302
0000
0000
0000
2003
0000
3100
1000
,
0200
1000
0010
1300
,
1100
0000
0000
1100
0000
0000
0101
0000
0000
0101
0000
0000
1001
0000
0000
0000
,
1000
0000
0100
0000
0010
0000
0100
0000
1000
0001
0000
0100
0000
0000
0000
0000
,
0001
0000
0100
0000
0010
0000
0100
0000
0001
1000
0000
0100
0000
0000
0000
0000
,
1000
0000
0100
0000
0001
0000
0100
0000
1000
0010
0000
1000
0000
0000
0000
0000
,
0010
0000
0000
0010
0000
0000
0200
0000
0000
0000
0000
0000
0310
0000
0100
0000
,
0001
0000
0010
0000
0100
0000
0010
0000
0001
0100
0000
0010
0000
0000
0000
0000
,
1000
0000
0010
0000
0100
0000
0010
0000
1000
0100
0000
0010
0000
0000
0000
0000
,
0001
0000
0010
0000
1000
0000
0010
0000
0001
0100
0000
0001
0000
0000
1000
0000
,
0001
0000
1000
0000
0000
0100
0000
0000
0001
0000
0000
0000
0200
0000
0010
0000
,
0000
0010
0000
0010
0000
0010
0000
0310
,
0001
0010
0001
1000
0100
0010
0100
1000
,
0001
0001
0100
0001
1000
0000
1001
0000
,
1000
0010
1000
0001
0100
0010
0100
0001
,
1000
1000
0100
1000
0001
0000
0010
0010
,
0100
1000
0010
0100
0001
0010
0100
0010
,
0100
0000
0000
1000
0000
0000
0010
0000
0000
0100
0000
0000
0001
0000
0000
0000
0100
0000
0010
0000
0100
0000
0010
0000
,
1000
0100
0001
1000
0010
0001
1000
0100
,
0001
1000
0010
0001
1000
0010
0100
0101
;

//--------------- dance-single - 8Chasey ----------------
#NOTES:
     dance-single:
     8Chasey:
     Challenge:
     6:
     0,0,0,0,0:
0000
0000
0000
0000
,
0000
0000
0000
0000
,
0000
0000
0000
0000
,
0000
0000
0000
0000
,
0000
0000
0000
0000
,
0010
1000
0100
0000
MMMM
0000
0001
0000
,
0010
0001
0100
0000
MMMM
0000
1000
0000
,
0100
1000
0010
0000
MMMM
0000
0001
0000
,
1000
MMMM
2002
3003
,
1000
0100
0010
0000
0001
0000
MMMM
0000
,
0001
0100
0010
0000
1000
0000
MMMM
0000
,
1000
0100
0010
0000
0001
0100
0010
0000
,
1000
0000
0000
1000
0000
0000
MMMM
0000
0000
0001
0000
0000
0001
0000
0000
0000
,
0100
0010
0001
0000
MMMM
0000
0010
0000
,
0100
0010
1000
0000
MMMM
0000
0010
0000
,
0001
0010
0100
0000
1000
0010
0100
0000
,
0001
0000
0000
0001
0000
0000
MMMM
0000
0000
1000
0000
0000
1000
0000
0100
0000
,
0001
0100
1000
0100
,
0001
0100
0001
0000
2000
0000
3001
0000
,
1000
0010
0001
0010
,
1000
0100
1000
0000
0002
0000
1003
0000
,
0010
0000
MMMM
0000
0001
0100
0001
0000
,
1000
0100
1000
0000
0020
0000
0130
0000
,
0001
0100
1000
MMMM
1000
0100
0001
MMMM
,
1000
0001
0220
0330
,
1000
0000
0100
0000
1000
0000
0000
0000
0010
0000
0000
MMMM
0000
0000
0010
0000
,
0100
0000
0001
0000
1000
0001
1000
0001
,
0100
MMMM
1001
0010
,
0100
1000
0100
1000
0100
0000
1100
0000
,
0001
0000
0100
0000
0001
0000
0000
0000
0010
0000
0000
MMMM
0000
0000
0010
0000
,
0100
0000
1000
0000
0001
1000
0001
1000
,
0100
MMMM
1001
0010
,
0100
0001
0100
0001
0100
0000
MMMM
0000
,
0001
0001
0001
0000
0010
0000
MMMM
0000
,
1000
1000
1000
0000
0010
0000
MMMM
0000
,
0001
0000
1000
0000
0001
0010
0000
0100
,
0000
1000
1000
0000
0010
0010
0000
MMMM
,
1000
1000
1000
0000
0100
0000
MMMM
0000
,
0001
0001
0001
0000
0100
0000
MMMM
0000
,
1000
0000
0001
0000
1000
0010
0000
0100
,
0000
0001
0001
0000
0010
0010
0000
0001
,
2000
0100
0001
3100
,
0010
0001
0100
0001
0000
MMMM
1000
0000
,
0002
0100
1000
0103
,
0010
1000
0100
1000
0000
MMMM
0001
0000
,
2000
0100
3002
0100
,
0013
0100
0010
0200
0000
0000
0000
0000
,
0000
0000
0000
0000
0000
0300
0000
1001
,
0000
1001
0000
0010
0100
0001
1000
0000
,
0001
0100
0001
0000
MMMM
0000
0010
0000
,
1000
0100
1000
0000
MMMM
0000
0100
0000
,
0001
0010
0001
0000
1000
0000
0010
1000
,
0020
0000
0130
MMMM
,
1000
0010
1000
0000
MMMM
0000
0100
0000
,
0001
0010
0001
0000
MMMM
0000
0010
0000
,
1000
0100
1000
0000
0001
0000
0100
0001
,
0000
MMMM
0000
MMMM
0000
MMMM
0000
MMMM
,
0020
0000
2030
0000
,
3200
0000
2300
0000
,
3002
0000
0203
0000
,
0320
0000
0100
0100
,
0230
0000
0302
0000
,
2003
0000
3200
0000
,
0320
0000
0000
0030
,
0001
0000
0000
0001
0000
0000
1000
0000
0000
1000
0000
0000
MMMM
0000
0000
0000
,
1000
0100
0010
0000
0001
0000
MMMM
0000
,
0001
0100
0010
0000
1000
0000
MMMM
0000
,
1000
0010
0100
0000
0001
0010
0100
0000
,
0010
0000
0000
0001
0000
0000
0100
0000
0000
MMMM
0000
0000
0010
0000
0000
0000
,
1000
0100
0010
0000
0001
0000
MMMM
0000
,
0001
0100
0010
0000
1000
0000
MMMM
0000
,
1000
0100
0010
0000
0001
0100
0010
0000
,
0000
0000
1000
0000
0000
0001
0000
0000
1000
0000
0000
0000
2002
0000
0000
0000
,
0000
0000
0000
3003
,
1000
0100
0001
0100
,
1000
0100
1000
0000
0002
0000
1003
0000
,
0001
0010
1000
0010
,
0001
0100
0001
0000
2000
0000
3001
0000
,
1000
0100
1000
0000
0001
0000
MMMM
0000
,
0001
0100
0001
0000
0020
0000
0130
0000
,
1000
0100
0001
MMMM
0001
0100
1000
MMMM
,
1000
0100
0010
0100
1000
0001
MMMM
0010
;
