#TITLE:Dynamite;
#SUBTITLE:;
#ARTIST:Taio Cruz;
#TITLETRANSLIT:;
#SUBTITLETRANSLIT:;
#ARTISTTRANSLIT:;
#GENRE:;
#CREDIT:;
#BANNER:Banner_Missing.png;
#BACKGROUND:;
#LYRICSPATH:;
#CDTITLE:;
#MUSIC:Dynamite - Taio Cruz.ogg;
#OFFSET:-0.050000;
#SAMPLESTART:47.250000;
#SAMPLELENGTH:15.000000;
#SELECTABLE:YES;
#BPMS:0.000000=120.000000
;
#STOPS:
;
#BGCHANGES:;
#KEYSOUNDS:;
#ATTACKS:;

//---------------dance-single - ----------------
#NOTES:
     dance-single:
     :
     Hard:
     4:
     0.269538,0.290702,0.153736,0.000000,0.027952,135.000000,124.000000,11.000000,0.000000,0.000000,0.000000,0.269538,0.290702,0.153736,0.000000,0.027952,135.000000,124.000000,11.000000,0.000000,0.000000,0.000000:
0000
0000
0000
0000
,
0000
0000
0000
0000
,
0000
0000
0000
0000
,
0000
0000
0000
0000
,
0001
1001
1000
0010
,
0000
0100
0001
0100
0010
0000
1000
0000
,
0001
0101
1000
1100
,
0000
0010
0100
0000
0001
0000
1000
0000
,
0010
0010
1001
0010
,
0000
0100
0000
0001
1000
0000
0001
0000
,
0100
1001
0010
0010
,
0000
1000
0100
0000
1000
0100
0010
0000
,
1000
0000
0001
1000
0000
0001
0010
0000
,
0100
0000
0001
0000
0000
1000
0001
0000
,
0010
0000
0001
0100
0000
0010
1000
0000
,
0000
0000
0110
0000
0000
0001
1000
0000
,
0001
0000
0000
0001
0000
0000
0001
0000
0000
0000
1000
0000
0000
0000
0000
0000
,
1000
0000
0000
1000
0000
0000
1000
0000
0000
0000
0001
0000
0000
0000
0000
0000
,
0010
0000
0000
0010
0000
0000
0010
0000
0000
0000
0100
0000
0000
0000
0000
0000
,
0100
0000
0000
0100
0000
0000
0100
0000
0000
0000
0010
0000
0000
0000
0000
0000
,
0001
0000
0100
0000
0010
1000
0001
0000
,
0100
0000
0000
1001
0000
0000
0100
0000
,
0010
0000
0010
0100
0000
0100
0010
0000
,
0100
0000
0100
0010
0000
1000
0001
1000
,
0010
0000
0001
0010
0001
0000
1000
0100
,
0010
0100
0101
0100
,
0010
1000
0000
0001
0000
0100
0001
0000
,
0010
0000
0000
0110
0000
0000
1001
0000
,
0100
0001
1000
0001
0000
0000
0010
0100
,
0001
0000
1000
0100
0000
1000
0100
0000
,
0001
0100
0000
0010
1000
0001
1000
0000
,
0010
0000
0000
1001
0000
0000
0000
0000
,
0001
0000
0000
0000
;

//---------------dance-single - ----------------
#NOTES:
     dance-single:
     :
     Medium:
     2:
     0.179692,0.245978,0.055904,0.000000,0.000000,90.000000,86.000000,4.000000,0.000000,0.000000,0.000000,0.179692,0.245978,0.055904,0.000000,0.000000,90.000000,86.000000,4.000000,0.000000,0.000000,0.000000:
0000
0000
0000
0000
,
0000
0000
0000
0000
,
0000
0000
0000
0000
,
0000
0000
0000
0000
,
0001
0001
0001
0001
,
0000
1000
0100
1000
0100
0000
0000
0000
,
1000
1000
1000
1000
,
0000
0001
0100
0001
0100
0000
0000
0000
,
0010
0010
0010
0010
,
0000
0100
0110
0000
,
0100
0100
0100
0100
,
0000
0010
0000
1000
0000
0001
0000
0000
,
0010
0000
0000
1000
0000
0000
0001
0000
,
0000
0000
0000
0000
,
0010
0000
0000
0001
0000
0000
1000
0000
,
0000
0000
0000
0000
,
0001
0000
0000
0001
0000
0000
0000
0000
,
1000
0000
0000
1000
0000
0000
0000
0000
,
0010
0000
0000
0010
0000
0000
0000
0000
,
0100
0000
0000
0100
0000
0000
0000
0000
,
0001
0100
0001
0100
,
0010
1000
0010
0000
,
1000
0100
1000
0100
,
0010
0001
0010
0000
,
0001
0000
0100
0010
0000
0000
0110
0000
,
1000
0000
0100
0010
0000
0000
1001
0000
,
0001
0000
1000
0000
,
0010
0000
0000
0010
0000
0000
0000
0000
,
0100
0001
0000
0010
0100
1000
0100
0000
,
1000
0000
0001
0010
0000
0000
0100
0000
,
0100
1000
0000
0001
0000
0000
0100
0000
,
0010
0000
0000
0010
0000
0000
0000
0000
,
1001
0000
0000
0000
;

//---------------dance-single - ----------------
#NOTES:
     dance-single:
     :
     Easy:
     1:
     0.127781,0.178893,0.027952,0.000000,0.000000,64.000000,62.000000,2.000000,0.000000,0.000000,0.000000,0.127781,0.178893,0.027952,0.000000,0.000000,64.000000,62.000000,2.000000,0.000000,0.000000,0.000000:
0000
0000
0000
0000
,
0000
0000
0000
0000
,
0000
0000
0000
0000
,
0000
0000
0000
0000
,
0001
0001
0001
0001
,
0000
0000
0000
0000
,
0001
0001
0001
0001
,
0000
0000
0000
0000
,
1000
1000
1000
1000
,
0000
0000
0000
0000
,
1000
1000
1000
1000
,
0000
0000
0000
0000
,
0010
0100
0001
0001
,
0000
0000
0000
0000
,
0010
0100
1000
1000
,
0000
0000
0000
0000
,
0010
0000
0000
0010
0000
0000
0000
0000
,
0100
0000
0000
0100
0000
0000
0000
0000
,
0001
0000
0000
0000
,
1000
0000
0000
0000
,
0010
0010
0010
0000
,
0100
0001
1000
0000
,
0100
1000
0001
0000
,
0010
0010
0010
0000
,
1000
0001
1000
0000
,
0010
0010
0010
0000
,
0100
0000
0100
0000
,
0010
0000
0000
0000
,
0001
1000
0001
0000
,
0100
0001
1000
0000
,
0010
0010
0100
0000
,
1001
0000
0000
0000
,
1001
0000
0000
0000
;

//---------------dance-single - ----------------
#NOTES:
     dance-single:
     :
     Beginner:
     1:
     0.071877,0.111808,0.013976,0.000000,0.000000,36.000000,35.000000,1.000000,0.000000,0.000000,0.000000,0.071877,0.111808,0.013976,0.000000,0.000000,36.000000,35.000000,1.000000,0.000000,0.000000,0.000000:
0000
0000
0000
0000
,
0000
0000
0000
0000
,
0000
0000
0000
0000
,
0000
0000
0000
0000
,
0010
0010
0010
0010
,
0000
0000
0000
0000
,
0010
0010
0010
0010
,
0000
0000
0000
0000
,
0100
0100
0100
0100
,
0000
0000
0000
0000
,
0100
0100
0100
0100
,
0000
0000
0000
0000
,
0001
0000
0000
0000
,
0000
0000
0000
0000
,
1000
0000
0000
0000
,
0000
0000
0000
0000
,
0010
0000
0000
0000
,
0010
0000
0000
0000
,
0100
0000
0100
0000
,
0100
0000
0000
0000
,
0010
0000
0000
0000
,
0010
0000
0000
0000
,
0100
0000
0100
0000
,
0100
0000
0000
0000
,
0001
0000
0000
0000
,
1000
0000
0000
0000
,
0010
0000
0000
0000
,
0000
0000
0000
0000
,
1000
0000
0000
0000
,
0001
0000
0000
0000
,
0010
0000
0000
0000
,
0000
0000
0000
0000
,
1001
0000
0000
0000
;

//---------------dance-double - ----------------
#NOTES:
     dance-double:
     :
     Easy:
     2:
     0.127781,0.178893,0.027952,0.000000,0.000000,64.000000,62.000000,2.000000,0.000000,0.000000,0.000000,0.127781,0.178893,0.027952,0.000000,0.000000,64.000000,62.000000,2.000000,0.000000,0.000000,0.000000:
// measure 0
00000000
00000000
00000000
00000000
,  // measure 1
00000000
00000000
00000000
00000000
,  // measure 2
00000000
00000000
00000000
00000000
,  // measure 3
00000000
00000000
00000000
00000000
,  // measure 4
00010000
00010000
00010000
00010000
,  // measure 5
00000000
00000000
00000000
00000000
,  // measure 6
00010000
00010000
00010000
00010000
,  // measure 7
00000000
00000000
00000000
00000000
,  // measure 8
00001000
00001000
00001000
00001000
,  // measure 9
00000000
00000000
00000000
00000000
,  // measure 10
00001000
00001000
00001000
00001000
,  // measure 11
00000000
00000000
00000000
00000000
,  // measure 12
00100000
01000000
00010000
00010000
,  // measure 13
00000000
00000000
00000000
00000000
,  // measure 14
00000010
00000100
00001000
00001000
,  // measure 15
00000000
00000000
00000000
00000000
,  // measure 16
00100000
00000000
00000000
00100000
00000000
00000000
00000000
00000000
,  // measure 17
01000000
00000000
00000000
01000000
00000000
00000000
00000000
00000000
,  // measure 18
00010000
00000000
00000000
00000000
,  // measure 19
00001000
00000000
00000000
00000000
,  // measure 20
00000010
00000010
00000010
00000000
,  // measure 21
00000100
00001000
00010000
00000000
,  // measure 22
01000000
10000000
00010000
00000000
,  // measure 23
00100000
00100000
00100000
00000000
,  // measure 24
00001000
00010000
00001000
00000000
,  // measure 25
00100000
00100000
00100000
00000000
,  // measure 26
01000000
00000000
01000000
00000000
,  // measure 27
00100000
00000000
00000000
00000000
,  // measure 28
00001000
00010000
00001000
00000000
,  // measure 29
00000100
00000001
00001000
00000000
,  // measure 30
00000010
00000010
00000100
00000000
,  // measure 31
00001001
00000000
00000000
00000000
,  // measure 32
00011000
00000000
00000000
00000000
;
