#TITLE:Downtown;
#SUBTITLE:;
#ARTIST:PersonFromBrazil;
#TITLETRANSLIT:;
#SUBTITLETRANSLIT:;
#ARTISTTRANSLIT:;
#GENRE:;
#CREDIT:8Chasey 2025;
#MUSIC:Downtown.ogg;
#BANNER:Downtown-bn.png;
#BACKGROUND:Downtown-bg.png;
#CDTITLE:;
#SAMPLESTART:186.855;
#SAMPLELENGTH:12.000;
#SELECTABLE:YES;
#OFFSET:0.000;
#BPMS:0.000=140.000;
#STOPS:;
#BGCHANGES:;
#FGCHANGES:;

//--------------- dance-single - 8Chasey ----------------
#NOTES:
     dance-single:
     8Chasey:
     Beginner:
     1:
     0,0,0,0,0:
0000
0000
0000
0000
,
0000
0000
0000
0000
,
0000
0000
0000
0000
,
0000
0000
0000
0000
,
0000
0000
0000
0000
,
0001
0000
0000
0000
,
0001
0000
0000
0000
,
1000
0000
0000
0000
,
0000
0000
0010
0000
,
1000
0000
0000
0000
,
1000
0000
0000
0000
,
0001
0000
0000
0000
,
0000
0000
0100
0000
,
0010
0000
0000
0000
,
0010
0000
0000
0000
,
0100
0000
0100
0000
,
0100
0000
0000
0000
,
0010
0000
0000
0000
,
0010
0000
0000
0000
,
0100
0000
0000
0000
,
0000
0000
0010
0000
,
1000
0000
0000
0000
,
0001
0001
0001
0000
,
1000
0000
0000
0000
,
0001
0000
1000
0000
,
0001
0000
0000
0000
,
1000
1000
1000
0000
,
0001
0000
0000
0000
,
1000
0000
0001
0000
,
0100
0000
0000
0000
,
0010
0000
0100
0000
,
0010
0000
0000
0000
,
1000
0000
1000
0000
,
0010
0000
0000
0000
,
0100
0000
0010
0000
,
0100
0000
0000
0000
,
0001
0001
0001
0000
,
1000
0000
0000
0000
,
0001
0000
0000
0000
,
0100
0000
0000
0000
,
0010
0000
0000
0000
,
0100
0000
0000
0000
,
0000
0000
0000
0000
,
0010
0000
0000
0000
,
0100
0000
0100
0000
,
1001
0000
0000
0000
,
1000
0000
0001
0000
,
1000
0000
0000
0000
,
0010
0000
0000
0000
,
1000
0000
0000
0000
,
0001
0000
1000
0000
,
0001
0000
0001
0000
,
0001
0000
0001
0000
,
1000
1000
0000
0000
,
0000
0000
0000
0000
,
1000
1000
0000
0000
,
0000
0000
0000
0000
,
0001
0001
0000
0000
,
0000
0000
0000
0000
,
0001
0001
0000
0000
,
0000
0000
0000
0000
,
0100
0000
0010
0000
,
0000
0000
0100
0000
,
0110
0000
0000
0000
,
0000
0000
0000
0000
,
0010
0000
0100
0000
,
0000
0000
0010
0000
,
1000
1000
1000
1000
,
0000
0000
0000
0000
,
0001
0000
1000
0000
,
0001
0000
0001
0000
,
1000
1000
0000
0000
,
0000
0000
0000
0000
,
1000
0000
0001
0000
,
1000
0000
1000
0000
,
0001
0001
0001
0001
,
0000
0000
1001
0000
,
1000
0000
0000
0000
,
0010
0000
0000
0000
,
1000
0000
1000
0000
,
1000
0000
1000
0000
,
0001
0000
0000
0000
,
0100
0000
0000
0000
,
0001
0000
0001
0000
,
0001
0000
0001
0000
,
1000
0000
0000
0000
,
0010
0000
0010
0000
,
1000
0000
0000
0000
,
0001
0000
1000
0000
,
0001
0000
0000
0000
,
0100
0000
0100
0000
,
0001
0000
0000
0000
,
1000
0000
0001
0000
,
1001
0000
0000
0000
,
0010
0000
0000
0000
,
0010
0000
0000
0000
,
0100
0000
0010
0000
,
0100
0000
0000
0000
,
0010
0000
0000
0000
,
1000
0000
0001
0000
,
1000
0000
0001
0000
,
1000
0000
0000
0000
,
0000
0000
0000
0000
,
0001
0000
1000
0000
,
0001
0000
1000
0000
,
0001
0000
0000
0000
,
0000
0000
0000
0000
,
1000
0000
0000
0000
,
0010
0010
0010
0000
,
0000
0000
1000
0000
,
0000
0000
1000
0000
,
0001
0000
0000
0000
,
1000
0000
0000
0000
,
0000
0000
0001
0000
,
0000
0000
1000
0000
,
0001
0000
0000
0000
,
1000
0000
0000
0000
,
1001
0000
0000
0000
,
0001
0000
0000
0000
,
1000
0000
0000
0000
,
0010
0010
0010
0000
,
0100
0000
0000
0000
,
1000
0000
0000
0000
,
0001
0000
0000
0000
,
0100
0100
0100
0000
,
0110
0000
0000
0000
,
0010
0000
0000
0000
,
0100
0000
0010
0000
,
0100
0000
0010
0000
,
1000
0000
0000
0000
,
0001
0000
0000
0000
,
1000
0000
0001
0000
,
1000
0000
0001
0000
,
1000
0000
0000
0000
;

//--------------- dance-single - 8Chasey ----------------
#NOTES:
     dance-single:
     8Chasey:
     Easy:
     3:
     0,0,0,0,0:
0000
0000
0000
0000
,
0000
0000
0000
0000
,
0000
0000
0000
0000
,
0000
0000
0000
0000
,
0000
0000
0000
0000
,
0002
0000
1003
0000
,
0010
1000
0010
0000
,
2000
0000
3100
0000
,
0000
0010
0100
0000
,
0020
0000
0130
0000
,
1000
0001
1000
0000
,
0200
0000
0310
0000
,
0000
0001
1000
0000
,
1001
0000
0001
0000
,
0100
0001
0010
0000
,
0001
0001
1000
1000
,
0001
1000
0001
0000
,
0110
0000
0100
0000
,
0010
1000
0100
0000
,
1000
1000
0001
0001
,
1000
0001
1000
0000
,
0001
0000
0010
0000
,
0001
0001
0100
0000
,
0010
0000
1000
0000
,
0001
1000
0001
0000
,
1000
0000
0010
0000
,
1000
1000
0100
0000
,
0010
0000
0100
0000
,
1000
0001
1000
0000
,
0001
0000
0010
0001
,
0010
0000
0002
0000
,
0103
0000
0010
0000
,
1000
0000
0001
0000
,
1000
0000
0010
1000
,
0010
0000
2000
0000
,
3100
0000
0010
0000
,
0001
1000
0001
1000
,
0001
0000
0020
0000
,
0130
0000
1000
0000
,
0002
0000
0000
0003
,
2000
0000
0000
3000
,
0010
0000
1000
0000
,
0010
0100
0010
0000
,
2000
0000
0000
3000
,
0002
0000
1003
0000
,
1001
0000
0001
1000
,
0000
0000
0010
0000
0000
0010
0000
0000
,
0020
0000
0000
0030
,
0100
0010
0100
0000
,
0010
0000
1000
0001
,
0000
0000
0100
0000
0000
0100
0000
0000
,
0200
0000
0000
0300
,
0010
0000
0100
0000
,
0001
0000
1000
0010
,
1000
0000
0010
0000
,
0200
0000
0310
0000
,
1000
0001
1000
0000
,
0001
0000
0100
0001
,
0100
0000
0010
0000
,
1000
0000
0020
0000
,
0000
0000
0030
0000
,
0100
0100
0001
0000
,
1000
0001
1000
0000
,
2002
0000
3003
0000
,
0001
0100
0001
0000
,
0010
0000
0100
0010
,
0100
0000
1000
0000
,
0010
0010
0100
0100
,
0020
0000
0030
0000
,
0100
0010
0100
0000
,
0001
0000
1000
0001
,
2000
3000
0020
0030
,
0200
0300
0002
0003
,
1000
1000
0001
0000
,
0100
0001
0100
0000
,
0001
0000
1000
0000
,
0001
1000
0001
1000
,
1001
0000
0001
0000
,
0020
0000
0000
0030
,
0100
0000
0010
0000
,
0100
0010
0100
0000
,
1000
0000
1000
0000
,
0200
0000
0000
0300
,
0010
0000
0100
0000
,
0010
0100
0010
0000
,
0001
0000
0100
0000
,
0001
1000
0001
0000
,
1000
0000
0010
0000
,
1000
0001
1000
0000
,
0010
0000
0100
0000
,
0001
0100
0001
0000
,
0010
0000
0100
0000
,
1000
0100
1000
0000
,
1001
0000
0001
0100
,
0001
0000
1000
0100
,
1000
0000
0010
0100
,
0010
0000
0100
0010
,
0100
0000
0010
0000
,
1000
0010
1000
0000
,
0001
0000
1000
0000
,
0020
0030
0020
0030
,
0200
0000
0300
0000
,
0002
0000
0003
0000
,
2000
0000
0000
0000
,
3000
0000
0000
0000
,
0020
0000
0030
0000
,
2000
0000
3000
0000
,
0002
0000
0000
0003
,
0100
0100
0010
0000
,
0100
0000
0001
0000
,
1000
1000
0001
0000
,
0020
0000
0130
0000
,
0200
0000
0310
0000
,
0100
0000
1000
0000
,
0001
0001
1000
0000
,
0200
0000
0310
0000
,
0020
0000
0130
0000
,
1001
0000
1000
0000
,
0001
0100
0001
0000
,
2000
0000
3010
0000
,
0100
0010
0100
0000
,
0110
0000
0010
0000
,
1000
0010
1000
0000
,
0002
0000
0103
0000
,
0001
1000
0001
0000
,
1001
0000
1000
0100
,
1000
1000
0100
0000
,
0020
0000
0031
0000
,
0100
0001
0100
0000
,
0110
0000
0010
0100
,
0001
0001
1000
0000
,
0020
0000
1030
0000
,
0001
1000
0001
1000
,
0002
0000
0000
0003
;

//--------------- dance-single - 8Chasey ----------------
#NOTES:
     dance-single:
     8Chasey:
     Medium:
     6:
     0,0,0,0,0:
0000
0000
0000
0000
,
0000
0000
0000
0000
,
0000
0000
0000
0000
,
0000
0000
0000
0000
,
0000
0000
0000
0000
,
0020
0000
1030
0100
,
2000
0010
3001
0010
,
0002
0000
0103
0010
,
0100
0010
0100
0000
0001
0000
0000
0000
,
0020
0000
0031
0100
,
0002
0010
1003
0010
,
2000
0000
3100
0010
,
0100
0010
0100
0000
0110
0000
0010
0000
,
1001
0000
0000
0001
0100
0000
0001
0010
,
0000
0001
1000
0000
0010
0000
1000
0000
,
0100
1000
0100
0000
1000
0100
1000
0000
,
0010
1000
0010
0000
0100
0000
0001
0000
,
1001
0000
0000
1000
0100
0000
1000
0001
,
0000
0100
0010
0000
1000
0000
0100
0000
,
0020
0000
0000
0000
,
0000
0000
0000
0000
0200
0000
0330
1000
,
1000
0000
0001
0000
0000
0010
0001
0000
,
0100
0001
1001
0000
,
1000
0000
0100
0000
0001
0000
0100
0010
,
0000
0100
0010
0000
0110
0000
0000
0000
,
0001
0000
0100
0000
0010
1000
0010
0000
,
1000
0001
1001
0000
,
0001
0000
0010
0000
0001
0000
1000
0001
,
0000
1000
0010
0000
0101
0000
0001
0000
,
1000
0000
0010
1000
0010
0000
1000
0000
,
0100
0010
0220
0330
,
0001
0000
0100
0001
0100
0000
0010
0000
,
1000
0100
1000
0000
2002
0000
3003
0000
,
0001
0000
1000
0100
0001
0000
0100
1000
,
0000
0010
1000
0000
2200
0000
3300
0000
,
0100
0010
0100
0000
0010
0000
0000
0000
,
0001
1000
1010
0010
,
0011
0000
0002
0000
,
2003
0000
0000
0000
3010
0000
0000
0100
,
0020
0000
0230
0000
,
0320
0000
0130
0000
,
0101
0001
0000
0010
,
0001
0100
0001
0000
1000
0000
0100
0000
,
2000
0000
0010
0000
3010
0000
1000
0001
,
1000
0001
1001
0000
,
0110
0000
0000
0100
0010
0000
1000
0100
,
0000
1000
0001
0000
0010
0001
0010
0000
,
0110
0000
0100
0000
1000
0000
0001
1000
,
0000
1000
0001
0000
0100
0010
0100
0000
,
0002
0010
0013
0001
,
1000
0001
1000
0000
0001
1000
0001
0000
,
0010
0100
0000
0000
0100
0010
0000
0000
,
0010
0100
0000
0000
1000
0001
1000
0000
,
0001
0002
0013
0110
,
0100
0000
2000
0000
3001
0000
0100
0001
,
0200
0001
0001
0301
,
0010
0001
1000
0010
,
1000
2000
3100
0110
,
0010
0000
0002
0000
1003
0000
0100
1000
,
0200
1000
2000
0000
,
0000
0000
3300
0100
,
0010
0001
0101
0100
,
0010
1000
1100
0100
,
0220
0330
0010
0010
,
0002
0103
1010
1000
,
0001
0100
0100
0001
,
1000
0010
0010
0200
,
0001
0001
1000
1000
,
0320
0000
0030
0100
,
0001
1000
1001
0001
,
0000
0000
0100
0000
0010
0100
0010
0000
,
1000
0000
1000
0000
0100
0000
1000
1000
,
0000
0001
0010
0002
,
0100
0000
0103
0000
0010
0000
1000
0100
,
0000
1000
0001
0000
0100
0000
0001
0000
,
0010
0010
0100
0100
,
1000
0001
1000
0001
,
1001
0000
0000
0000
0001
0100
0001
0000
,
0020
0000
0130
0000
1000
0100
0000
1000
,
0002
0000
0203
0000
,
0320
0000
0000
0000
1030
0000
0100
1000
,
0100
1000
0010
0100
,
0001
0000
0010
0000
0100
0000
0000
0010
,
0200
0000
0320
0000
,
0031
1000
0010
0110
,
0100
0010
0100
0000
0001
0000
1000
0100
,
1000
0001
2002
3003
,
1000
0000
0001
0010
0001
0000
0100
0010
,
0100
0010
0220
0330
,
0100
0001
0100
0000
0001
0000
0010
0000
,
0100
1000
0100
0000
2200
0000
3300
0000
,
1000
0000
0010
0000
0100
0100
0001
0000
,
2000
0000
3002
0000
0103
0000
0010
0100
,
0010
0000
1000
0000
0100
1000
0100
0000
,
1000
0000
0001
0000
0100
0001
0100
0000
,
0001
0000
0010
0000
0100
0010
0100
0000
,
0010
0000
0001
0010
1000
0000
0010
0000
,
0100
0000
0000
0010
0100
0000
0010
0000
,
0001
0100
2020
3030
,
1000
0000
0100
1000
0100
0000
1000
0000
,
0001
0100
0000
0000
0001
0010
0000
0000
,
0200
0000
0000
0000
1300
0000
0010
1000
,
0010
0000
0100
0001
,
0020
0000
0032
0000
,
2003
0000
3100
0010
,
0100
0000
0000
0000
1000
0001
1000
0000
,
0002
0000
0000
0000
0103
0010
0100
0000
,
0020
0000
0000
0030
,
1000
0001
2002
3003
,
0001
0010
0001
0000
,
2000
0000
0000
0000
3100
0000
0000
1000
,
0100
0000
0000
1000
0001
0000
0100
0000
,
0001
1000
0020
0000
,
1030
0000
0000
0100
1000
0000
0000
0001
,
0100
0000
0000
0001
0010
0000
0000
0100
,
0010
0000
0000
0010
0100
0000
0000
1000
,
0100
1000
0001
0000
,
1001
0000
0000
0001
0100
0000
0000
0001
,
1000
0001
1000
0000
0010
0000
0000
1000
,
0010
0100
0010
0100
,
0001
0100
0001
0000
1000
0000
0100
0000
,
0110
0000
0010
0000
0001
0000
0000
1000
,
0001
1000
0001
0000
0100
0000
0000
0001
,
0010
0100
0010
0100
,
1100
1010
0101
0011
,
1001
0000
0000
0001
0100
0000
0001
0010
,
0001
0000
1000
0000
1010
0000
0010
0100
,
0010
0000
1000
0100
1000
0000
0001
0100
,
0000
0001
0010
0000
0100
0000
0100
0000
,
0110
0000
0000
0010
0001
0000
0100
0001
,
0100
0000
0001
0000
0011
0000
0010
0100
,
0010
0000
0100
1000
0100
0000
1000
0000
,
0010
1000
0010
0000
0100
0000
0001
0000
,
2000
0000
0000
3000
;

//--------------- dance-single - 8Chasey ----------------
#NOTES:
     dance-single:
     8Chasey:
     Hard:
     8:
     0,0,0,0,0:
0000
0000
0000
0000
,
0000
0000
0000
0000
,
0000
0000
0000
0000
,
0000
0000
0000
0000
,
0000
0000
0000
0000
,
0200
0000
0000
0001
0310
0000
0001
1000
,
0002
0000
0100
0000
1003
0000
1000
0010
,
2000
0000
0000
0010
3001
0000
1000
0010
,
2000
0000
0100
0000
3001
0000
0010
0001
,
0010
0000
0001
0100
0010
0000
1000
0010
,
2000
0000
0010
0000
3001
0000
0010
0001
,
0010
0000
0001
0100
1000
0000
0100
0001
,
0200
0000
0000
0000
0310
0000
1000
0001
,
1001
0000
0000
0001
0100
0000
0001
1000
,
0001
0000
0000
0000
0010
0001
0000
0000
0011
0000
0000
0000
0001
0000
1000
0000
,
0010
0100
0010
0100
0001
1000
0001
1000
,
0010
0000
0100
0000
0010
1000
0000
0000
2010
0000
0000
0000
3001
0000
0000
0000
,
0110
0000
0100
0001
0100
0000
0100
0001
,
0000
0000
1000
0000
0100
1000
0000
0000
2100
0000
0000
0000
3001
0000
0000
0000
,
0010
0010
0100
0100
1000
0001
1000
0001
,
0100
0010
0100
0010
0200
0001
0001
0301
,
0100
0001
0020
0000
0031
0000
1000
0100
,
1000
1000
0002
0000
2000
0000
3003
0001
,
0100
0001
1000
0010
1000
0001
0100
0000
,
0010
0010
2000
0000
0002
0000
3003
0000
,
0102
0000
0000
0100
1003
0000
0010
2000
,
0000
0100
0100
0000
3001
0000
0010
0001
,
0020
0000
0130
1000
0200
0000
1300
0001
,
0000
1000
0001
0000
0010
0001
1000
0000
,
0010
1000
0010
0010
0100
0010
0100
0000
,
0001
0000
0010
0000
0001
1000
0000
0000
2200
0000
0000
0000
3300
0000
0000
0000
,
1000
0010
0000
1000
0001
0100
0001
0000
,
1000
0000
0010
0000
1000
0001
0000
0000
0202
0000
0000
0000
0303
0000
0000
0000
,
0001
0010
0000
0001
1000
0100
1000
0000
,
0010
0000
1000
0000
0100
0010
0000
0000
0022
0000
0000
0000
0033
0000
0000
0000
,
0010
0001
0010
0001
1000
0000
0000
0000
,
0100
1000
0100
1000
0010
1000
0002
0000
0000
0103
0000
0000
,
0110
0000
0020
0000
,
2000
0000
3030
0000
0001
0000
1000
0100
,
0020
0000
0230
0000
,
2300
0000
3002
0000
,
0103
0000
0001
0010
0001
0000
1000
0100
,
0010
0100
1000
0000
0101
0000
0000
0000
,
1000
0010
1000
0010
0100
0001
0100
0001
,
1000
0001
1000
0001
0020
0000
0130
0000
,
1001
0000
1000
0010
1000
0000
0010
0100
,
0000
0100
0002
0000
0103
0020
0000
1030
,
0100
1000
0100
0000
1000
0001
1000
0000
,
0010
0100
0001
0000
1001
0000
1000
0000
,
0010
0000
1000
0000
0010
1000
0001
0000
,
0010
0000
0001
0000
1000
0010
0000
0000
0100
0000
0001
0100
0000
0000
0000
0000
,
0001
0010
0000
0000
0001
0100
0000
0000
,
0010
1000
0010
0000
1000
0100
0000
1000
,
0001
0000
0000
0000
0100
0000
0000
0000
0110
0000
0000
0000
0010
1000
0000
0000
,
0010
1000
0100
0000
2200
0000
3300
0000
,
1000
0010
1000
0001
1000
0000
0001
0100
,
0001
0010
0001
0000
0100
0010
0100
0001
,
0100
0000
0000
0000
0001
1000
0000
0000
0100
0000
0000
0000
1000
0001
0000
0000
,
0010
0001
0100
0000
0110
0000
0010
1000
,
0010
0010
1000
0000
0002
0000
0000
0000
,
0000
0000
0000
0000
0000
0000
0003
0000
0000
1000
0100
1000
,
0100
0000
0000
0000
1000
0001
0000
0000
0010
0000
0001
0000
0100
0000
0100
0000
,
0020
0000
1030
0100
1000
1000
0001
0000
,
2002
3003
0002
0103
,
0010
0000
1000
0000
0001
0100
0020
0000
,
1030
0000
1000
0100
0001
0100
0010
0010
,
0002
0000
0103
0000
0010
1000
0100
1000
,
0002
0010
1000
0100
,
2003
0000
0000
0000
0000
0000
3000
0000
0000
0001
1000
0001
,
1000
0000
0000
0000
0100
0010
0000
0000
0110
0000
0000
0000
0100
0000
1000
0000
,
0001
0000
0100
0000
0001
0000
0000
0000
0011
0000
0000
0000
0010
0001
0000
0000
,
1000
0010
0000
0000
0100
0000
0010
0000
0100
0000
0001
0000
0100
0000
1000
0000
,
0100
0010
0100
0000
2002
0000
3003
0000
,
0110
0000
0000
0000
0100
0001
0000
0000
2000
0000
0000
0000
3010
0000
0010
0000
,
0000
0000
1000
0000
0100
1000
0000
0000
0002
0000
0000
0000
0013
0100
0000
0000
,
2000
0100
0001
3010
,
0001
0010
0001
1000
0000
0000
1001
0000
0000
1100
0000
0000
,
2000
0000
3001
0000
0010
0001
0100
0001
,
1000
0010
1000
0000
0100
1000
0000
0001
,
0002
0000
0020
0033
,
0100
0010
0100
0000
2000
0000
0000
0100
,
3100
1000
0010
1000
0001
0000
0010
0001
,
0000
0001
0100
0000
0010
0100
0000
0100
,
0020
0000
2000
3030
,
0100
1000
0100
0000
0012
0000
0103
0000
,
0110
0000
0010
1000
0100
0000
1000
0100
,
0001
0100
1000
0000
1002
0000
0103
0000
,
0010
1000
0010
0100
0001
0000
0100
0010
,
1000
0100
1000
0000
0201
0000
0310
0010
,
1000
0000
0100
0100
1000
0000
0001
1000
,
0001
0000
0010
0001
0100
0000
0010
0100
,
0010
0000
0000
1000
0010
0000
1000
0000
0100
0000
0000
0000
1000
0000
0010
0000
,
0100
0000
0001
0000
0100
0000
0010
0000
0100
0000
0010
0000
1000
0000
0000
0000
0000
0000
0100
0000
0000
1000
0000
0000
,
1001
0000
0001
0100
0010
0100
0010
0000
,
2000
0000
0100
0000
3001
0000
0010
0001
,
0001
0000
0010
0001
0100
0000
0001
0010
,
0000
0010
0200
0000
1300
0000
0001
1000
,
1001
0000
1000
0020
0000
0130
0010
0100
,
0002
0000
0013
0000
0001
0100
0010
1000
,
1000
0000
0100
1000
1010
0000
0010
0100
,
0001
0100
0001
0000
0010
0001
1000
0000
,
1001
0000
0001
0100
0001
0000
1000
0100
,
0200
0000
0000
0000
0310
0000
0000
0001
,
0100
0000
0000
0001
0010
0000
0000
0001
,
1000
0000
0100
1000
0100
0000
1000
0000
,
0010
0000
1000
0100
0100
0000
1000
0001
,
0100
0000
0001
0010
0000
0010
0001
0000
,
2000
0000
3100
0000
,
0001
0000
0010
0000
0001
0000
0100
0000
0010
0000
0100
0000
0002
0000
0000
0000
0000
0000
1003
0000
0000
0100
0000
0000
,
0200
0000
0000
0000
1300
0000
0001
1000
,
0000
0001
0200
0000
0301
0000
0010
0001
,
0002
0000
0003
0100
0020
0000
0030
1000
,
0100
1000
0001
0000
0200
0000
0310
0000
,
1001
0000
0000
0001
2000
0000
3000
1000
,
0002
0000
0103
0010
0100
0010
0000
0100
,
0002
0000
0013
0001
2000
0000
0000
0100
,
3100
0000
1000
0010
2000
0000
3001
0000
,
0101
0000
0001
0200
0010
0000
0000
0310
,
2000
0100
0100
0000
0002
0000
3003
0010
,
0001
0000
0100
0001
0010
0000
0001
1000
,
0000
0000
0100
0000
1000
0000
0000
0000
0110
0000
0000
0000
0010
0001
0000
0000
,
1001
0000
1000
0010
1000
0000
0010
0100
,
0000
0000
0100
0000
0001
0010
0000
0000
0001
0000
0000
0000
1000
0000
0010
0000
,
2000
0000
3000
1000
0002
0000
0003
0010
,
0001
0000
0100
0000
0001
0000
1000
0000
0010
0000
1000
0000
0020
0000
0000
0000
0000
0000
0130
0000
0000
0100
0000
0000
,
0001
0000
0010
0001
0100
0000
0001
1000
,
0002
0000
0010
0000
0203
0000
0310
1000
,
0010
0000
1000
1000
0010
0000
1000
0100
,
2000
0000
0000
0000
0100
0000
0000
0000
3001
0000
0000
0000
0100
0001
0000
0000
,
1010
0000
0010
0100
0001
0000
0010
0001
,
0020
0000
0130
0000
1100
0000
1000
0010
,
1000
0000
0001
0100
0010
0000
0100
0001
,
1000
0000
1000
0000
0200
0000
0000
0000
0310
0000
0000
0000
0001
1000
0000
0000
,
0002
0000
0000
0003
;
