#TITLE:Dog of Wisdom REMIX;
#SUBTITLE:;
#ARTIST:The Living Tombstone;
#TITLETRANSLIT:;
#SUBTITLETRANSLIT:;
#ARTISTTRANSLIT:;
#GENRE:;
#CREDIT:;
#BANNER:Dog Of Wisdom REMIX.png;
#BACKGROUND:;
#LYRICSPATH:;
#CDTITLE:;
#MUSIC:Dog of Wisdom REMIX.ogg;
#OFFSET:0.000000;
#SAMPLESTART:33.730000;
#SAMPLELENGTH:15.000000;
#SELECTABLE:YES;
#BPMS:0.000000=128.000000
;
#STOPS:
;
#BGCHANGES:;
#KEYSOUNDS:;
#ATTACKS:;

//---------------dance-single - ----------------
#NOTES:
     dance-single:
     :
     Hard:
     9:
     0.511980,0.614376,0.312877,0.403896,0.332787,630.000000,575.000000,55.000000,71.000000,0.000000,0.000000,0.511980,0.614376,0.312877,0.403896,0.332787,630.000000,575.000000,55.000000,71.000000,0.000000,0.000000:
0000
0000
0000
0000
,
0000
0000
0000
0000
,
1001
0000
0000
0100
0010
0100
0010
1000
,
0001
0100
0001
0100
0010
0000
0000
0000
,
0110
0000
0000
1000
0100
1000
0010
1000
,
0001
0100
0001
0010
0001
0000
0000
0000
,
0101
0000
0000
1000
0001
0100
0001
0010
,
0001
0010
0100
1000
0100
0000
0000
0000
,
1100
0010
0000
0110
0110
0000
0001
1000
,
0010
0100
0001
1000
1001
0000
0000
0000
,
1002
0000
0010
0000
0103
0010
0100
0010
,
2000
0001
0001
0100
3100
0000
1100
0000
,
2000
0000
0010
0000
3100
0010
0100
0010
,
0002
1000
1000
0100
0103
0000
0101
0000
,
0002
0000
0100
0000
0013
0100
0010
0100
,
2000
0001
0001
0010
3010
0000
1010
0000
,
0201
0010
0300
1000
2000
0000
0100
3100
,
0010
0100
1000
0001
1000
0000
1001
0000
,
1002
0000
0000
0100
0100
0000
0013
0010
,
0001
0100
0001
1000
0010
1000
0001
0200
,
0010
0000
0301
1000
0002
0000
0103
0020
,
1000
0100
0130
2000
0001
0000
3100
0000
,
2001
0000
0000
0100
0100
0000
3010
0010
,
1000
0100
1000
0001
0010
0001
1000
0200
,
0010
0000
1300
0001
2000
0000
3100
0020
,
0001
0100
0130
0002
1000
0000
0103
0000
,
0201
0010
0310
2000
3001
0000
0210
0001
,
0302
1000
2003
0100
3200
0010
0310
1000
,
0001
0100
0010
1000
0100
0010
0001
0100
,
0010
1000
0002
0010
1003
0000
1001
0000
,
1200
0010
0310
0002
1003
0000
0210
1000
,
2300
0001
3002
0100
0203
0010
0310
0001
,
1000
0100
0010
0001
0100
0010
1000
0100
,
0010
0001
2000
0010
3001
0000
1001
0000
,
2100
0000
0000
3010
0000
0100
0002
0000
0000
0013
0000
0100
,
1000
0000
0001
0100
0000
0010
1000
0000
0001
0010
0000
1000
,
0100
0000
0000
0100
0000
0001
0100
0000
0000
0100
0000
1000
,
0010
0000
0000
0010
0000
0001
0010
0000
0000
0010
0000
1000
,
0100
0000
0010
0100
0000
1000
0001
0000
0100
0001
0000
0100
,
0010
0000
1000
0010
0000
0001
0010
0000
0100
0010
0000
0100
,
1000
0001
1000
0010
0100
0010
1000
0001
1000
0100
0010
0100
,
1000
0100
1000
0001
0100
0001
1000
0100
0010
0001
0000
0000
,
1001
0000
0000
0000
0000
0100
0010
0000
0100
0010
0000
1000
,
0001
0000
0100
0001
0000
0100
0010
0000
0000
0000
0000
0000
,
0110
0000
0000
0000
0000
1000
0100
0000
1000
0010
0000
1000
,
0001
0000
0100
0001
0000
0010
0001
0000
0000
0000
0000
0000
,
0101
0000
0000
0000
0000
1000
0001
0000
0100
0001
0000
0010
,
0001
0000
0010
0100
0000
1000
0100
0000
0000
0000
0000
0000
,
1100
0000
0010
0000
0000
0110
0110
0000
0000
0001
0000
1000
,
0010
0000
0100
0001
0000
1000
1001
0000
0000
0000
0000
0000
,
1002
0000
0000
0010
0000
0000
0103
0000
0010
0100
0000
0010
,
2000
0000
0001
0001
0000
0100
3100
0000
0000
1100
0000
0000
,
2000
0000
0000
0010
0000
0000
3100
0000
0010
0100
0000
0010
,
0002
0000
1000
1000
0000
0100
0103
0000
0000
0101
0000
0000
,
0002
0000
0000
0100
0000
0000
0013
0000
0100
0010
0000
0100
,
2000
0000
0001
0001
0000
0010
3010
0000
0000
1010
0000
0000
,
0201
0000
0010
0300
0000
1000
2000
0000
0000
0100
0000
3100
,
0010
0000
0100
1000
0000
0001
1000
0000
0000
1001
0000
0000
,
0100
0000
0001
0010
0000
0001
0100
0000
0010
1000
0000
0010
,
0100
0000
0001
0010
0000
0001
1000
0000
0100
0010
0000
0100
,
1000
0000
0001
1000
0000
0010
1000
0000
0100
1000
0000
0010
,
1000
0000
0010
0100
0000
0010
1000
0000
0100
1000
0000
0000
,
0201
0000
0000
0310
0000
1000
0001
1000
0001
0100
0000
0000
,
1200
0000
0000
0310
0000
0001
1000
0001
1000
0100
0000
0000
,
0021
0000
0000
0130
0000
1000
0001
1000
0001
0010
0000
0000
,
1020
0000
0000
0130
0000
0001
1000
0001
1000
0010
0000
0000
,
1000
0000
0000
1100
0000
0001
1000
0000
0010
1000
0000
0001
,
1000
0000
0100
1000
0000
0010
0100
0000
0000
0110
0000
0000
,
0001
0000
0000
0101
0000
1000
0001
0000
0010
0001
0000
1000
,
0001
0000
0100
0001
0000
0010
0100
0000
0000
0110
0000
0000
,
1000
0000
0000
1010
0000
0001
1000
0000
0100
1000
0000
0001
,
1000
0000
0010
1000
0000
0100
0010
0000
0000
0110
0000
0000
,
0001
0000
0011
0000
0000
1000
0001
0000
0100
0001
0000
1000
,
0001
0000
0010
0001
0000
0100
0010
0000
0000
0110
0000
0000
,
1002
0000
0000
0100
0100
0000
0013
0010
,
0001
0100
0001
1000
0010
1000
0001
0200
,
0010
0000
0301
1000
0002
0000
0103
0020
,
1000
0100
0130
2000
0001
0000
3100
0000
,
2001
0000
0000
0100
0100
0000
3010
0010
,
1000
0100
1000
0001
0010
0001
1000
0200
,
0010
0000
1300
0001
2000
0000
3100
0020
,
0001
0100
0130
0002
1000
0000
0103
0000
,
0201
0010
0310
2000
3001
0000
0210
0001
,
0302
1000
2003
0100
3200
0010
0310
1000
,
0001
0100
0010
1000
0100
0010
0001
0100
,
0010
1000
0002
0010
1003
0000
1001
0000
,
1200
0010
0310
0002
1003
0000
0210
1000
,
2300
0001
3002
0100
0203
0010
0310
0001
,
1000
0100
0010
0001
0100
0010
1000
0100
,
0010
0001
2000
0010
0002
0000
3003
0000
,
1001
0000
0000
0000
;

//---------------dance-single - ----------------
#NOTES:
     dance-single:
     :
     Medium:
     7:
     0.415273,0.409584,0.500603,0.000000,0.096707,511.000000,423.000000,88.000000,0.000000,0.000000,0.000000,0.415273,0.409584,0.500603,0.000000,0.096707,511.000000,423.000000,88.000000,0.000000,0.000000,0.000000:
0000
0000
0000
0000
,
0000
0000
0000
0000
,
1001
0000
0000
0100
0001
0100
0001
0000
,
1000
0100
1000
0100
0010
0000
0000
0000
,
0110
0000
0000
0010
1000
0010
1000
0000
,
0001
0100
0001
0100
0010
0000
0000
0000
,
1100
0000
0000
0001
0100
0001
0010
0000
,
0100
1000
0100
1000
0001
0000
0000
0000
,
0001
0100
0000
0010
1000
0000
0001
0100
,
0010
0000
1000
0100
0010
0000
0000
0000
,
0011
0000
0000
0010
0001
0010
0100
0000
,
1000
0001
1000
0001
0010
0000
0000
0000
,
1010
0000
0000
0100
0001
0100
0001
0000
,
1000
0100
0010
0100
0010
0000
0000
0000
,
0101
0000
0000
1000
0100
1000
0010
0000
,
0001
0010
0100
0000
0001
0000
0000
0000
,
0100
0010
0000
0010
1000
0000
0100
0001
,
0010
0000
0100
1000
0010
0000
0000
0000
,
0110
0000
0000
0100
1000
0000
0001
0100
,
0001
0000
0010
0001
0010
0000
1000
0100
,
0010
0000
0010
0100
1000
0000
0001
1000
,
0001
1000
0010
0000
0110
0000
0000
0000
,
0110
0000
0000
0100
0001
0000
1000
0100
,
1000
0000
0001
0100
0010
0000
1000
0100
,
1000
0100
0010
0000
0001
0010
0100
0000
,
1000
0001
1000
0001
0010
0000
0110
0000
,
0001
0010
0001
0010
0100
0000
0110
0000
,
1000
0100
0000
0010
0001
0000
1001
0000
,
0100
0010
0100
0000
0100
0010
0100
0000
,
0001
0001
0100
0000
1000
0000
1010
0000
,
0100
0000
0001
0010
0001
0010
0001
0000
,
1000
0100
1000
0100
1000
0000
0010
0100
,
0010
1100
0001
0101
,
0010
0100
0010
0000
1000
0000
1001
0000
,
0100
0001
0011
1000
,
1100
0000
0000
1001
0000
0000
0100
0000
0001
0100
0000
0000
,
0010
1000
0110
0001
,
0101
0000
0000
1100
0000
0000
0010
0000
1000
0010
0000
0000
,
0101
0000
0010
0010
,
1100
0001
0101
0101
,
0110
0000
0000
1001
0000
0000
0010
0000
0001
0100
0000
0000
,
0010
0000
1000
0100
0000
0000
1001
0000
0000
0000
0000
0000
,
1001
0000
0000
0000
0000
0100
0001
0000
0000
0101
0000
0000
,
1000
0000
0100
1000
0000
0000
0110
0000
0000
0000
0000
0000
,
0110
0000
0000
0000
0000
0010
1000
0000
0000
1010
0000
0000
,
0001
0000
0100
0001
0000
0000
0110
0000
0000
0000
0000
0000
,
1100
0000
0000
0000
0000
0001
0100
0000
0000
0011
0000
0000
,
0100
0000
1000
0100
0000
0000
1001
0000
0000
0000
0000
0000
,
0001
0000
0100
0000
0000
0000
1010
0000
0000
0001
0000
0000
,
0110
1000
0110
0000
,
0011
0000
0000
0000
0000
0010
0001
0000
0000
0110
0000
0000
,
1000
1001
0011
0000
,
1010
0000
0000
0000
0000
0100
0001
0000
0000
0101
0000
0000
,
1000
0110
0110
0000
,
0101
0000
0000
0000
0000
1000
0100
0000
0000
1010
0000
0000
,
0001
0110
0001
0000
,
0100
0000
0010
0000
0000
0000
1010
0000
0000
0100
0000
0000
,
0011
0100
1010
0000
,
0100
0000
0000
0101
0000
0000
0010
0000
0001
0010
0000
0000
,
1001
0000
0000
0100
0000
0000
0010
0000
0100
0010
0000
0000
,
1000
0000
0100
0010
0000
0000
0001
0000
0000
0011
0000
0000
,
1010
0000
0000
0100
0000
0001
0100
0000
0000
0101
0000
0000
,
0100
0000
0000
1100
0000
0000
0010
0000
1000
0010
0000
0000
,
1001
0000
0000
0100
0000
0000
0010
0000
0100
0010
0000
0000
,
0001
0000
0100
0010
0000
0000
1000
0000
0000
1010
0000
0000
,
0011
0000
0000
0100
0000
1000
0100
0000
0000
1100
0000
0000
,
0110
0000
0000
0000
0000
0001
0010
0000
0001
0010
0000
1000
,
0010
0000
1000
0010
0000
0000
1001
0000
0000
0000
0000
0000
,
0110
0000
0000
0000
0000
1000
0010
0000
1000
0010
0000
0001
,
0010
0000
0001
0010
0000
0000
1001
0000
0000
0000
0000
0000
,
0101
0000
0000
0000
0000
0001
1000
0000
0000
1010
0000
0000
,
1001
1100
0110
0000
,
1000
0000
0100
0000
0000
1000
0001
0000
0000
0011
0000
0000
,
1001
0101
0110
0000
,
0110
0000
0000
0100
1000
0000
0001
0100
,
0001
0000
0010
0001
0010
0000
1000
0100
,
0010
0000
0010
0100
1000
0000
0001
1000
,
0001
1000
0010
0000
0110
0000
0000
0000
,
0110
0000
0000
0100
0001
0000
1000
0100
,
1000
0000
0001
0100
0010
0000
1000
0100
,
1000
0100
0010
0000
0001
0010
0100
0000
,
1000
0001
1000
0001
0010
0000
0110
0000
,
0001
0010
0001
0010
0100
0000
0110
0000
,
1000
0100
0000
0010
0001
0000
1001
0000
,
0100
0010
0100
0000
0100
0010
0100
0000
,
0001
0001
0100
0000
1000
0000
1010
0000
,
0100
0000
0001
0010
0001
0010
0001
0000
,
1000
0100
1000
0100
1000
0000
0010
0100
,
0010
1100
0001
0101
,
0010
0100
0010
0000
1000
0000
0000
0000
,
1001
0000
0000
0000
;

//---------------dance-single - ----------------
#NOTES:
     dance-single:
     :
     Easy:
     4:
     0.278745,0.358386,0.290122,0.022755,0.008533,343.000000,292.000000,51.000000,4.000000,0.000000,0.000000,0.278745,0.358386,0.290122,0.022755,0.008533,343.000000,292.000000,51.000000,4.000000,0.000000,0.000000:
0000
0000
0000
0000
,
0000
0000
0000
0000
,
1001
0000
0100
0001
,
0010
0001
0100
0000
,
0110
0000
1000
0100
,
1000
0010
1000
0000
,
0101
0000
1000
0001
,
0010
0001
1000
0000
,
1000
0100
0000
0000
0001
0000
0100
0000
,
0010
0010
0110
0000
,
0011
0000
0010
0110
,
1000
0001
1000
0000
,
1010
0000
0010
0110
,
0001
1000
0001
0000
,
1100
0000
0001
1000
,
0010
1000
0001
0000
,
0001
0100
0000
0000
1000
0000
0100
0000
,
0010
0010
1001
0000
,
0010
0000
0100
0001
,
1000
1000
1010
0100
,
0001
1000
0001
0010
,
0001
0100
0100
0000
,
1000
0000
0001
0010
,
0001
0100
0010
0110
,
1000
0001
0001
1000
,
0010
0010
0011
0000
,
0100
0000
0010
1000
,
0100
0010
0011
0010
,
1000
0100
1000
0100
,
1000
0010
1010
0000
,
0001
0000
1000
0010
,
1000
0100
0010
0001
,
0101
1000
1100
0001
,
0011
1001
1001
0000
,
0002
0003
0001
0010
,
0100
0100
1001
0000
,
2000
3000
0001
1000
,
0001
0001
0110
0000
,
2000
3000
1000
0010
,
0100
0100
1001
0000
,
0002
0003
1000
0001
,
1000
1000
0110
0000
,
1001
0000
0100
0001
,
0010
0001
0100
0000
,
0110
0000
1000
0100
,
1000
0010
1000
0000
,
0101
0000
1000
0001
,
0010
0001
1000
0000
,
1000
0000
0100
0000
0000
0000
0001
0000
0000
0100
0000
0000
,
0010
0010
0110
0000
,
0011
0000
0010
0110
,
1000
0001
1000
0000
,
1010
0000
0010
0110
,
0001
1000
0001
0000
,
1100
0000
0001
1000
,
0010
1000
0001
0000
,
0001
0000
0100
0000
0000
0000
1000
0000
0000
0100
0000
0000
,
0010
0010
1001
0000
,
1000
0100
1000
0010
,
0100
0001
0010
0010
,
0001
0100
0010
1000
,
0100
0010
0110
0000
,
0001
0100
0001
0010
,
0100
1000
0010
0010
,
1000
0100
0010
0001
,
0100
0010
0110
0000
,
1001
0000
0100
1000
,
0010
1000
0100
0000
,
0110
0000
0001
0100
,
0001
0010
0001
0000
,
1100
0000
0001
1000
,
0010
1000
0001
0000
,
0001
0000
0100
0000
0000
0000
1000
0000
0000
0100
0000
0000
,
0010
0010
0110
0000
,
0010
0000
0100
0001
,
1000
1000
1010
0100
,
0001
1000
0001
0010
,
0001
0100
0100
0000
,
1000
0000
0001
0010
,
0001
0100
0010
0110
,
1000
0001
0001
1000
,
0010
0010
0011
0000
,
0100
0000
0010
1000
,
0100
0010
0011
0010
,
1000
0100
1000
0100
,
1000
0010
1010
0000
,
0001
0000
1000
0010
,
1000
0100
0010
0001
,
0101
1000
1100
0001
,
0011
1001
1001
0000
,
1001
0000
0000
0000
;

//---------------dance-single - ----------------
#NOTES:
     dance-single:
     :
     Beginner:
     1:
     0.173911,0.229111,0.102396,0.000000,0.000000,214.000000,196.000000,18.000000,0.000000,0.000000,0.000000,0.173911,0.229111,0.102396,0.000000,0.000000,214.000000,196.000000,18.000000,0.000000,0.000000,0.000000:
0000
0000
0000
0000
,
0000
0000
0000
0000
,
1000
0000
1000
0000
,
0001
0001
0001
0000
,
0001
0000
0001
0000
,
1000
1000
1000
0000
,
0010
0000
0010
0000
,
0100
0100
0100
0000
,
0100
0000
0110
0000
,
0010
0010
0010
0000
,
0001
0000
0100
0000
,
0010
0010
0010
0000
,
1000
0000
0100
0000
,
0010
0010
0010
0000
,
0001
0000
0010
0000
,
0100
0100
0100
0000
,
1000
0000
0110
0000
,
0100
0100
0100
0000
,
0001
0000
1000
0000
,
0010
0010
0010
0000
,
0100
0000
0100
0000
,
0001
0000
0000
0000
,
1000
0000
0001
0000
,
0100
0100
0100
0000
,
0001
0000
1000
0000
,
1001
1001
1001
0000
,
1000
0000
0001
0000
,
0010
0010
0010
0000
,
0100
0000
0100
0000
,
1000
0000
0000
0000
,
0001
0000
1000
0000
,
0100
0100
0100
0000
,
1000
0000
0100
0000
,
0001
0000
0110
0000
,
0001
0000
0000
0000
,
0100
0100
0100
0000
,
1000
0000
0100
0000
,
0010
0000
1000
0000
,
1000
0000
0000
0000
,
0010
0010
0010
0000
,
0110
0000
0000
0000
,
0001
0000
1000
0000
,
1001
0000
0100
0100
,
0000
0001
0001
0000
,
0001
0000
0100
0100
,
0000
0010
0010
0000
,
0010
0000
1000
1000
,
0000
0100
0100
0000
,
0100
0000
0001
0001
,
0000
0010
0010
0000
,
0110
0000
1000
0000
,
1000
1000
0000
0000
,
0110
0000
0001
0000
,
0001
0001
0000
0000
,
1001
0000
0100
0000
,
0100
0100
0000
0000
,
1001
0000
0110
0000
,
0010
0010
0010
0000
,
0001
0001
0001
0001
,
0001
0000
0000
0000
,
1000
1000
1000
1000
,
1000
0000
0000
0000
,
0010
0010
0010
0010
,
0010
0000
0000
0000
,
0100
0100
0100
0100
,
0100
0000
0000
0000
,
0001
0000
1000
0000
,
0100
0000
0000
0000
,
1000
0000
0001
0000
,
0100
0000
0000
0000
,
0001
0000
0100
0000
,
0010
0000
0010
0000
,
1000
0000
0100
0000
,
0010
0000
0110
0000
,
0001
0000
1000
0000
,
0010
0010
0010
0000
,
0100
0000
0100
0000
,
0001
0000
0000
0000
,
1000
0000
0001
0000
,
0100
0100
0100
0000
,
0001
0000
1000
0000
,
1001
1001
1001
0000
,
1000
0000
0001
0000
,
0010
0010
0010
0000
,
0100
0000
0100
0000
,
1000
0000
0000
0000
,
0001
0000
1000
0000
,
0100
0100
0100
0000
,
1000
0000
0100
0000
,
0001
0000
0110
0000
;

//---------------dance-double - ----------------
#NOTES:
     dance-double:
     :
     Easy:
     4:
     0.279558,0.358386,0.290122,0.022755,0.008533,344.000000,293.000000,51.000000,4.000000,0.000000,0.000000,0.279558,0.358386,0.290122,0.022755,0.008533,344.000000,293.000000,51.000000,4.000000,0.000000,0.000000:
// measure 0
00000000
00000000
00000000
00000000
,  // measure 1
00000000
00000000
00000000
00000000
,  // measure 2
10010000
00000000
01000000
00010000
,  // measure 3
00100000
00001000
00010000
00000000
,  // measure 4
00011000
00000000
00000100
00001000
,  // measure 5
00001000
00000010
00001000
00000000
,  // measure 6
00000101
00000000
00001000
00000001
,  // measure 7
00000010
00001000
00010000
00000000
,  // measure 8
10000000
01000000
00000000
00000000
00010000
00000000
01000000
00000000
,  // measure 9
00100000
00100000
01100000
00000000
,  // measure 10
00110000
00000000
00100000
01100000
,  // measure 11
00001000
00010000
00001000
00000000
,  // measure 12
00001010
00000000
00000010
00000110
,  // measure 13
00000001
00001000
00000001
00000000
,  // measure 14
00001100
00000000
00010000
00001000
,  // measure 15
00100000
00010000
10000000
00000000
,  // measure 16
00010000
01000000
00000000
00000000
10000000
00000000
01000000
00000000
,  // measure 17
00100000
00010000
00011000
00000000
,  // measure 18
00100000
00000000
01000000
00001000
,  // measure 19
00010000
00010000
00110000
01000000
,  // measure 20
00001000
00010000
00001000
00100000
,  // measure 21
00010000
01000000
01000000
00000000
,  // measure 22
00010000
00000000
00010000
00100000
,  // measure 23
00001000
00000100
00000010
00000110
,  // measure 24
00001000
00000001
00000001
00001000
,  // measure 25
00000010
00000010
00000011
00000000
,  // measure 26
00000100
00000000
00000010
00001000
,  // measure 27
00010000
00100000
00110000
00100000
,  // measure 28
10000000
01000000
00100000
01000000
,  // measure 29
10000000
00100000
10100000
00000000
,  // measure 30
00010000
00000000
10000000
00100000
,  // measure 31
10000000
01000000
00100000
00010000
,  // measure 32
00011000
00000100
00001100
00000001
,  // measure 33
00000011
00011000
00011000
00000000
,  // measure 34
00002000
00003000
00001000
00100000
,  // measure 35
01000000
01000000
10010000
00000000
,  // measure 36
20000000
30000000
10000000
00010000
,  // measure 37
00001000
00001000
00101000
00000000
,  // measure 38
00020000
00030000
00010000
00100000
,  // measure 39
01000000
01000000
10010000
00000000
,  // measure 40
00020000
00030000
00001000
00010000
,  // measure 41
00001000
00001000
00000110
00010000
,  // measure 42
10010000
00000000
01000000
00010000
,  // measure 43
00100000
00001000
00010000
00000000
,  // measure 44
00011000
00000000
00000100
00001000
,  // measure 45
00001000
00000010
00001000
00000000
,  // measure 46
00000101
00000000
00001000
00000001
,  // measure 47
00000010
00001000
00010000
00000000
,  // measure 48
10000000
00000000
01000000
00000000
00000000
00000000
00010000
00000000
00000000
01000000
00000000
00000000
,  // measure 49
00100000
00100000
01100000
00000000
,  // measure 50
00110000
00000000
00100000
01100000
,  // measure 51
00001000
00010000
00001000
00000000
,  // measure 52
00001010
00000000
00000010
00000110
,  // measure 53
00000001
00001000
00000001
00000000
,  // measure 54
00001100
00000000
00010000
00001000
,  // measure 55
00100000
00010000
10000000
00000000
,  // measure 56
00010000
00000000
01000000
00000000
00000000
00000000
10000000
00000000
00000000
01000000
00000000
00000000
,  // measure 57
00100000
00010000
00011000
00000000
,  // measure 58
00001000
00000100
00001000
00000010
,  // measure 59
00000100
00010000
00100000
00100000
,  // measure 60
00010000
01000000
00100000
00010000
,  // measure 61
00000100
00000010
00000110
00000000
,  // measure 62
00001000
00000100
00001000
00100000
,  // measure 63
01000000
10000000
00100000
00100000
,  // measure 64
10000000
01000000
00100000
00001000
,  // measure 65
00000100
00000010
00000110
00000000
,  // measure 66
00001001
00000000
00000100
00001000
,  // measure 67
00000010
00010000
00001000
00000000
,  // measure 68
00011000
00000000
00010000
00100000
,  // measure 69
01000000
00100000
00010000
00000000
,  // measure 70
11000000
00000000
00010000
10000000
,  // measure 71
00100000
00010000
00001000
00000000
,  // measure 72
00010000
00000000
00000100
00000000
00000000
00000000
00001000
00000000
00000000
00000100
00000000
00000000
,  // measure 73
00010000
00001000
00011000
00000000
,  // measure 74
00100000
00000000
01000000
00001000
,  // measure 75
00010000
00010000
00110000
01000000
,  // measure 76
00001000
00010000
00001000
00100000
,  // measure 77
00010000
01000000
01000000
00000000
,  // measure 78
00010000
00000000
00010000
00100000
,  // measure 79
00001000
00000100
00000010
00000110
,  // measure 80
00001000
00000001
00000001
00001000
,  // measure 81
00000010
00000010
00000011
00000000
,  // measure 82
00000100
00000000
00000010
00001000
,  // measure 83
00010000
00100000
00110000
00100000
,  // measure 84
10000000
01000000
00100000
01000000
,  // measure 85
10000000
00100000
10100000
00000000
,  // measure 86
00010000
00000000
10000000
00100000
,  // measure 87
10000000
01000000
00100000
00010000
,  // measure 88
00011000
00000100
00001100
00000001
,  // measure 89
00000011
00011000
00011000
00000000
,  // measure 90
00011000
00000000
00000000
00000000
;
