#VERSION:0.83;
#TITLE:Dog of Wisdom REMIX;
#SUBTITLE:(SM5-Special);
#ARTIST:The Living Tombstone;
#TITLETRANSLIT:;
#SUBTITLETRANSLIT:;
#ARTISTTRANSLIT:;
#GENRE:;
#ORIGIN:;
#CREDIT:;
#BANNER:Dog Of Wisdom REMIX.png;
#BACKGROUND:;
#PREVIEWVID:;
#JACKET:;
#CDIMAGE:;
#DISCIMAGE:;
#LYRICSPATH:;
#CDTITLE:;
#MUSIC:Dog of Wisdom REMIX.ogg;
#OFFSET:0.000000;
#SAMPLESTART:33.730000;
#SAMPLELENGTH:15.000000;
#SELECTABLE:YES;
#BPMS:0.000=128.000;
#STOPS:;
#DELAYS:;
#WARPS:;
#TIMESIGNATURES:0.000=4=4;
#TICKCOUNTS:0.000=4;
#COMBOS:0.000=1;
#SPEEDS:0.000=1.000=0.000=0,
8.000=0.900=0.250=0,
9.000=1.000=4.000=0,
16.000=0.900=0.250=0,
17.000=1.000=4.000=0,
24.000=0.900=0.250=0,
25.000=1.000=4.000=0,
32.000=0.900=0.100=0,
32.500=1.100=0.100=0,
33.500=1.250=0.100=0,
34.000=0.750=0.100=0,
35.000=1.000=4.000=0,
40.000=0.900=0.250=0,
41.000=1.000=2.000=0,
44.000=1.250=3.000=0,
48.000=1.150=0.250=0,
49.000=1.250=2.000=0,
52.000=1.000=3.000=0,
56.000=0.900=0.250=0,
57.000=1.000=4.000=0,
64.000=0.900=0.100=0,
64.500=1.100=0.100=0,
65.500=1.250=0.100=0,
66.000=0.750=0.100=0,
67.000=1.200=0.100=0,
67.500=1.100=0.100=0,
68.000=1.300=0.100=0,
68.500=0.900=0.100=0,
69.000=1.400=0.100=0,
69.500=0.750=0.100=0,
70.000=1.500=0.100=0,
71.000=1.000=0.000=0,
108.000=1.100=1.000=0,
109.000=0.900=1.000=0,
110.000=1.100=1.000=0,
111.000=1.000=1.000=0,
124.000=0.900=1.000=0,
125.000=1.100=1.000=0,
126.000=0.900=1.000=0,
127.000=1.000=1.000=0,
136.000=1.100=0.000=0,
136.062=1.000=0.750=0,
137.000=1.050=0.000=0,
137.062=1.000=0.750=0,
138.000=1.050=0.000=0,
138.062=1.000=0.750=0,
139.000=1.050=0.000=0,
139.062=1.000=0.750=0,
140.000=1.100=0.000=0,
140.062=1.000=0.750=0,
141.000=1.050=0.000=0,
141.062=1.000=0.750=0,
142.000=1.050=0.000=0,
142.062=1.000=0.750=0,
143.000=1.050=0.000=0,
143.062=1.000=0.750=0,
144.000=1.100=0.000=0,
144.062=1.000=0.750=0,
145.000=1.050=0.000=0,
145.062=1.000=0.750=0,
146.000=1.050=0.000=0,
146.062=1.000=0.750=0,
147.000=1.050=0.000=0,
147.062=1.000=0.750=0,
148.000=1.100=0.000=0,
148.062=1.000=0.750=0,
149.000=1.050=0.000=0,
149.062=1.000=0.750=0,
150.000=1.050=0.000=0,
150.062=1.000=0.750=0,
151.000=1.050=0.000=0,
151.062=1.000=0.750=0,
152.000=1.250=0.000=0,
152.062=1.000=0.750=0,
153.000=1.050=0.000=0,
153.062=1.000=0.750=0,
154.000=1.050=0.000=0,
154.062=1.000=0.750=0,
155.000=1.050=0.000=0,
155.062=1.000=0.750=0,
156.000=1.250=0.000=0,
156.062=1.000=0.750=0,
157.000=1.050=0.000=0,
157.062=1.000=0.750=0,
158.000=1.050=0.000=0,
158.062=1.000=0.750=0,
159.000=1.050=0.000=0,
159.062=1.000=0.750=0,
160.000=1.250=0.000=0,
160.062=1.000=0.750=0,
161.000=1.050=0.000=0,
161.062=1.000=0.750=0,
162.000=1.050=0.000=0,
162.062=1.000=0.750=0,
163.000=1.050=0.000=0,
163.062=1.000=0.750=0,
164.000=1.100=0.000=0,
164.062=1.000=0.750=0,
165.000=1.050=0.000=0,
165.062=1.000=0.750=0,
166.000=1.050=0.000=0,
166.062=1.000=0.750=0,
167.000=1.100=0.000=0,
167.021=1.000=0.200=0,
167.333=1.200=0.000=0,
167.354=1.000=0.200=0,
167.667=1.350=0.000=0,
167.688=1.000=0.200=0,
168.000=1.500=0.000=0,
168.021=0.900=0.250=0,
169.000=1.000=4.000=0,
176.000=0.900=0.250=0,
177.000=1.000=4.000=0,
184.000=0.900=0.250=0,
185.000=1.000=4.000=0,
192.000=0.900=0.100=0,
192.667=1.100=0.100=0,
193.667=1.250=0.100=0,
194.000=0.750=0.100=0,
195.000=1.000=4.000=0,
200.000=0.900=0.250=0,
201.000=1.000=2.000=0,
204.000=1.250=3.000=0,
208.000=1.150=0.250=0,
209.000=1.250=2.000=0,
212.000=1.000=3.000=0,
216.000=0.900=0.250=0,
217.000=1.000=4.000=0,
224.000=0.900=0.100=0,
224.667=1.100=0.100=0,
225.667=1.250=0.100=0,
226.000=0.750=0.100=0,
227.000=1.200=0.100=0,
227.667=1.100=0.100=0,
228.000=1.300=0.100=0,
228.667=0.900=0.100=0,
229.000=1.400=0.100=0,
229.667=0.750=0.100=0,
230.000=1.500=0.100=0,
231.000=1.000=0.000=0,
264.000=0.900=0.250=0,
265.000=1.000=4.000=0,
272.000=0.900=0.250=0,
273.000=1.000=4.000=0,
280.000=0.900=0.250=0,
281.000=1.000=4.000=0,
288.000=0.900=0.100=0,
288.667=1.100=0.100=0,
289.667=1.250=0.100=0,
290.000=0.750=0.100=0,
291.000=1.200=0.100=0,
291.667=1.100=0.100=0,
292.000=1.300=0.100=0,
292.667=0.900=0.100=0,
293.000=1.400=0.100=0,
293.667=0.750=0.100=0,
294.000=1.500=0.100=0,
295.000=1.000=0.000=0,
332.000=1.100=1.000=0,
333.000=0.900=1.000=0,
334.000=1.100=1.000=0,
335.000=1.000=1.000=0,
348.000=0.900=1.000=0,
349.000=1.100=1.000=0,
350.000=0.900=1.000=0,
351.000=1.000=1.000=0,
358.000=0.750=1.000=0,
359.979=1.000=0.000=0,
360.000=0.020=1.000=0,
361.000=1.000=0.000=0;
#SCROLLS:0.000=1.000,
7.000=0.000,
7.750=4.000,
8.000=1.000,
39.000=0.000,
39.750=4.000,
40.000=1.000,
71.000=64.000,
71.250=1.000,
103.000=0.250,
103.750=3.000,
104.000=1.000,
135.000=0.000,
135.250=4.000,
135.333=0.000,
135.583=4.000,
135.667=0.000,
135.917=4.000,
136.000=1.000,
231.000=0.250,
231.979=32.000,
232.000=1.000,
295.000=64.000,
295.125=1.000,
360.000=16.000,
361.000=1.000;
#FAKES:;
#LABELS:0.000=Song Start;
#BGCHANGES:;
#KEYSOUNDS:;
#ATTACKS:
;

//---------------dance-single - ----------------
#NOTEDATA:;
#CHARTNAME:;
#STEPSTYPE:dance-single;
#DESCRIPTION:;
#CHARTSTYLE:;
#DIFFICULTY:Challenge;
#METER:10;
#RADARVALUES:0.633068,0.667423,0.381141,0.261679,0.605843,779.000000,712.000000,67.000000,46.000000,0.000000,0.000000,0.000000,0.000000,0.000000,0.633068,0.667423,0.381141,0.261679,0.605843,779.000000,712.000000,67.000000,46.000000,0.000000,0.000000,0.000000,0.000000,0.000000;
#CREDIT:;
#NOTES:
// measure 0
0000
0000
0000
0000
,  // measure 1
0001
0000
0000
0000
0001
0000
0000
0000
1000
0000
0000
0000
1000
0000
0000
0000
0100
0000
0010
0000
0000
0000
0001
0000
0020
0000
0000
0000
0000
0000
0000
0030
,  // measure 2
1001
0000
0100
1000
0010
1000
0010
0100
,  // measure 3
0001
0000
0010
0001
0010
0000
0001
0000
2000
0000
0100
0000
3100
0000
0000
0000
,  // measure 4
0110
0000
0000
0000
1000
0000
0010
0000
0100
0000
0001
0100
0001
0000
0010
0000
,  // measure 5
0001
1000
0100
0010
0011
0000
0001
0001
,  // measure 6
1100
0000
0000
0000
0100
0000
0010
0000
0001
0000
0010
0000
0001
0000
1000
0001
,  // measure 7
1000
0010
0100
0010
0010
0100
0001
0010
,  // measure 8
0101
0002
0000
0010
2003
0000
3100
0100
,  // measure 9
0010
0000
0001
0010
0001
0000
1000
0010
1000
0000
0100
0000
0100
0000
0000
0000
,  // measure 10
0012
0010
0000
0103
0010
1000
0100
0001
,  // measure 11
0100
0000
0010
0000
0001
0010
0001
0000
1000
0000
0100
0000
1100
0000
0000
0000
,  // measure 12
2010
0010
0000
3100
0010
0001
0100
1000
,  // measure 13
0100
0000
0010
0000
1000
0010
1000
0000
0001
0000
0100
0000
0101
0000
0000
0000
,  // measure 14
0020
0000
1000
0000
0130
0000
0001
1000
0001
0000
1000
0100
0010
0000
0100
0000
,  // measure 15
0010
0001
1000
0010
0010
0100
0001
0010
,  // measure 16
0011
0011
0000
1100
1100
0000
1000
0001
,  // measure 17
0101
0000
0001
0000
1010
0000
1000
0000
0001
0010
0000
1000
0020
0000
0000
0000
,  // measure 18
0130
0000
0001
0000
0001
0000
0011
0000
0010
0000
0001
0010
0001
0000
1000
0000
,  // measure 19
0100
0010
0100
0000
1000
0000
0010
0000
1010
0000
0000
0000
1000
0010
0001
0000
,  // measure 20
0010
0100
0001
0010
1000
0010
0100
1000
,  // measure 21
0010
0100
0010
0000
0100
0010
1000
0000
1002
0000
0000
0000
0103
0000
0000
0000
,  // measure 22
1000
0010
0000
0000
0101
0000
0001
0010
0001
0000
0000
1000
0100
0000
0010
0000
,  // measure 23
0002
0000
0100
0000
0103
0000
0010
1000
0010
0000
0100
0000
0001
0000
1001
0000
,  // measure 24
1000
0010
0001
0010
0100
0001
1000
0100
,  // measure 25
0010
0000
1000
0000
0010
0000
0001
0000
1000
0001
0000
0000
0102
0000
0000
0000
,  // measure 26
1003
0000
0100
0010
0100
0000
0010
0000
0001
1000
0000
0000
1000
0100
0010
0000
,  // measure 27
0002
0000
0010
0000
2003
0000
0100
0000
3020
0000
0000
0000
0130
0001
0010
0000
,  // measure 28
0001
0000
0100
0001
0100
0000
0010
0000
1000
0000
0100
1000
0100
0000
0010
0000
,  // measure 29
0100
1000
0010
0000
1000
0000
0100
0000
2200
0000
0000
0000
3300
0000
0010
1000
,  // measure 30
0010
0000
0000
0000
0100
0000
0001
0010
0001
0000
1000
0000
0100
0000
0010
0000
,  // measure 31
0002
0000
0010
0000
2003
0000
0010
0000
3200
0000
0000
0000
0310
0000
0001
0010
,  // measure 32
0001
0000
1000
0010
1000
0000
0100
0000
0010
0000
0001
0000
0100
0000
0010
0000
,  // measure 33
1000
0000
0000
0100
0000
0000
0010
0000
0000
0001
0000
0000
1010
0000
0000
0000
0000
0000
1000
0000
0001
0000
1000
0000
,  // measure 34
0001
0000
0000
1001
0000
1000
0100
0000
0000
0110
0000
0010
,  // measure 35
0001
0000
0001
1000
0000
1000
0100
0000
0100
0010
0000
0000
,  // measure 36
0001
0000
0010
0001
0000
0000
1000
0000
0010
1000
0000
0000
,  // measure 37
0100
0000
0010
0001
0000
1000
0100
0000
0010
0110
0000
0000
,  // measure 38
2100
0000
0000
0010
0000
0010
3020
0000
0100
0130
0000
0000
,  // measure 39
0102
0000
0000
0010
0000
0010
0023
0000
0100
0130
0000
0000
,  // measure 40
1000
0100
1000
0001
0100
0001
1000
0010
1000
0001
0010
0001
,  // measure 41
1000
0100
0010
0001
0100
0001
1000
0100
0010
0100
1000
0001
,  // measure 42
1001
0000
0000
0100
0000
1000
0010
0000
1000
0010
0000
0000
,  // measure 43
0001
0010
0001
0010
0000
0001
2000
0000
0100
3100
0000
0000
,  // measure 44
0110
0000
0000
1000
0000
0010
0100
0001
0100
0001
0000
0010
,  // measure 45
0001
0000
1000
0100
0000
0010
0011
0000
0000
0001
0000
0001
,  // measure 46
1100
0000
0000
0100
0000
0010
0001
0000
0010
0001
1000
0001
,  // measure 47
1000
0000
0010
0100
0000
0010
0010
0000
0100
0001
0000
0010
,  // measure 48
0101
0000
0002
0000
0000
0010
2003
0000
0000
3100
0000
0100
,  // measure 49
0010
0001
0010
0001
1000
0010
1000
0000
0100
0100
0000
0000
,  // measure 50
0012
0000
0010
0000
0000
0103
0010
0000
1000
0100
0000
0001
,  // measure 51
0100
0000
0010
0001
0010
0001
1000
0000
0100
1100
0000
0000
,  // measure 52
2010
0000
0010
0000
0000
3100
0010
0000
0001
0100
0000
1000
,  // measure 53
0100
0000
0010
1000
0010
1000
0001
0000
0100
0101
0000
0000
,  // measure 54
0020
0000
1000
0130
0001
1000
0001
1000
0100
0010
0000
0100
,  // measure 55
0010
0000
0001
1000
0000
0010
0010
0000
0100
0001
0000
0010
,  // measure 56
0011
0000
0011
0000
0000
1100
1100
0000
0000
1000
0000
0001
,  // measure 57
0101
0000
0001
1010
0000
1000
0001
0010
1000
0010
0000
0000
,  // measure 58
1001
0000
1000
0010
0000
0001
0010
0000
0100
0010
0000
0010
,  // measure 59
0010
0000
0001
0100
0000
1000
0100
0000
0010
1001
0000
0001
,  // measure 60
1000
0000
1000
0001
0000
1000
0100
0000
0001
0100
0000
0010
,  // measure 61
0001
0000
0010
1000
0000
0010
0011
0000
0000
1010
0000
1000
,  // measure 62
0001
0000
0001
0010
0000
0001
1000
0100
0010
0100
0010
0001
,  // measure 63
1000
0000
1000
0010
0000
0100
0001
1000
0010
0100
0010
1000
,  // measure 64
0001
0000
0010
0001
0000
1000
0100
0000
0010
1000
0000
0010
,  // measure 65
0001
0100
0010
1000
0100
0010
0100
0010
0001
0010
0001
1000
,  // measure 66
1010
0000
0000
1010
0000
1000
0100
0000
0100
0010
0000
0010
,  // measure 67
0001
1000
0010
0100
0000
0100
0010
0000
0000
1010
0000
0000
,  // measure 68
0011
0000
0000
0011
0000
0001
0100
0000
0100
0010
0000
0010
,  // measure 69
1000
0001
0010
0100
0000
0100
0010
0000
0000
0011
0000
0000
,  // measure 70
0101
0000
0000
0101
0000
0001
0010
0000
0010
0100
0000
0100
,  // measure 71
1000
0001
0100
0010
0000
0010
0100
0000
0000
0101
0000
0000
,  // measure 72
1100
0000
1100
0000
0000
1000
0010
0000
0010
0100
0000
0100
,  // measure 73
0001
1000
0100
0010
0000
0010
0200
0000
0000
0320
0000
0000
,  // measure 74
0130
0000
0001
0000
0001
0000
0011
0000
0010
0000
0001
0010
0001
0000
1000
0000
,  // measure 75
0100
0010
0100
0000
1000
0000
0010
0000
1010
0000
0000
0000
1000
0010
0001
0000
,  // measure 76
0010
0100
0001
0010
1000
0010
0100
1000
,  // measure 77
0010
0100
0010
0000
0100
0010
1000
0000
1002
0000
0000
0000
0103
0000
0000
0000
,  // measure 78
1000
0010
0000
0000
0101
0000
0001
0010
0001
0000
0000
1000
0100
0000
0010
0000
,  // measure 79
0002
0000
0100
0000
0103
0000
0010
1000
0010
0000
0100
0000
0001
0000
1001
0000
,  // measure 80
1000
0010
0001
0010
0100
0001
1000
0100
,  // measure 81
0010
0000
1000
0000
0010
0000
0001
0000
1000
0001
0000
0000
0102
0000
0000
0000
,  // measure 82
1003
0000
0100
0010
0100
0000
0010
0000
0001
1000
0000
0000
1000
0100
0010
0000
,  // measure 83
0002
0000
0010
0000
2003
0000
0100
0000
3020
0000
0000
0000
0130
0001
0010
0000
,  // measure 84
0001
0000
0100
0001
0100
0000
0010
0000
1000
0000
0100
1000
0100
0000
0010
0000
,  // measure 85
0100
1000
0010
0000
1000
0000
0100
0000
2200
0000
0000
0000
3300
0000
0010
1000
,  // measure 86
0010
0000
0000
0000
0100
0000
0001
0010
0001
0000
1000
0000
0100
0000
0010
0000
,  // measure 87
0002
0000
0010
0000
2003
0000
0010
0000
3200
0000
0000
0000
0310
0000
0001
0010
,  // measure 88
0001
0000
1000
0010
1000
0000
0100
0000
0010
0000
0001
0000
0100
0000
0010
0000
,  // measure 89
1000
0100
0010
0001
2020
0000
3030
0000
,  // measure 90
0202
0303
0000
0000
;
