#TITLE:Do The Thing;
#SUBTITLE:;
#ARTIST:bill wurtz;
#TITLETRANSLIT:;
#SUBTITLETRANSLIT:;
#ARTISTTRANSLIT:;
#GENRE:;
#CREDIT:8Chasey 2026 / BWE Volume 3;
#MUSIC:Do The Thing.ogg;
#BANNER:Do The Thing-bn.png;
#BACKGROUND:Do The Thing-bg.png;
#CDTITLE:;
#SAMPLESTART:15.992;
#SAMPLELENGTH:15.000;
#SELECTABLE:YES;
#OFFSET:0.008;
#BPMS:0.000=120.000
,172.000=118.000
,177.000=114.000
,179.000=118.000
,185.000=112.000
,186.000=115.000
,194.000=114.000
,197.000=113.000
,204.000=110.000
,206.000=109.000
,210.000=105.000
,218.000=102.000
,219.000=100.000
;
#STOPS:;
#DISPLAYBPM:100.000:120.000;
#BGCHANGES:;
#FGCHANGES:;

//--------------- dance-single - BRAND NEW ----------------
#NOTES:
     dance-single:
     BRAND NEW:
     Beginner:
     1:
     0,0,0,0,0:
0000
0000
0000
0000
,
0000
0000
0000
0000
,
0000
0000
0000
0000
,
0000
0000
0000
0000
,
0001
0000
0000
0000
,
0001
0000
0000
0000
,
1000
0000
0000
0000
,
1000
0000
0000
0000
,
0010
0000
0010
0000
,
0000
0000
0000
0000
,
0100
0000
0010
0000
,
0000
0000
0000
0000
,
0100
0000
0100
0000
,
0000
0000
0000
0000
,
0010
0000
0100
0000
,
0000
0000
0000
0000
,
0001
0000
0001
0000
,
0000
0000
0000
0000
,
1000
0000
0001
0000
,
0000
0000
0000
0000
,
1000
0000
1000
0000
,
0000
0000
0000
0000
,
0001
0000
1000
0000
,
1001
0000
0000
0000
,
0001
0000
0000
0000
,
0001
0000
0000
0000
,
1000
0000
0001
0000
,
1000
0000
0000
0000
,
0001
0000
1000
0000
,
0001
0000
0000
0000
,
1000
0000
0000
0000
,
1000
0000
0000
0000
,
0010
0000
0010
0000
,
0000
0000
0000
0000
,
0100
0000
0100
0000
,
0000
0000
0000
0000
,
0010
0000
0000
0000
,
0100
0000
0000
0000
,
0110
0000
0000
0000
,
0000
0000
0000
0000
,
0001
0000
0001
0000
,
0000
0000
0000
0000
,
1000
0000
0001
0000
,
0000
0000
0000
0000
,
1000
0000
1000
0000
,
0000
0000
0000
0000
,
0001
0000
1000
0000
,
0000
0000
0000
0000
,
0010
0000
0000
0000
,
0010
0000
0000
0000
,
0100
0000
0000
0000
,
0100
0000
0000
0000
,
0001
0000
0000
0000
,
1000
0000
0000
0000
,
0001
0000
1000
0000
;

//--------------- dance-single - EASY WAY ----------------
#NOTES:
     dance-single:
     EASY WAY:
     Easy:
     2:
     0,0,0,0,0:
0000
0000
0000
0000
,
0000
0000
0000
0000
,
0000
0000
0000
0000
,
0000
0000
0000
0000
,
0001
1000
0001
0000
,
0000
0000
0001
0000
,
1000
0001
1000
0000
,
0000
0000
1000
0000
,
0001
0000
0100
0000
,
0001
1000
0001
0000
,
1000
1000
0000
0001
,
0000
0000
0001
0000
,
1000
0000
0100
0000
,
1000
0001
1000
0000
,
0001
0001
0000
1000
,
0000
0000
1000
0000
,
0010
0000
0100
0000
,
0010
0010
0010
0000
,
0100
0010
0100
0000
,
0010
0100
0010
0000
,
0100
0000
0010
0000
,
0100
0100
0100
0000
,
0010
0100
0010
0000
,
0100
0010
0100
0000
,
0001
0000
1000
0000
,
0010
0000
0100
0000
,
0001
0000
1000
0001
,
1000
0000
0001
0000
,
1000
0000
0001
0000
,
0100
0000
0010
0000
,
1000
0000
0001
1000
,
0001
0000
1000
0000
,
1001
0000
0000
0000
,
0001
1000
0001
1000
,
0110
0000
0000
0000
,
0010
0100
0010
0100
,
0001
0000
0001
0000
,
1000
0000
1000
0000
,
1001
0000
0000
0000
,
0001
1000
0001
1000
,
0001
0000
0001
0000
,
0100
0010
0100
0000
,
0010
0000
1000
0000
,
0010
0000
0000
0000
,
1000
0000
1000
0000
,
0100
0010
0100
0000
,
0010
0000
0001
0000
,
0010
0000
0000
0000
,
0001
1000
0001
0000
,
1000
0000
0001
0000
,
0100
0000
0000
0000
,
0110
0000
0000
0000
,
1000
0001
1000
0000
,
0001
0000
1000
0000
,
0010
0000
0000
0000
0000
0000
0000
2002
,
0000
0000
0000
0000
0000
3003
0000
0000
;

//--------------- dance-single - GET REAL ----------------
#NOTES:
     dance-single:
     GET REAL:
     Medium:
     6:
     0,0,0,0,0:
0000
0000
0000
0000
,
0000
0000
0000
0000
,
0000
0000
0000
0000
,
0000
0000
0000
0000
,
0001
0000
1000
0001
1000
0000
0000
0101
,
0000
0001
0010
0001
,
1000
0000
0001
1000
0001
0000
0000
1100
,
0000
0000
1000
0000
0010
0100
0010
0000
,
0100
0000
0001
0000
0010
0000
0100
0010
,
0000
0100
0010
0000
0110
0000
0000
0000
,
0100
0000
1000
0000
0010
0000
0100
0010
,
0000
0100
0010
0000
1001
0000
1000
0000
,
0001
0000
0100
0000
0010
0000
1000
0010
,
0000
1000
0001
0000
0100
0000
0001
0000
,
1000
0000
0100
0000
0010
0000
0001
0010
,
0000
0001
0100
0000
0010
0000
0110
0000
,
0100
0000
0001
0000
1000
0000
0100
0010
,
0000
0010
0100
0000
1000
0000
0001
0000
,
0100
0000
0001
0000
1000
0000
0010
0100
,
0000
0100
0010
0000
1000
0000
0100
0000
,
0010
0001
0010
0000
0001
0000
1000
0001
,
0000
1000
0001
0000
0100
0000
0100
0000
,
0010
1000
0010
0000
1000
0000
0001
1000
,
0000
0000
1000
0001
0000
0000
0100
0000
,
0110
0010
0000
1000
,
0100
1000
1000
0001
,
0100
0001
0001
0100
,
0010
0000
0000
0100
0000
0000
0010
0000
,
1000
0000
0010
1000
0000
0000
1000
0000
,
0001
0000
0100
0001
0000
0010
0000
0100
,
0000
0010
0000
0001
,
0000
0000
0000
0000
1000
0000
0000
0000
0000
0000
0010
0000
0000
0010
0000
0000
,
0100
0001
0100
0001
,
1000
0001
1000
0000
,
0100
1000
0100
1000
,
0001
1000
0001
0000
,
1001
0000
1000
0001
0000
0100
0000
0010
,
0000
0100
0010
0100
0000
0010
0000
0110
,
0000
0000
0100
0000
0000
0001
0100
0001
,
0000
1000
0000
0010
1000
0010
1000
0000
,
0001
0000
0100
0000
0101
0000
0000
1100
,
0000
0000
1000
0000
0010
1000
0010
0000
,
0100
0000
0001
0000
0011
0000
0000
1010
,
0000
1000
0001
0000
1000
0001
1000
0000
,
0100
0000
0010
0000
0011
0000
0001
1000
,
0000
1000
0010
0000
0100
0000
0001
0000
,
0100
0010
0100
0000
0010
0000
0000
0110
,
0000
0000
0100
0010
0000
0010
0100
0000
,
0001
0100
0001
0000
1000
0000
0100
1000
,
0000
1000
0010
0000
0100
0010
0100
0000
,
0001
0000
1000
0000
0001
0000
1000
0100
,
0000
0100
0010
0000
0010
0000
0001
0000
,
1000
0000
0100
0010
0001
0000
0000
1000
,
0000
0000
0001
0000
0110
0000
1000
0001
,
1000
0000
0010
0100
0010
0100
0000
0020
,
0000
0000
0000
0000
,
0000
0000
0030
0000
;

//--------------- dance-single - SO HARD TO DO ----------------
#NOTES:
     dance-single:
     SO HARD TO DO:
     Hard:
     7:
     0,0,0,0,0:
0000
0000
0000
0000
,
0000
0000
0000
0000
,
0000
0000
0000
0000
,
0000
0000
0000
0000
,
0011
0000
0000
0000
1000
0010
1000
0010
1000
0000
0000
0000
0000
0000
0101
0000
,
0000
0001
1000
0000
0010
0100
0010
0000
,
1010
0000
0000
0000
0001
0010
0001
0010
0001
0000
0000
0000
0000
0000
1100
0000
,
0000
1000
0001
0000
0100
0010
0100
0000
,
0001
0000
0010
0001
1000
0100
0000
0110
,
0000
0000
0010
0000
0100
0000
0000
0000
1100
0000
1000
0000
0001
0000
0000
0001
,
0100
0001
1000
0000
0010
1000
0100
0110
,
0000
0010
0001
0000
0101
0001
1000
0100
,
0010
0000
0100
0000
0011
0001
0000
1010
,
0000
0000
1000
0000
0100
0000
1000
0001
1000
0000
0000
0000
0010
0000
0100
0010
,
0100
0000
0001
0000
1001
0000
1000
1001
,
0000
0000
0001
0000
0010
0000
0100
0000
1000
0000
0000
0000
0001
0000
1000
0001
,
1000
0000
0010
0100
0100
0010
0000
1010
,
0000
0000
1000
0000
0001
0000
0100
0000
0101
0000
0000
0000
0001
0000
0010
0100
,
0010
0100
1000
0000
1001
0000
0001
0100
,
0001
1000
0010
0000
1010
0000
1000
0001
,
0100
0100
0001
0000
0011
0000
0010
0100
,
0000
0000
0100
0010
0100
0000
1000
0000
0001
0000
0000
0000
0100
0000
0001
0100
,
0001
0000
1000
0000
1001
0000
0001
0100
,
0000
0001
1000
0100
0000
0100
0010
0010
,
0100
0000
1000
0100
0000
1000
0001
0000
,
0010
0000
0010
0001
0000
0100
0010
0000
,
1000
0100
1000
0001
0010
0001
0100
0000
,
0110
0000
0010
1000
0000
1000
0001
0000
,
1001
0000
1000
0100
0000
1000
0001
0000
,
0010
0001
0010
0001
0000
1000
0000
1001
,
0000
0000
0001
0000
0000
0100
0001
0000
,
1000
0000
0010
0000
1000
0000
0000
0000
0100
0000
0010
0000
0000
0100
0000
0000
,
0110
0000
0010
0001
0010
0000
0100
0000
,
1000
0000
0100
0000
1000
0000
0001
0000
0100
0000
0000
0001
1000
0000
0000
0000
,
1001
0000
0001
0010
0001
1000
0000
1000
,
0100
0000
0010
0001
0100
0001
1000
0000
,
1001
0000
0001
0010
0000
0001
0100
0110
,
0000
0010
1000
0100
0000
0011
0000
1100
,
0000
0000
1000
1000
0001
0001
0000
1001
,
0000
1000
0010
0100
0001
0100
0100
0100
,
0010
0000
0110
0000
1001
1000
0100
0010
,
0000
0000
0010
0000
0001
0000
0000
0000
0101
0000
0000
0000
0100
0000
0000
0100
,
0010
0100
0001
1000
0100
0000
0000
0110
,
0000
0000
0010
0000
0001
0000
0000
0000
1000
0000
0000
0000
0001
0000
0000
0001
,
1000
0001
0100
0000
0110
0000
0010
1000
,
0000
0000
1000
0000
0100
0000
0000
0000
0010
0000
0001
0000
1001
0000
0000
0010
,
0010
0100
0010
0000
0001
0100
0010
1010
,
0000
1000
0001
0001
0101
0001
0011
0000
,
0110
0000
1100
0000
1000
0010
0100
0001
,
0001
0000
0001
0000
1000
0000
0000
0000
1001
0000
0000
0000
0110
0000
0000
0010
,
0010
0000
0100
0001
0011
0001
1000
1100
,
0000
0000
1000
0000
0001
0000
0001
0000
0100
0000
0100
0000
0010
0000
0000
0100
,
0100
0001
1000
0000
0100
0010
0001
1000
,
0000
0000
0101
0000
1010
0000
0000
0000
1000
0000
0100
0000
0010
0000
0000
0100
,
0100
0000
1100
0011
0000
0101
1010
2002
,
0000
0000
0000
0000
,
0000
0000
0000
0000
0000
3003
0000
0000
;

//--------------- dance-solo - BABY MODE ----------------
#NOTES:
     dance-solo:
     BABY MODE:
     Beginner:
     1:
     0,0,0,0,0:
000000
000000
000000
000000
,
000000
000000
000000
000000
,
000000
000000
000000
000000
,
000000
000000
000000
000000
,
000010
000000
000000
000000
,
010000
000000
000000
000000
,
000001
000000
000000
000000
,
100000
000000
000000
000000
,
000100
000000
001000
000000
,
000100
000000
000000
000000
,
010000
000000
000000
000000
,
000001
000000
000000
000000
,
000100
000000
001000
000000
,
000100
000000
000000
000000
,
000010
000000
000000
000000
,
100000
000000
000000
000000
,
000001
000000
100000
000000
,
000001
000000
000000
000000
,
010000
000000
000000
000000
,
000100
000000
000000
000000
,
100000
000000
000001
000000
,
100000
000000
000000
000000
,
000010
000000
000000
000000
,
000100
000000
000000
000000
,
001000
000000
001000
000000
,
001000
000000
000000
000000
,
000100
000000
000100
000000
,
000100
000000
000000
000000
,
000010
000000
010000
000000
,
000001
000000
100000
000000
,
000100
000000
000000
000000
,
000000
000000
000000
000000
,
001000
000000
000010
000000
,
000000
000000
000000
000000
,
001000
000000
010000
000000
,
000000
000000
000000
000000
,
100001
000000
000000
000000
,
001100
000000
000000
000000
,
010010
000000
000000
000000
,
000000
000000
000000
000000
,
000100
000000
000100
000000
,
000100
000000
000000
000000
,
001000
000000
001000
000000
,
001000
000000
000000
000000
,
000001
000000
000001
000000
,
000001
000000
000000
000000
,
100000
000000
100000
000000
,
100000
000000
000000
000000
,
000010
000000
010000
000000
,
000010
000000
000000
000000
,
010000
000000
000010
000000
,
010000
000000
000000
000000
,
000001
000000
001000
000000
,
000100
000000
100000
000000
,
000010
000000
010000
000000
;
